osu file format v14

[General]
AudioFilename: audio.mp3
AudioLeadIn: 0
PreviewTime: 73624
Countdown: 1
SampleSet: Normal
StackLeniency: 0.7
Mode: 1
LetterboxInBreaks: 0
WidescreenStoryboard: 0

[Editor]
DistanceSpacing: 2.1
BeatDivisor: 4
GridSize: 32
TimelineZoom: 1.3

[Metadata]
Title:DADDY(feat. CL of 2NE1)
TitleUnicode:DADDY(feat. CL of 2NE1)
Artist:PSY
ArtistUnicode:PSY
Creator:chaica
Version:Taiko Oni
Source:
Tags:PSY 7TH ALBUM 나팔바지
BeatmapID:1799339
BeatmapSetID:859947

[Difficulty]
HPDrainRate:6
CircleSize:6
OverallDifficulty:6
ApproachRate:9
SliderMultiplier:1.4
SliderTickRate:1

[Events]
//Background and Video events
0,0,"sai.jpg",0,80
//Break Periods
//Storyboard Layer 0 (Background)
//Storyboard Layer 1 (Fail)
//Storyboard Layer 2 (Pass)
//Storyboard Layer 3 (Foreground)
//Storyboard Sound Samples

[TimingPoints]
110,455.200667627646,4,1,0,70,1,0
14448,-100,4,1,0,50,0,0
27422,-100,4,1,0,60,0,0
29015,-100,4,1,0,70,0,0
29242,-100,4,1,0,80,0,0
43581,-100,4,1,0,50,0,0
57692,-100,4,1,0,60,0,0
58375,-100,4,1,0,70,0,0
65658,-100,4,1,0,80,0,0
73511,-100,4,1,0,60,0,0
74762,-100,4,1,0,80,0,1
88191,-100,4,1,0,85,0,0
89329,-100,4,1,0,90,0,1
103781,-100,4,1,0,60,0,0
118234,-100,4,1,0,70,0,0
118462,-100,4,1,0,80,0,0
132914,-100,4,1,0,50,0,0
146912,-100,4,1,0,60,0,0
147595,-100,4,1,0,70,0,0
154878,-100,4,1,0,80,0,0
162730,-100,4,1,0,60,0,0
163982,-100,4,1,0,80,0,1
177410,-100,4,1,0,85,0,0
178548,-100,4,1,0,90,0,1
193115,-100,4,1,0,70,0,0
208136,-100,4,1,0,80,0,0
208591,-96.1538461538461,4,1,0,80,0,0
208819,-92.5925925925926,4,1,0,80,0,0
208933,-90.9090909090909,4,1,0,80,0,0
209047,-89.2857142857143,4,1,0,80,0,0
209274,-86.2068965517241,4,1,0,80,0,0
209502,-83.3333333333333,4,1,0,90,0,1
222247,-83.3333333333333,4,1,0,90,0,0
224068,-83.3333333333333,4,1,0,80,0,1
224296,-80.6451612903226,4,1,0,80,0,1
224410,-79.3650793650794,4,1,0,80,0,1
224523,-78.125,4,1,0,80,0,1
224751,-75.7575757575758,4,1,0,80,0,1
224865,-74.6268656716418,4,1,0,80,0,1
224979,-73.5294117647059,4,1,0,80,0,1
225092,-72.463768115942,4,1,0,80,0,1
225206,-71.4285714285714,4,1,0,80,0,1
225320,-70.4225352112676,4,1,0,80,0,1
225434,-69.4444444444444,4,1,0,80,0,1
225548,-68.4931506849315,4,1,0,80,0,1
225661,-67.5675675675676,4,1,0,80,0,1
225889,-65.7894736842105,4,1,0,80,0,1
226117,-64.1025641025641,4,1,0,100,0,0

[HitObjects]
256,192,110,5,0,0:0:0:0:
256,192,451,1,8,0:0:0:0:
256,192,792,1,0,0:0:0:0:
256,192,1020,1,8,0:0:0:0:
256,192,1248,1,8,0:0:0:0:
256,192,1475,1,8,0:0:0:0:
256,192,1703,1,8,0:0:0:0:
256,192,1930,1,0,0:0:0:0:
256,192,2272,1,8,0:0:0:0:
256,192,2613,1,0,0:0:0:0:
256,192,2841,1,8,0:0:0:0:
256,192,3296,1,4,0:0:0:0:
256,192,3751,1,0,0:0:0:0:
256,192,4093,1,8,0:0:0:0:
256,192,4434,1,0,0:0:0:0:
256,192,4662,1,8,0:0:0:0:
256,192,5344,1,0,0:0:0:0:
256,192,5572,1,8,0:0:0:0:
256,192,5800,1,8,0:0:0:0:
256,192,6027,1,8,0:0:0:0:
256,192,6255,1,8,0:0:0:0:
256,192,6369,1,0,0:0:0:0:
256,192,6482,1,8,0:0:0:0:
256,192,6710,1,8,0:0:0:0:
256,192,6938,1,4,0:0:0:0:
256,192,7165,1,8,0:0:0:0:
256,192,7393,1,0,0:0:0:0:
256,192,7734,1,0,0:0:0:0:
256,192,7848,1,8,0:0:0:0:
256,192,8076,1,0,0:0:0:0:
256,192,8303,1,8,0:0:0:0:
256,192,8531,1,0,0:0:0:0:
256,192,8758,1,8,0:0:0:0:
256,192,8986,1,0,0:0:0:0:
256,192,9214,1,8,0:0:0:0:
256,192,9555,1,0,0:0:0:0:
256,192,9669,1,8,0:0:0:0:
256,192,9896,1,0,0:0:0:0:
256,192,10124,1,8,0:0:0:0:
256,192,10579,1,4,0:0:0:0:
256,192,11034,1,0,0:0:0:0:
256,192,11376,1,0,0:0:0:0:
256,192,11490,1,8,0:0:0:0:
256,192,11717,1,0,0:0:0:0:
256,192,11945,1,8,0:0:0:0:
256,192,12400,1,8,0:0:0:0:
256,192,12628,1,0,0:0:0:0:
256,192,12855,1,8,0:0:0:0:
256,192,13083,1,0,0:0:0:0:
256,192,13310,1,8,0:0:0:0:
256,192,13538,1,0,0:0:0:0:
256,192,13766,1,8,0:0:0:0:
256,192,14221,1,4,0:0:0:0:
256,192,14676,1,0,0:0:0:0:
256,192,14904,1,0,0:0:0:0:
256,192,15131,1,8,0:0:0:0:
256,192,15359,1,0,0:0:0:0:
256,192,15473,1,0,0:0:0:0:
256,192,15586,1,8,0:0:0:0:
256,192,15814,1,0,0:0:0:0:
256,192,15928,1,8,0:0:0:0:
256,192,16269,1,8,0:0:0:0:
256,192,16497,1,8,0:0:0:0:
256,192,16724,1,0,0:0:0:0:
256,192,16952,1,8,0:0:0:0:
256,192,17066,1,8,0:0:0:0:
256,192,17180,1,0,0:0:0:0:
256,192,17407,1,8,0:0:0:0:
256,192,17635,1,0,0:0:0:0:
256,192,17749,1,8,0:0:0:0:
256,192,17976,1,8,0:0:0:0:
256,192,18090,1,0,0:0:0:0:
256,192,18318,1,8,0:0:0:0:
256,192,18545,1,8,0:0:0:0:
256,192,18659,1,0,0:0:0:0:
256,192,18773,1,8,0:0:0:0:
256,192,19000,1,0,0:0:0:0:
256,192,19228,1,8,0:0:0:0:
256,192,19456,1,8,0:0:0:0:
256,192,19569,1,0,0:0:0:0:
256,192,19911,1,8,0:0:0:0:
256,192,20138,1,0,0:0:0:0:
256,192,20252,1,8,0:0:0:0:
256,192,20366,1,8,0:0:0:0:
256,192,20480,1,0,0:0:0:0:
256,192,20594,1,8,0:0:0:0:
256,192,20821,1,0,0:0:0:0:
256,192,21049,1,8,0:0:0:0:
256,192,21276,1,0,0:0:0:0:
256,192,21390,1,8,0:0:0:0:
256,192,21618,1,8,0:0:0:0:
256,192,21732,1,0,0:0:0:0:
256,192,21959,1,8,0:0:0:0:
256,192,22187,1,0,0:0:0:0:
256,192,22414,1,8,0:0:0:0:
256,192,22642,1,0,0:0:0:0:
256,192,22756,1,0,0:0:0:0:
256,192,22870,1,8,0:0:0:0:
256,192,23097,1,0,0:0:0:0:
256,192,23211,1,8,0:0:0:0:
256,192,23552,1,8,0:0:0:0:
256,192,23780,1,8,0:0:0:0:
256,192,24008,1,0,0:0:0:0:
288,192,24121,1,8,0:0:0:0:
256,192,24235,1,0,0:0:0:0:
256,192,24463,1,0,0:0:0:0:
256,192,24690,1,8,0:0:0:0:
256,192,24918,1,0,0:0:0:0:
256,192,25032,1,8,0:0:0:0:
256,192,25259,1,8,0:0:0:0:
256,192,25373,1,0,0:0:0:0:
256,192,25601,1,8,0:0:0:0:
256,192,25828,1,8,0:0:0:0:
256,192,25942,1,0,0:0:0:0:
256,192,26056,1,8,0:0:0:0:
256,192,26284,1,0,0:0:0:0:
256,192,26511,1,8,0:0:0:0:
256,192,26739,1,8,0:0:0:0:
256,192,26853,1,0,0:0:0:0:
256,192,27194,1,8,0:0:0:0:
256,192,27422,1,8,0:0:0:0:
256,192,27535,1,0,0:0:0:0:
256,192,27763,1,0,0:0:0:0:
256,192,27877,1,8,0:0:0:0:
256,192,27991,1,0,0:0:0:0:
256,192,28218,1,0,0:0:0:0:
256,192,28332,1,8,0:0:0:0:
256,192,28446,1,8,0:0:0:0:
256,192,28560,1,0,0:0:0:0:
256,192,28787,1,12,0:0:0:0:
256,192,29015,1,0,0:0:0:0:
256,192,29242,1,8,0:0:0:0:
256,192,29470,1,0,0:0:0:0:
256,192,29584,1,0,0:0:0:0:
256,192,29698,1,8,0:0:0:0:
256,192,29925,1,0,0:0:0:0:
256,192,30153,1,8,0:0:0:0:
256,192,30494,1,0,0:0:0:0:
256,192,30608,1,8,0:0:0:0:
256,192,30836,1,0,0:0:0:0:
256,192,31063,1,8,0:0:0:0:
256,192,31177,1,0,0:0:0:0:
256,192,31291,1,0,0:0:0:0:
256,192,31518,1,8,0:0:0:0:
256,192,31746,1,0,0:0:0:0:
256,192,31974,1,8,0:0:0:0:
256,192,32429,1,0,0:0:0:0:
256,192,32656,1,8,0:0:0:0:
256,192,32884,1,0,0:0:0:0:
256,192,33339,1,8,0:0:0:0:
256,192,33567,1,0,0:0:0:0:
256,192,33794,1,8,0:0:0:0:
256,192,34022,1,0,0:0:0:0:
256,192,34136,1,0,0:0:0:0:
256,192,34250,1,8,0:0:0:0:
256,192,34705,1,8,0:0:0:0:
256,192,34819,1,8,0:0:0:0:
256,192,34932,1,0,0:0:0:0:
256,192,35046,1,0,0:0:0:0:
256,192,35160,1,8,0:0:0:0:
256,192,35388,1,0,0:0:0:0:
256,192,35615,1,8,0:0:0:0:
256,192,35843,1,0,0:0:0:0:
256,192,36070,1,12,0:0:0:0:
256,192,36526,1,0,0:0:0:0:
256,192,36753,1,0,0:0:0:0:
256,192,36867,1,0,0:0:0:0:
256,192,36981,1,8,0:0:0:0:
256,192,37208,1,8,0:0:0:0:
256,192,37436,1,0,0:0:0:0:
256,192,37891,1,8,0:0:0:0:
256,192,38119,1,0,0:0:0:0:
256,192,38346,1,8,0:0:0:0:
256,192,38574,1,8,0:0:0:0:
256,192,38688,1,8,0:0:0:0:
256,192,38802,1,0,0:0:0:0:
256,192,39029,1,8,0:0:0:0:
256,192,39257,1,0,0:0:0:0:
256,192,39712,1,0,0:0:0:0:
256,192,39940,1,8,0:0:0:0:
256,192,40167,1,0,0:0:0:0:
256,192,40622,1,8,0:0:0:0:
256,192,40850,1,0,0:0:0:0:
256,192,41078,1,8,0:0:0:0:
256,192,41305,1,0,0:0:0:0:
256,192,41533,1,8,0:0:0:0:
256,192,41988,1,0,0:0:0:0:
256,192,42102,1,8,0:0:0:0:
256,192,42329,1,8,0:0:0:0:
256,192,42443,1,0,0:0:0:0:
256,192,42671,1,0,0:0:0:0:
288,192,42785,1,8,0:0:0:0:
256,192,42898,1,0,0:0:0:0:
256,192,43012,1,8,0:0:0:0:
256,192,43240,1,8,0:0:0:0:
256,192,43354,1,0,0:0:0:0:
256,192,43809,1,0,0:0:0:0:
256,192,44492,1,8,0:0:0:0:
256,192,44719,1,0,0:0:0:0:
256,192,45174,1,0,0:0:0:0:
256,192,45402,1,8,0:0:0:0:
256,192,45630,1,0,0:0:0:0:
256,192,46312,1,0,0:0:0:0:
256,192,46540,1,8,0:0:0:0:
256,192,46995,1,8,0:0:0:0:
256,192,47223,1,0,0:0:0:0:
256,192,47450,1,8,0:0:0:0:
256,192,48133,1,8,0:0:0:0:
256,192,48361,1,0,0:0:0:0:
256,192,48816,1,0,0:0:0:0:
256,192,49044,1,8,0:0:0:0:
256,192,49271,1,0,0:0:0:0:
256,192,49954,1,8,0:0:0:0:
256,192,50409,1,8,0:0:0:0:
256,192,50637,1,0,0:0:0:0:
256,192,50864,1,8,0:0:0:0:
256,192,51092,1,0,0:0:0:0:
256,192,51775,1,0,0:0:0:0:
256,192,52002,1,8,0:0:0:0:
256,192,52458,1,8,0:0:0:0:
256,192,52685,1,0,0:0:0:0:
256,192,52913,1,8,0:0:0:0:
256,192,53596,1,8,0:0:0:0:
256,192,53823,1,0,0:0:0:0:
256,192,54278,1,0,0:0:0:0:
256,192,54506,1,8,0:0:0:0:
256,192,54734,1,0,0:0:0:0:
256,192,55075,1,8,0:0:0:0:
256,192,55416,1,0,0:0:0:0:
256,192,55644,1,8,0:0:0:0:
256,192,55872,1,8,0:0:0:0:
256,192,55985,1,0,0:0:0:0:
256,192,56099,1,8,0:0:0:0:
256,192,56327,1,8,0:0:0:0:
256,192,56554,1,0,0:0:0:0:
256,192,56896,1,8,0:0:0:0:
256,192,57237,1,0,0:0:0:0:
256,192,57465,1,8,0:0:0:0:
256,192,57692,1,0,0:0:0:0:
256,192,57806,1,0,0:0:0:0:
256,192,57920,1,8,0:0:0:0:
256,192,58148,1,0,0:0:0:0:
256,192,58375,1,12,0:0:0:0:
256,192,58717,1,0,0:0:0:0:
256,192,58830,1,8,0:0:0:0:
256,192,59058,1,0,0:0:0:0:
256,192,59286,1,8,0:0:0:0:
256,192,59513,1,0,0:0:0:0:
256,192,59627,1,0,0:0:0:0:
256,192,59741,1,8,0:0:0:0:
256,192,59968,1,0,0:0:0:0:
256,192,60196,1,8,0:0:0:0:
256,192,60537,1,0,0:0:0:0:
256,192,60651,1,8,0:0:0:0:
256,192,60879,1,0,0:0:0:0:
256,192,61106,1,8,0:0:0:0:
256,192,61334,1,0,0:0:0:0:
256,192,61448,1,0,0:0:0:0:
256,192,61562,1,8,0:0:0:0:
256,192,61789,1,0,0:0:0:0:
256,192,62017,1,8,0:0:0:0:
256,192,62358,1,0,0:0:0:0:
256,192,62472,1,8,0:0:0:0:
256,192,62700,1,0,0:0:0:0:
256,192,62927,1,8,0:0:0:0:
256,192,63155,1,0,0:0:0:0:
256,192,63269,1,0,0:0:0:0:
256,192,63382,1,8,0:0:0:0:
256,192,63610,1,0,0:0:0:0:
256,192,63838,1,8,0:0:0:0:
256,192,63951,1,8,0:0:0:0:
256,192,64065,1,0,0:0:0:0:
256,192,64293,1,8,0:0:0:0:
256,192,64520,1,0,0:0:0:0:
256,192,64748,1,8,0:0:0:0:
256,192,65203,1,4,0:0:0:0:
256,192,65658,1,8,0:0:0:0:
256,192,66114,1,0,0:0:0:0:
256,192,66341,1,8,0:0:0:0:
256,192,66455,1,8,0:0:0:0:
256,192,66569,1,8,0:0:0:0:
256,192,66796,1,0,0:0:0:0:
256,192,67024,1,8,0:0:0:0:
224,192,67252,1,0,0:0:0:0:
224,192,67365,1,0,0:0:0:0:
256,192,67479,1,0,0:0:0:0:
256,192,67707,1,8,0:0:0:0:
256,192,67934,1,0,0:0:0:0:
256,192,68162,1,0,0:0:0:0:
256,192,68276,1,0,0:0:0:0:
256,192,68390,1,8,0:0:0:0:
256,192,68617,1,8,0:0:0:0:
256,192,68845,1,0,0:0:0:0:
256,192,69072,1,8,0:0:0:0:
224,192,69186,1,8,0:0:0:0:
256,192,69300,1,0,0:0:0:0:
256,192,69528,1,0,0:0:0:0:
256,192,69755,1,8,0:0:0:0:
256,192,69983,1,0,0:0:0:0:
256,192,70097,1,0,0:0:0:0:
256,192,70210,1,8,0:0:0:0:
256,192,70438,1,8,0:0:0:0:
256,192,70666,1,0,0:0:0:0:
256,192,70893,1,8,0:0:0:0:
256,192,71007,1,8,0:0:0:0:
256,192,71121,1,0,0:0:0:0:
256,192,71235,1,8,0:0:0:0:
256,192,71348,1,8,0:0:0:0:
256,192,71462,1,0,0:0:0:0:
256,192,71576,1,8,0:0:0:0:
256,192,71690,1,8,0:0:0:0:
256,192,71804,1,0,0:0:0:0:
256,192,71917,1,8,0:0:0:0:
256,192,72031,1,0,0:0:0:0:
256,192,72145,1,8,0:0:0:0:
256,192,72259,1,8,0:0:0:0:
256,192,72373,1,8,0:0:0:0:
256,192,72486,1,4,0:0:0:0:
256,192,73624,1,0,0:0:0:0:
256,192,73852,1,8,0:0:0:0:
256,192,74080,1,0,0:0:0:0:
256,192,74307,1,12,0:0:0:0:
256,192,74535,1,8,0:0:0:0:
256,192,74762,1,4,0:0:0:0:
256,192,74990,1,8,0:0:0:0:
256,192,75218,1,8,0:0:0:0:
256,192,75331,1,8,0:0:0:0:
256,192,75445,1,8,0:0:0:0:
256,192,75559,1,8,0:0:0:0:
256,192,75673,1,0,0:0:0:0:
256,192,75900,1,0,0:0:0:0:
256,192,76128,1,8,0:0:0:0:
256,192,76356,1,8,0:0:0:0:
256,192,76583,1,0,0:0:0:0:
256,192,76811,1,8,0:0:0:0:
256,192,77038,1,8,0:0:0:0:
256,192,77152,1,8,0:0:0:0:
256,192,77266,1,8,0:0:0:0:
256,192,77380,1,8,0:0:0:0:
256,192,77494,1,0,0:0:0:0:
256,192,77721,1,0,0:0:0:0:
256,192,77949,1,12,0:0:0:0:
256,192,78176,1,8,0:0:0:0:
256,192,78404,1,0,0:0:0:0:
256,192,78632,1,0,0:0:0:0:
256,192,78859,1,8,0:0:0:0:
256,192,79087,1,0,0:0:0:0:
256,192,79201,1,0,0:0:0:0:
256,192,79314,1,8,0:0:0:0:
256,192,79542,1,0,0:0:0:0:
256,192,79770,1,8,0:0:0:0:
256,192,79997,1,8,0:0:0:0:
256,192,80111,1,8,0:0:0:0:
256,192,80225,1,0,0:0:0:0:
256,192,80452,1,0,0:0:0:0:
256,192,80680,1,8,0:0:0:0:
256,192,80908,1,0,0:0:0:0:
256,192,81021,1,8,0:0:0:0:
256,192,81135,1,0,0:0:0:0:
256,192,81363,1,0,0:0:0:0:
256,192,81590,1,12,0:0:0:0:
256,192,81818,1,8,0:0:0:0:
256,192,82046,1,0,0:0:0:0:
256,192,82273,1,8,0:0:0:0:
256,192,82501,1,8,0:0:0:0:
256,192,82615,1,8,0:0:0:0:
256,192,82728,1,8,0:0:0:0:
256,192,82842,1,8,0:0:0:0:
256,192,82956,1,0,0:0:0:0:
256,192,83184,1,0,0:0:0:0:
256,192,83411,1,8,0:0:0:0:
256,192,83639,1,8,0:0:0:0:
256,192,83866,1,0,0:0:0:0:
256,192,84094,1,8,0:0:0:0:
256,192,84322,1,0,0:0:0:0:
256,192,84435,1,8,0:0:0:0:
256,192,84549,1,8,0:0:0:0:
256,192,84663,1,8,0:0:0:0:
256,192,84777,1,0,0:0:0:0:
256,192,85004,1,0,0:0:0:0:
256,192,85232,1,12,0:0:0:0:
256,192,85460,1,0,0:0:0:0:
256,192,85687,1,8,0:0:0:0:
256,192,85915,1,0,0:0:0:0:
256,192,86142,1,8,0:0:0:0:
256,192,86370,1,0,0:0:0:0:
256,192,86484,1,8,0:0:0:0:
256,192,86598,1,0,0:0:0:0:
256,192,86825,1,8,0:0:0:0:
256,192,87053,1,0,0:0:0:0:
256,192,87280,1,8,0:0:0:0:
256,192,87508,1,0,0:0:0:0:
256,192,87622,1,8,0:0:0:0:
256,192,87849,1,8,0:0:0:0:
256,192,87963,1,0,0:0:0:0:
256,192,88191,1,0,0:0:0:0:
256,192,88305,1,8,0:0:0:0:
256,192,88418,1,0,0:0:0:0:
256,192,88646,1,8,0:0:0:0:
256,192,88760,1,0,0:0:0:0:
256,192,88874,1,8,0:0:0:0:
256,192,89101,1,0,0:0:0:0:
256,192,89329,1,12,0:0:0:0:
256,192,89556,1,0,0:0:0:0:
256,192,89670,1,0,0:0:0:0:
256,192,89784,1,8,0:0:0:0:
256,192,90012,1,0,0:0:0:0:
256,192,90239,1,8,0:0:0:0:
256,192,90353,1,0,0:0:0:0:
256,192,90581,1,0,0:0:0:0:
256,192,90694,1,8,0:0:0:0:
256,192,90922,1,8,0:0:0:0:
256,192,91150,1,0,0:0:0:0:
256,192,91377,1,0,0:0:0:0:
256,192,91491,1,0,0:0:0:0:
256,192,91605,1,8,0:0:0:0:
256,192,91832,1,0,0:0:0:0:
256,192,92060,1,0,0:0:0:0:
256,192,92174,1,8,0:0:0:0:
256,192,92401,1,8,0:0:0:0:
256,192,92515,1,0,0:0:0:0:
256,192,92743,1,0,0:0:0:0:
256,192,92970,1,8,0:0:0:0:
256,192,93198,1,0,0:0:0:0:
256,192,93312,1,0,0:0:0:0:
256,192,93426,1,8,0:0:0:0:
256,192,93653,1,0,0:0:0:0:
256,192,93881,1,8,0:0:0:0:
256,192,93995,1,0,0:0:0:0:
256,192,94222,1,0,0:0:0:0:
256,192,94336,1,8,0:0:0:0:
256,192,94564,1,0,0:0:0:0:
256,192,94791,1,0,0:0:0:0:
256,192,94905,1,8,0:0:0:0:
256,192,95019,1,0,0:0:0:0:
256,192,95246,1,0,0:0:0:0:
256,192,95474,1,8,0:0:0:0:
256,192,95588,1,8,0:0:0:0:
256,192,95702,1,0,0:0:0:0:
256,192,95929,1,8,0:0:0:0:
256,192,96043,1,0,0:0:0:0:
256,192,96157,1,8,0:0:0:0:
256,192,96384,1,0,0:0:0:0:
256,192,96612,1,12,0:0:0:0:
256,192,96840,1,0,0:0:0:0:
256,192,96953,1,0,0:0:0:0:
256,192,97067,1,8,0:0:0:0:
256,192,97295,1,0,0:0:0:0:
256,192,97522,1,8,0:0:0:0:
256,192,97750,1,0,0:0:0:0:
256,192,97864,1,8,0:0:0:0:
256,192,98091,1,8,0:0:0:0:
256,192,98205,1,0,0:0:0:0:
256,192,98433,1,8,0:0:0:0:
256,192,98660,1,0,0:0:0:0:
256,192,98774,1,0,0:0:0:0:
256,192,98888,1,8,0:0:0:0:
256,192,99116,1,0,0:0:0:0:
256,160,99343,1,8,0:0:0:0:
256,160,99571,1,8,0:0:0:0:
256,160,99685,1,0,0:0:0:0:
256,160,99912,1,0,0:0:0:0:
256,160,100026,1,8,0:0:0:0:
256,160,100254,1,0,0:0:0:0:
256,160,100481,1,0,0:0:0:0:
256,160,100595,1,0,0:0:0:0:
256,160,100709,1,8,0:0:0:0:
256,160,100936,1,8,0:0:0:0:
256,160,101164,1,0,0:0:0:0:
256,160,101392,1,0,0:0:0:0:
256,160,101505,1,8,0:0:0:0:
256,160,101733,1,0,0:0:0:0:
256,160,101847,1,8,0:0:0:0:
256,160,102074,1,8,0:0:0:0:
256,160,102188,1,0,0:0:0:0:
256,160,102416,1,0,0:0:0:0:
256,160,102530,1,8,0:0:0:0:
256,160,102757,1,8,0:0:0:0:
256,160,102871,1,8,0:0:0:0:
256,160,102985,1,0,0:0:0:0:
256,160,103212,1,0,0:0:0:0:
256,160,103440,1,12,0:0:0:0:
256,192,103895,1,0,0:0:0:0:
256,192,104123,1,0,0:0:0:0:
256,192,104350,1,8,0:0:0:0:
256,192,104578,1,0,0:0:0:0:
256,192,104692,1,0,0:0:0:0:
256,192,104806,1,8,0:0:0:0:
256,192,105033,1,0,0:0:0:0:
256,192,105147,1,8,0:0:0:0:
256,192,105375,1,8,0:0:0:0:
256,192,105488,1,0,0:0:0:0:
256,192,105716,1,8,0:0:0:0:
256,192,105944,1,0,0:0:0:0:
256,192,106171,1,8,0:0:0:0:
256,192,106285,1,8,0:0:0:0:
256,192,106399,1,0,0:0:0:0:
256,192,106626,1,8,0:0:0:0:
256,192,106854,1,0,0:0:0:0:
256,192,106968,1,8,0:0:0:0:
256,192,107195,1,8,0:0:0:0:
256,192,107309,1,0,0:0:0:0:
256,192,107537,1,8,0:0:0:0:
256,192,107764,1,8,0:0:0:0:
256,192,107878,1,8,0:0:0:0:
256,192,107992,1,0,0:0:0:0:
256,192,108220,1,0,0:0:0:0:
223,185,108333,1,0,0:0:0:0:
256,192,108447,1,8,0:0:0:0:
223,185,108561,1,0,0:0:0:0:
256,192,108789,1,0,0:0:0:0:
256,192,108902,1,8,0:0:0:0:
256,192,109130,1,0,0:0:0:0:
256,192,109358,1,8,0:0:0:0:
256,224,109471,1,0,0:0:0:0:
256,192,109585,1,8,0:0:0:0:
256,192,109699,1,0,0:0:0:0:
256,192,109813,1,8,0:0:0:0:
256,192,110040,1,0,0:0:0:0:
224,184,110154,1,8,0:0:0:0:
256,192,110268,1,8,0:0:0:0:
224,160,110496,1,0,0:0:0:0:
232,148,110609,1,8,0:0:0:0:
256,192,110837,1,8,0:0:0:0:
256,192,110951,1,0,0:0:0:0:
256,192,111178,1,8,0:0:0:0:
256,192,111406,1,0,0:0:0:0:
256,192,111520,1,0,0:0:0:0:
256,192,111634,1,8,0:0:0:0:
256,192,111861,1,0,0:0:0:0:
256,192,112089,1,8,0:0:0:0:
224,160,112203,1,0,0:0:0:0:
256,192,112316,1,0,0:0:0:0:
256,192,112430,1,8,0:0:0:0:
256,192,112658,1,8,0:0:0:0:
256,192,112772,1,0,0:0:0:0:
256,192,112999,1,8,0:0:0:0:
256,192,113227,1,0,0:0:0:0:
288,192,113341,1,8,0:0:0:0:
256,192,113454,1,8,0:0:0:0:
256,192,113682,1,0,0:0:0:0:
256,192,113910,1,8,0:0:0:0:
256,192,114023,1,8,0:0:0:0:
256,192,114137,1,0,0:0:0:0:
256,192,114251,1,8,0:0:0:0:
256,192,114479,1,8,0:0:0:0:
256,192,114592,1,0,0:0:0:0:
256,192,114820,1,8,0:0:0:0:
256,192,115048,1,0,0:0:0:0:
256,192,115161,1,0,0:0:0:0:
256,192,115275,1,8,0:0:0:0:
256,192,115503,1,0,0:0:0:0:
256,192,115730,1,8,0:0:0:0:
288,160,115844,1,0,0:0:0:0:
256,192,115958,1,8,0:0:0:0:
256,192,116072,1,8,0:0:0:0:
256,192,116299,1,8,0:0:0:0:
256,192,116413,1,0,0:0:0:0:
256,192,116641,1,0,0:0:0:0:
256,192,116755,1,8,0:0:0:0:
256,192,116982,1,8,0:0:0:0:
256,192,117096,1,0,0:0:0:0:
256,192,117210,1,8,0:0:0:0:
256,192,117324,1,8,0:0:0:0:
256,192,117437,1,0,0:0:0:0:
256,192,117551,1,8,0:0:0:0:
256,192,117665,1,8,0:0:0:0:
256,192,117779,1,0,0:0:0:0:
256,192,118006,1,12,0:0:0:0:
256,192,118234,1,0,0:0:0:0:
256,192,118462,1,8,0:0:0:0:
256,192,118689,1,0,0:0:0:0:
256,192,118803,1,0,0:0:0:0:
256,192,118917,1,8,0:0:0:0:
256,192,119144,1,0,0:0:0:0:
256,192,119372,1,8,0:0:0:0:
256,192,119713,1,0,0:0:0:0:
256,192,119827,1,8,0:0:0:0:
256,192,120055,1,0,0:0:0:0:
256,192,120282,1,8,0:0:0:0:
256,192,120396,1,0,0:0:0:0:
256,192,120510,1,0,0:0:0:0:
256,192,120738,1,8,0:0:0:0:
256,192,120965,1,8,0:0:0:0:
209,180,121079,1,0,0:0:0:0:
256,192,121193,1,8,0:0:0:0:
256,192,121648,1,0,0:0:0:0:
224,192,121762,1,0,0:0:0:0:
256,192,121876,1,8,0:0:0:0:
256,192,122103,1,0,0:0:0:0:
256,192,122558,1,8,0:0:0:0:
256,192,122672,1,0,0:0:0:0:
256,192,122786,1,0,0:0:0:0:
256,192,123014,1,8,0:0:0:0:
256,192,123241,1,0,0:0:0:0:
256,192,123355,1,0,0:0:0:0:
256,192,123469,1,8,0:0:0:0:
215,184,123583,1,8,0:0:0:0:
215,184,123696,1,0,0:0:0:0:
256,192,123924,1,8,0:0:0:0:
256,192,124152,1,0,0:0:0:0:
256,192,124265,1,0,0:0:0:0:
256,192,124379,1,8,0:0:0:0:
256,192,124607,1,0,0:0:0:0:
256,192,124834,1,8,0:0:0:0:
256,192,125062,1,0,0:0:0:0:
256,192,125290,1,12,0:0:0:0:
256,192,125517,1,8,0:0:0:0:
256,192,125745,1,0,0:0:0:0:
256,192,125972,1,0,0:0:0:0:
256,192,126086,1,8,0:0:0:0:
256,192,126200,1,8,0:0:0:0:
256,192,126428,1,8,0:0:0:0:
256,192,126655,1,0,0:0:0:0:
256,192,126997,1,8,0:0:0:0:
256,192,127110,1,0,0:0:0:0:
224,224,127224,1,8,0:0:0:0:
256,192,127338,1,8,0:0:0:0:
224,224,127452,1,0,0:0:0:0:
256,192,127566,1,8,0:0:0:0:
256,192,127793,1,8,0:0:0:0:
256,192,127907,1,8,0:0:0:0:
256,192,128021,1,0,0:0:0:0:
256,192,128248,1,8,0:0:0:0:
256,192,128476,1,0,0:0:0:0:
256,192,128817,1,0,0:0:0:0:
256,192,128931,1,8,0:0:0:0:
256,192,129159,1,8,0:0:0:0:
256,192,129386,1,0,0:0:0:0:
256,192,129728,1,0,0:0:0:0:
256,192,129842,1,8,0:0:0:0:
256,192,130069,1,0,0:0:0:0:
256,192,130297,1,8,0:0:0:0:
256,192,130524,1,0,0:0:0:0:
256,192,130752,1,8,0:0:0:0:
256,192,130980,1,8,0:0:0:0:
256,192,131093,1,0,0:0:0:0:
256,192,131207,1,8,0:0:0:0:
256,192,131321,1,8,0:0:0:0:
256,192,131549,1,8,0:0:0:0:
256,192,131662,1,0,0:0:0:0:
256,192,131776,1,8,0:0:0:0:
256,192,131890,1,8,0:0:0:0:
288,192,132004,1,8,0:0:0:0:
256,192,132118,1,0,0:0:0:0:
256,192,132231,1,8,0:0:0:0:
288,160,132345,1,8,0:0:0:0:
256,192,132459,1,0,0:0:0:0:
256,192,132573,1,12,0:0:0:0:
256,192,133028,1,0,0:0:0:0:
256,192,133711,1,8,0:0:0:0:
256,192,133938,1,0,0:0:0:0:
256,192,134394,1,0,0:0:0:0:
256,192,134621,1,8,0:0:0:0:
256,192,134849,1,0,0:0:0:0:
256,192,135532,1,0,0:0:0:0:
256,192,135759,1,8,0:0:0:0:
256,192,136214,1,8,0:0:0:0:
256,192,136442,1,0,0:0:0:0:
256,192,136670,1,8,0:0:0:0:
256,192,137353,1,8,0:0:0:0:
256,192,137580,1,0,0:0:0:0:
256,192,138035,1,0,0:0:0:0:
256,192,138263,1,8,0:0:0:0:
256,192,138491,1,0,0:0:0:0:
256,192,139173,1,8,0:0:0:0:
256,192,139629,1,8,0:0:0:0:
256,192,139856,1,0,0:0:0:0:
256,192,140084,1,8,0:0:0:0:
256,192,140311,1,0,0:0:0:0:
256,192,140994,1,0,0:0:0:0:
256,192,141222,1,8,0:0:0:0:
256,192,141677,1,8,0:0:0:0:
256,192,141905,1,0,0:0:0:0:
256,192,142132,1,8,0:0:0:0:
256,192,142815,1,8,0:0:0:0:
256,192,143043,1,0,0:0:0:0:
256,192,143498,1,0,0:0:0:0:
256,192,143725,1,8,0:0:0:0:
256,192,143953,1,0,0:0:0:0:
256,192,144294,1,8,0:0:0:0:
256,192,144636,1,0,0:0:0:0:
256,192,144863,1,8,0:0:0:0:
256,192,145091,1,0,0:0:0:0:
256,192,145205,1,8,0:0:0:0:
256,192,145319,1,8,0:0:0:0:
256,192,145546,1,8,0:0:0:0:
256,192,145774,1,0,0:0:0:0:
256,192,146115,1,8,0:0:0:0:
256,192,146457,1,0,0:0:0:0:
256,192,146684,1,8,0:0:0:0:
256,192,146912,1,8,0:0:0:0:
256,192,147026,1,0,0:0:0:0:
256,192,147139,1,8,0:0:0:0:
256,192,147367,1,0,0:0:0:0:
256,192,147595,1,12,0:0:0:0:
256,192,147936,1,0,0:0:0:0:
256,192,148050,1,8,0:0:0:0:
256,192,148277,1,0,0:0:0:0:
256,192,148505,1,8,0:0:0:0:
256,192,148733,1,8,0:0:0:0:
256,192,148846,1,0,0:0:0:0:
256,192,148960,1,8,0:0:0:0:
256,192,149188,1,0,0:0:0:0:
256,192,149415,1,8,0:0:0:0:
256,192,149757,1,0,0:0:0:0:
256,192,149871,1,8,0:0:0:0:
256,192,150098,1,0,0:0:0:0:
256,192,150326,1,8,0:0:0:0:
256,192,150553,1,8,0:0:0:0:
256,192,150667,1,0,0:0:0:0:
256,192,150781,1,8,0:0:0:0:
256,192,151009,1,0,0:0:0:0:
256,192,151236,1,8,0:0:0:0:
256,192,151578,1,0,0:0:0:0:
256,192,151691,1,8,0:0:0:0:
256,192,151919,1,0,0:0:0:0:
256,192,152147,1,8,0:0:0:0:
256,192,152374,1,8,0:0:0:0:
256,192,152488,1,0,0:0:0:0:
256,192,152602,1,8,0:0:0:0:
256,192,152829,1,0,0:0:0:0:
256,192,153057,1,8,0:0:0:0:
256,192,153171,1,8,0:0:0:0:
256,192,153285,1,0,0:0:0:0:
256,192,153512,1,8,0:0:0:0:
256,192,153740,1,0,0:0:0:0:
256,192,153967,1,8,0:0:0:0:
256,192,154423,1,4,0:0:0:0:
256,192,154878,1,8,0:0:0:0:
256,192,155333,1,0,0:0:0:0:
256,192,155561,1,8,0:0:0:0:
256,192,155674,1,0,0:0:0:0:
256,192,155788,1,8,0:0:0:0:
256,192,156016,1,0,0:0:0:0:
256,192,156243,1,8,0:0:0:0:
224,192,156471,1,0,0:0:0:0:
224,192,156585,1,8,0:0:0:0:
256,192,156699,1,0,0:0:0:0:
256,192,156926,1,8,0:0:0:0:
256,192,157154,1,0,0:0:0:0:
256,192,157381,1,0,0:0:0:0:
256,192,157495,1,8,0:0:0:0:
256,192,157609,1,8,0:0:0:0:
256,192,157837,1,8,0:0:0:0:
256,192,158064,1,0,0:0:0:0:
256,192,158292,1,8,0:0:0:0:
224,192,158406,1,0,0:0:0:0:
256,192,158519,1,0,0:0:0:0:
256,192,158747,1,0,0:0:0:0:
256,192,158975,1,8,0:0:0:0:
256,192,159202,1,0,0:0:0:0:
256,192,159316,1,8,0:0:0:0:
256,192,159430,1,8,0:0:0:0:
256,192,159657,1,8,0:0:0:0:
256,192,159885,1,0,0:0:0:0:
256,192,160113,1,8,0:0:0:0:
256,192,160226,1,0,0:0:0:0:
256,192,160340,1,0,0:0:0:0:
256,192,160454,1,8,0:0:0:0:
256,192,160568,1,0,0:0:0:0:
256,192,160682,1,0,0:0:0:0:
256,192,160795,1,8,0:0:0:0:
256,192,160909,1,8,0:0:0:0:
256,192,161023,1,0,0:0:0:0:
256,192,161137,1,8,0:0:0:0:
256,192,161251,1,0,0:0:0:0:
256,192,161364,1,8,0:0:0:0:
256,192,161478,1,8,0:0:0:0:
256,192,161592,1,8,0:0:0:0:
256,192,161706,1,4,0:0:0:0:
256,192,162844,1,0,0:0:0:0:
256,192,163072,1,8,0:0:0:0:
256,192,163300,1,0,0:0:0:0:
256,192,163527,1,12,0:0:0:0:
256,192,163755,1,8,0:0:0:0:
256,192,163982,1,4,0:0:0:0:
256,192,164210,1,8,0:0:0:0:
256,192,164438,1,8,0:0:0:0:
256,192,164551,1,0,0:0:0:0:
256,192,164665,1,8,0:0:0:0:
256,192,164779,1,8,0:0:0:0:
256,192,164893,1,0,0:0:0:0:
256,192,165120,1,0,0:0:0:0:
256,192,165348,1,8,0:0:0:0:
256,192,165576,1,8,0:0:0:0:
256,192,165803,1,0,0:0:0:0:
256,192,166031,1,8,0:0:0:0:
256,192,166258,1,8,0:0:0:0:
256,192,166372,1,0,0:0:0:0:
256,192,166486,1,8,0:0:0:0:
256,192,166600,1,8,0:0:0:0:
256,192,166714,1,0,0:0:0:0:
256,192,166941,1,0,0:0:0:0:
256,192,167169,1,12,0:0:0:0:
256,192,167396,1,8,0:0:0:0:
256,192,167624,1,0,0:0:0:0:
256,192,167852,1,0,0:0:0:0:
224,192,167965,1,0,0:0:0:0:
256,192,168079,1,8,0:0:0:0:
256,192,168307,1,8,0:0:0:0:
256,192,168421,1,0,0:0:0:0:
256,192,168534,1,8,0:0:0:0:
256,192,168762,1,0,0:0:0:0:
256,192,168990,1,8,0:0:0:0:
256,192,169217,1,8,0:0:0:0:
256,192,169331,1,8,0:0:0:0:
256,192,169445,1,0,0:0:0:0:
256,192,169672,1,0,0:0:0:0:
256,192,169900,1,8,0:0:0:0:
256,192,170128,1,0,0:0:0:0:
256,192,170241,1,8,0:0:0:0:
256,192,170355,1,0,0:0:0:0:
256,192,170583,1,0,0:0:0:0:
256,192,170810,1,12,0:0:0:0:
256,192,171038,1,8,0:0:0:0:
256,192,171266,1,0,0:0:0:0:
256,192,171493,1,8,0:0:0:0:
256,192,171721,1,8,0:0:0:0:
256,192,171835,1,0,0:0:0:0:
256,192,171948,1,8,0:0:0:0:
256,192,172062,1,8,0:0:0:0:
256,192,172176,1,0,0:0:0:0:
256,192,172404,1,0,0:0:0:0:
256,192,172631,1,8,0:0:0:0:
256,192,172859,1,8,0:0:0:0:
256,192,173086,1,0,0:0:0:0:
256,192,173314,1,8,0:0:0:0:
256,192,173542,1,0,0:0:0:0:
256,192,173655,1,0,0:0:0:0:
256,192,173769,1,8,0:0:0:0:
256,192,173883,1,8,0:0:0:0:
256,192,173997,1,0,0:0:0:0:
256,192,174224,1,8,0:0:0:0:
256,192,174452,1,12,0:0:0:0:
256,192,174680,1,0,0:0:0:0:
256,192,174907,1,8,0:0:0:0:
256,192,175135,1,0,0:0:0:0:
256,192,175248,1,0,0:0:0:0:
256,192,175362,1,8,0:0:0:0:
256,192,175590,1,0,0:0:0:0:
256,192,175704,1,8,0:0:0:0:
256,192,175818,1,0,0:0:0:0:
256,192,176045,1,8,0:0:0:0:
256,192,176273,1,0,0:0:0:0:
256,192,176500,1,8,0:0:0:0:
256,192,176728,1,0,0:0:0:0:
256,192,176842,1,8,0:0:0:0:
256,192,177069,1,8,0:0:0:0:
256,192,177183,1,0,0:0:0:0:
256,192,177296,1,0,0:0:0:0:
256,192,177411,1,8,0:0:0:0:
256,192,177525,1,8,0:0:0:0:
256,192,177638,1,0,0:0:0:0:
256,192,177866,1,8,0:0:0:0:
256,192,177980,1,0,0:0:0:0:
256,192,178094,1,8,0:0:0:0:
256,192,178321,1,0,0:0:0:0:
256,192,178549,1,12,0:0:0:0:
256,192,178776,1,0,0:0:0:0:
256,192,178890,1,0,0:0:0:0:
256,192,179004,1,8,0:0:0:0:
256,192,179232,1,0,0:0:0:0:
256,192,179345,1,8,0:0:0:0:
256,192,179459,1,8,0:0:0:0:
256,192,179573,1,0,0:0:0:0:
256,192,179801,1,0,0:0:0:0:
256,192,179914,1,8,0:0:0:0:
256,192,180142,1,8,0:0:0:0:
256,192,180370,1,0,0:0:0:0:
256,192,180597,1,0,0:0:0:0:
256,192,180711,1,0,0:0:0:0:
256,192,180825,1,8,0:0:0:0:
256,192,181052,1,8,0:0:0:0:
256,192,181166,1,8,0:0:0:0:
256,192,181280,1,0,0:0:0:0:
256,192,181394,1,8,0:0:0:0:
256,192,181621,1,8,0:0:0:0:
256,192,181735,1,0,0:0:0:0:
256,192,181963,1,0,0:0:0:0:
256,192,182190,1,8,0:0:0:0:
256,192,182418,1,0,0:0:0:0:
256,192,182532,1,0,0:0:0:0:
256,192,182646,1,8,0:0:0:0:
256,192,182873,1,8,0:0:0:0:
256,192,182986,1,0,0:0:0:0:
256,192,183101,1,8,0:0:0:0:
256,192,183215,1,0,0:0:0:0:
256,192,183442,1,0,0:0:0:0:
256,192,183556,1,8,0:0:0:0:
256,192,183784,1,0,0:0:0:0:
256,192,184011,1,0,0:0:0:0:
256,192,184125,1,8,0:0:0:0:
256,192,184239,1,0,0:0:0:0:
256,192,184466,1,0,0:0:0:0:
256,192,184694,1,8,0:0:0:0:
256,192,184808,1,8,0:0:0:0:
256,192,184922,1,0,0:0:0:0:
256,192,185149,1,8,0:0:0:0:
256,192,185263,1,0,0:0:0:0:
256,192,185377,1,8,0:0:0:0:
224,192,185490,1,0,0:0:0:0:
256,192,185604,1,0,0:0:0:0:
256,192,185832,1,12,0:0:0:0:
256,192,186060,1,0,0:0:0:0:
256,192,186173,1,0,0:0:0:0:
256,192,186287,1,8,0:0:0:0:
256,192,186515,1,0,0:0:0:0:
256,192,186628,1,8,0:0:0:0:
256,192,186742,1,8,0:0:0:0:
256,192,186970,1,0,0:0:0:0:
256,192,187084,1,8,0:0:0:0:
256,192,187311,1,8,0:0:0:0:
256,192,187425,1,0,0:0:0:0:
256,192,187653,1,8,0:0:0:0:
256,192,187880,1,0,0:0:0:0:
256,192,187994,1,0,0:0:0:0:
256,192,188108,1,8,0:0:0:0:
256,192,188336,1,0,0:0:0:0:
256,192,188449,1,8,0:0:0:0:
256,160,188563,1,8,0:0:0:0:
256,160,188791,1,8,0:0:0:0:
256,160,188905,1,0,0:0:0:0:
256,160,189132,1,0,0:0:0:0:
256,160,189246,1,8,0:0:0:0:
256,160,189474,1,0,0:0:0:0:
256,160,189701,1,0,0:0:0:0:
256,160,189815,1,0,0:0:0:0:
256,160,189929,1,8,0:0:0:0:
256,160,190156,1,8,0:0:0:0:
256,192,190270,1,8,0:0:0:0:
256,160,190384,1,0,0:0:0:0:
256,160,190612,1,8,0:0:0:0:
256,160,190725,1,0,0:0:0:0:
256,160,190953,1,0,0:0:0:0:
256,160,191067,1,8,0:0:0:0:
256,160,191294,1,8,0:0:0:0:
256,160,191408,1,0,0:0:0:0:
256,160,191636,1,0,0:0:0:0:
256,160,191750,1,8,0:0:0:0:
256,160,191863,1,0,0:0:0:0:
256,160,191977,1,8,0:0:0:0:
256,160,192091,1,8,0:0:0:0:
256,160,192204,1,0,0:0:0:0:
256,160,192318,1,0,0:0:0:0:
256,160,192432,1,8,0:0:0:0:
256,160,192546,1,0,0:0:0:0:
256,160,192660,1,12,0:0:0:0:
256,192,192887,1,8,0:0:0:0:
256,192,193115,1,0,0:0:0:0:
256,160,193570,1,8,0:0:0:0:
256,192,194025,1,0,0:0:0:0:
256,192,194253,1,0,0:0:0:0:
256,192,194366,1,0,0:0:0:0:
256,160,194480,1,8,0:0:0:0:
256,192,194708,1,0,0:0:0:0:
256,160,194935,1,8,0:0:0:0:
256,160,195049,1,8,0:0:0:0:
256,192,195163,1,0,0:0:0:0:
256,192,195391,1,8,0:0:0:0:
256,192,195618,1,0,0:0:0:0:
256,192,195732,1,8,0:0:0:0:
256,192,195846,1,0,0:0:0:0:
256,192,196301,1,12,0:0:0:0:
256,192,196756,1,0,0:0:0:0:
256,192,196984,1,0,0:0:0:0:
256,192,197098,1,0,0:0:0:0:
256,192,197211,1,8,0:0:0:0:
224,192,197439,1,0,0:0:0:0:
224,192,197667,1,8,0:0:0:0:
224,192,197780,1,8,0:0:0:0:
256,192,197894,1,0,0:0:0:0:
224,192,198122,1,8,0:0:0:0:
256,192,198349,1,0,0:0:0:0:
256,192,198577,1,8,0:0:0:0:
224,192,198691,1,0,0:0:0:0:
256,192,198805,1,8,0:0:0:0:
256,192,199032,1,8,0:0:0:0:
224,192,199260,1,0,0:0:0:0:
256,192,199374,1,8,0:0:0:0:
224,192,199487,1,0,0:0:0:0:
224,192,199943,1,12,0:0:0:0:
256,192,200398,1,0,0:0:0:0:
256,192,200625,1,0,0:0:0:0:
256,192,200739,1,0,0:0:0:0:
224,192,200853,1,8,0:0:0:0:
224,192,201081,1,8,0:0:0:0:
288,192,201194,1,8,0:0:0:0:
256,192,201308,1,0,0:0:0:0:
224,192,201536,1,8,0:0:0:0:
256,192,201763,1,0,0:0:0:0:
256,192,201991,1,0,0:0:0:0:
224,192,202105,1,8,0:0:0:0:
256,192,202219,1,0,0:0:0:0:
224,192,202446,1,8,0:0:0:0:
256,192,202560,1,0,0:0:0:0:
224,192,202674,1,8,0:0:0:0:
224,192,202901,1,8,0:0:0:0:
256,192,203129,1,0,0:0:0:0:
256,192,203357,1,0,0:0:0:0:
256,192,203470,1,0,0:0:0:0:
224,192,203584,1,12,0:0:0:0:
256,192,203812,1,8,0:0:0:0:
256,192,204039,1,0,0:0:0:0:
224,192,204267,1,8,0:0:0:0:
224,192,204381,1,8,0:0:0:0:
256,192,204495,1,0,0:0:0:0:
224,192,204722,1,8,0:0:0:0:
256,192,204950,1,0,0:0:0:0:
256,192,205177,1,0,0:0:0:0:
256,192,205291,1,0,0:0:0:0:
224,192,205405,1,8,0:0:0:0:
224,192,205633,1,8,0:0:0:0:
224,192,205746,1,8,0:0:0:0:
256,192,205860,1,0,0:0:0:0:
224,192,205974,1,8,0:0:0:0:
256,224,206088,1,0,0:0:0:0:
256,192,206202,1,0,0:0:0:0:
224,192,206315,1,8,0:0:0:0:
256,192,206429,1,0,0:0:0:0:
224,192,206543,1,8,0:0:0:0:
192,192,206657,1,8,0:0:0:0:
256,192,206771,1,0,0:0:0:0:
192,192,206884,1,8,0:0:0:0:
192,192,206998,1,8,0:0:0:0:
192,192,207112,1,8,0:0:0:0:
256,192,207226,1,4,0:0:0:0:
192,192,208364,1,8,0:0:0:0:
224,224,208591,1,0,0:0:0:0:
192,192,208819,1,8,0:0:0:0:
224,224,208933,1,0,0:0:0:0:
192,192,209047,1,8,0:0:0:0:
192,192,209274,1,0,0:0:0:0:
256,224,209502,1,12,0:0:0:0:
256,192,209729,1,0,0:0:0:0:
256,192,209843,1,0,0:0:0:0:
256,192,209957,1,8,0:0:0:0:
256,192,210185,1,0,0:0:0:0:
256,192,210298,1,8,0:0:0:0:
256,192,210412,1,8,0:0:0:0:
256,192,210526,1,0,0:0:0:0:
256,192,210754,1,8,0:0:0:0:
256,192,210867,1,8,0:0:0:0:
224,192,210981,1,0,0:0:0:0:
256,192,211095,1,8,0:0:0:0:
256,192,211323,1,0,0:0:0:0:
256,192,211550,1,0,0:0:0:0:
256,192,211664,1,0,0:0:0:0:
256,192,211778,1,8,0:0:0:0:
256,192,212005,1,8,0:0:0:0:
256,192,212119,1,8,0:0:0:0:
256,192,212233,1,0,0:0:0:0:
256,192,212347,1,8,0:0:0:0:
256,192,212574,1,8,0:0:0:0:
256,192,212688,1,0,0:0:0:0:
224,192,212802,1,8,0:0:0:0:
256,192,212916,1,8,0:0:0:0:
256,192,213143,1,0,0:0:0:0:
256,192,213371,1,0,0:0:0:0:
256,192,213485,1,0,0:0:0:0:
256,192,213599,1,8,0:0:0:0:
256,192,213826,1,8,0:0:0:0:
256,192,213939,1,0,0:0:0:0:
256,192,214054,1,8,0:0:0:0:
256,192,214168,1,8,0:0:0:0:
256,192,214395,1,8,0:0:0:0:
256,192,214509,1,8,0:0:0:0:
224,192,214623,1,0,0:0:0:0:
256,192,214737,1,8,0:0:0:0:
256,192,214964,1,0,0:0:0:0:
256,192,215078,1,8,0:0:0:0:
256,192,215192,1,0,0:0:0:0:
256,192,215419,1,0,0:0:0:0:
256,192,215647,1,8,0:0:0:0:
256,192,215761,1,8,0:0:0:0:
256,192,215875,1,0,0:0:0:0:
256,192,216102,1,8,0:0:0:0:
256,192,216216,1,0,0:0:0:0:
256,192,216330,1,8,0:0:0:0:
224,192,216443,1,8,0:0:0:0:
256,192,216557,1,0,0:0:0:0:
256,192,216785,1,12,0:0:0:0:
256,192,217013,1,0,0:0:0:0:
256,192,217126,1,0,0:0:0:0:
256,192,217240,1,8,0:0:0:0:
256,192,217468,1,0,0:0:0:0:
256,192,217581,1,8,0:0:0:0:
256,192,217695,1,8,0:0:0:0:
224,224,217809,1,0,0:0:0:0:
256,192,217923,1,8,0:0:0:0:
256,192,218037,1,8,0:0:0:0:
224,224,218151,1,0,0:0:0:0:
256,192,218264,1,8,0:0:0:0:
256,192,218378,1,8,0:0:0:0:
256,192,218606,1,0,0:0:0:0:
256,192,218833,1,0,0:0:0:0:
256,192,218947,1,0,0:0:0:0:
256,192,219061,1,8,0:0:0:0:
256,192,219289,1,0,0:0:0:0:
256,192,219402,1,8,0:0:0:0:
256,160,219516,1,8,0:0:0:0:
224,224,219630,1,0,0:0:0:0:
256,160,219744,1,8,0:0:0:0:
256,160,219858,1,0,0:0:0:0:
224,224,219971,1,0,0:0:0:0:
256,160,220085,1,8,0:0:0:0:
256,160,220199,1,8,0:0:0:0:
256,160,220427,1,0,0:0:0:0:
256,160,220654,1,0,0:0:0:0:
256,160,220768,1,0,0:0:0:0:
256,160,220882,1,8,0:0:0:0:
256,160,221109,1,8,0:0:0:0:
256,192,221223,1,8,0:0:0:0:
256,160,221337,1,0,0:0:0:0:
224,224,221451,1,8,0:0:0:0:
256,160,221565,1,8,0:0:0:0:
224,224,221678,1,0,0:0:0:0:
224,224,221792,1,8,0:0:0:0:
256,160,221906,1,8,0:0:0:0:
256,160,222020,1,0,0:0:0:0:
256,160,222247,1,0,0:0:0:0:
224,224,222361,1,8,0:0:0:0:
224,224,222475,1,8,0:0:0:0:
256,160,222589,1,0,0:0:0:0:
256,160,222703,1,8,0:0:0:0:
256,160,222816,1,0,0:0:0:0:
256,160,222930,1,0,0:0:0:0:
256,160,223044,1,8,0:0:0:0:
256,160,223157,1,0,0:0:0:0:
256,160,223271,1,8,0:0:0:0:
256,160,223385,1,8,0:0:0:0:
256,160,223499,1,0,0:0:0:0:
256,160,223613,1,12,0:0:0:0:
256,192,223840,1,8,0:0:0:0:
256,192,224068,1,4,0:0:0:0:
256,192,224296,1,0,0:0:0:0:
256,192,224410,1,0,0:0:0:0:
256,192,224523,1,8,0:0:0:0:
288,160,224751,1,8,0:0:0:0:
288,160,224865,1,8,0:0:0:0:
256,192,224979,1,0,0:0:0:0:
320,192,225092,1,8,0:0:0:0:
256,192,225206,1,0,0:0:0:0:
320,192,225320,1,8,0:0:0:0:
256,192,225434,1,8,0:0:0:0:
256,192,225548,1,0,0:0:0:0:
320,192,225661,1,8,0:0:0:0:
256,192,225889,1,4,0:0:0:0:
320,192,226117,1,12,0:0:0:0:
