osu file format v14

[General]
AudioFilename: audio.mp3
AudioLeadIn: 0
PreviewTime: 77709
Countdown: 0
SampleSet: Normal
StackLeniency: 0.7
Mode: 1
LetterboxInBreaks: 0
WidescreenStoryboard: 0

[Editor]
Bookmarks: 73167,79072,108140
DistanceSpacing: 1
BeatDivisor: 4
GridSize: 4
TimelineZoom: 2.1

[Metadata]
Title:DADDY (feat. CL of 2NE1)
TitleUnicode:DADDY (feat. CL of 2NE1)
Artist:PSY
ArtistUnicode:PSY
Creator:kvgyubh
Version:Kantan
Source:
Tags:kpop 칠집싸이다 7th album seventh DukeDukeDura Duke D-D-Duke
BeatmapID:1293646
BeatmapSetID:600496

[Difficulty]
HPDrainRate:7
CircleSize:2
OverallDifficulty:4
ApproachRate:5
SliderMultiplier:1.3999999666214
SliderTickRate:1

[Events]
//Background and Video events
0,0,"Psy_2013.jpg",0,0
//Break Periods
//Storyboard Layer 0 (Background)
//Storyboard Layer 1 (Fail)
//Storyboard Layer 2 (Pass)
//Storyboard Layer 3 (Foreground)
//Storyboard Sound Samples

[TimingPoints]
4583,454.201362604088,4,1,0,80,1,0
93606,-100,4,1,0,90,0,1
108140,-100,4,1,0,80,0,0
182629,-100,4,1,0,90,0,1
197164,-100,4,1,0,80,0,0
213515,-100,4,1,0,80,0,1
229866,-100,4,1,0,80,0,0

[HitObjects]
256,192,7762,5,6,0:0:0:0:
256,192,11396,1,6,0:0:0:0:
256,192,11850,1,4,0:0:0:0:
256,192,12758,1,2,0:0:0:0:
256,192,13667,1,2,0:0:0:0:
256,192,14575,1,2,0:0:0:0:
256,192,15029,1,6,0:0:0:0:
256,192,15483,1,2,0:0:0:0:
256,192,16392,1,2,0:0:0:0:
256,192,17300,1,2,0:0:0:0:
256,192,18209,1,2,0:0:0:0:
256,192,18663,1,6,0:0:0:0:
256,192,19117,1,0,0:0:0:0:
256,192,20025,1,2,0:0:0:0:
256,192,20934,1,0,0:0:0:0:
256,192,21388,1,0,0:0:0:0:
256,192,21842,1,2,0:0:0:0:
256,192,22751,1,0,0:0:0:0:
256,192,23659,1,2,0:0:0:0:
256,192,24567,1,2,0:0:0:0:
256,192,25022,1,2,0:0:0:0:
256,192,25476,1,0,0:0:0:0:
256,192,26384,1,0,0:0:0:0:
256,192,27293,1,8,0:0:0:0:
256,192,28201,1,8,0:0:0:0:
256,192,28655,1,8,0:0:0:0:
256,192,29109,1,0,0:0:0:0:
256,192,30018,1,0,0:0:0:0:
256,192,30926,1,8,0:0:0:0:
256,192,31835,1,8,0:0:0:0:
256,192,32289,1,0,0:0:0:0:
256,192,32743,1,8,0:0:0:0:
256,192,33197,1,6,0:0:0:0:
256,192,33651,1,4,0:0:0:0:
256,192,34560,1,8,0:0:0:0:
256,192,35468,1,0,0:0:0:0:
256,192,36377,1,8,0:0:0:0:
256,192,37285,1,0,0:0:0:0:
256,192,38193,1,8,0:0:0:0:
256,192,39102,1,0,0:0:0:0:
256,192,40010,1,8,0:0:0:0:
256,192,40464,1,6,0:0:0:0:
256,192,40919,1,0,0:0:0:0:
256,192,41827,1,8,0:0:0:0:
256,192,42735,1,0,0:0:0:0:
256,192,43644,1,8,0:0:0:0:
256,192,44552,1,8,0:0:0:0:
256,192,45461,1,8,0:0:0:0:
256,192,46369,1,0,0:0:0:0:
256,192,46823,1,0,0:0:0:0:
256,192,47277,1,8,0:0:0:0:
256,192,47732,1,6,0:0:0:0:
256,192,48186,1,0,0:0:0:0:
256,192,50003,1,2,0:0:0:0:
256,192,51819,1,2,0:0:0:0:
256,192,53636,1,0,0:0:0:0:
256,192,55453,1,2,0:0:0:0:
256,192,57270,1,8,0:0:0:0:
256,192,59087,1,8,0:0:0:0:
256,192,60903,1,0,0:0:0:0:
256,192,62720,1,0,0:0:0:0:
256,192,63629,1,0,0:0:0:0:
256,192,64537,1,0,0:0:0:0:
256,192,64991,1,0,0:0:0:0:
256,192,65445,1,0,0:0:0:0:
256,192,65900,1,6,0:0:0:0:
256,192,66354,1,8,0:0:0:0:
256,192,67262,1,8,0:0:0:0:
256,192,68171,1,8,0:0:0:0:
256,192,68625,1,8,0:0:0:0:
256,192,69079,1,0,0:0:0:0:
256,192,69533,1,6,0:0:0:0:
256,192,69987,1,0,0:0:0:0:
256,192,71804,1,0,0:0:0:0:
256,192,73621,1,0,0:0:0:0:
256,192,74530,1,0,0:0:0:0:
256,192,75438,1,0,0:0:0:0:
256,192,75892,1,0,0:0:0:0:
256,192,76346,1,0,0:0:0:0:
256,192,76801,1,6,0:0:0:0:
256,192,78617,1,6,0:0:0:0:
256,192,79072,1,4,0:0:0:0:
256,192,79980,1,0,0:0:0:0:
256,192,80888,1,0,0:0:0:0:
256,192,81797,1,8,0:0:0:0:
256,192,82251,1,2,0:0:0:0:
256,192,82705,1,8,0:0:0:0:
256,192,83614,1,0,0:0:0:0:
256,192,84522,1,0,0:0:0:0:
256,192,85430,1,8,0:0:0:0:
256,192,85885,1,2,0:0:0:0:
256,192,86339,1,4,0:0:0:0:
256,192,87247,1,8,0:0:0:0:
256,192,88156,1,0,0:0:0:0:
256,192,89064,1,8,0:0:0:0:
256,192,89518,1,2,0:0:0:0:
256,192,89972,1,0,0:0:0:0:
256,192,90881,1,8,0:0:0:0:
256,192,91789,1,0,0:0:0:0:
256,192,92698,1,2,0:0:0:0:
256,192,93152,1,2,0:0:0:0:
256,192,93606,1,0,0:0:0:0:
256,192,94514,1,8,0:0:0:0:
256,192,95423,1,0,0:0:0:0:
256,192,96331,1,8,0:0:0:0:
256,192,96785,1,2,0:0:0:0:
256,192,97240,1,0,0:0:0:0:
256,192,98148,1,8,0:0:0:0:
256,192,99056,1,0,0:0:0:0:
256,192,99965,1,8,0:0:0:0:
256,192,100419,1,2,0:0:0:0:
256,192,100873,1,0,0:0:0:0:
256,192,101782,1,8,0:0:0:0:
256,192,102690,1,0,0:0:0:0:
256,192,103598,1,8,0:0:0:0:
256,192,104053,1,2,0:0:0:0:
256,192,104507,1,0,0:0:0:0:
256,192,105415,1,8,0:0:0:0:
256,192,106324,1,0,0:0:0:0:
256,192,106778,1,0,0:0:0:0:
256,192,107232,1,8,0:0:0:0:
256,192,107686,1,2,0:0:0:0:
256,192,108140,1,0,0:0:0:0:
256,192,109049,1,8,0:0:0:0:
256,192,109957,1,0,0:0:0:0:
256,192,110866,1,8,0:0:0:0:
256,192,111774,1,0,0:0:0:0:
256,192,112682,1,8,0:0:0:0:
256,192,113591,1,8,0:0:0:0:
256,192,114499,1,0,0:0:0:0:
256,192,114953,1,2,0:0:0:0:
256,192,115408,1,0,0:0:0:0:
256,192,116316,1,8,0:0:0:0:
256,192,117224,1,0,0:0:0:0:
256,192,118133,1,8,0:0:0:0:
256,192,119041,1,0,0:0:0:0:
256,192,119950,1,8,0:0:0:0:
256,192,120858,1,8,0:0:0:0:
256,192,121312,1,8,0:0:0:0:
256,192,121766,1,0,0:0:0:0:
256,192,122221,1,6,0:0:0:0:
256,192,122675,1,4,0:0:0:0:
256,192,123583,1,8,0:0:0:0:
256,192,124492,1,0,0:0:0:0:
256,192,124946,1,0,0:0:0:0:
256,192,125400,1,8,0:0:0:0:
256,192,126308,1,8,0:0:0:0:
256,192,127217,1,8,0:0:0:0:
256,192,128125,1,0,0:0:0:0:
256,192,128579,1,0,0:0:0:0:
256,192,129034,1,8,0:0:0:0:
256,192,129488,1,6,0:0:0:0:
256,192,129942,1,0,0:0:0:0:
256,192,130850,1,8,0:0:0:0:
256,192,131759,1,0,0:0:0:0:
256,192,132667,1,0,0:0:0:0:
256,192,133121,1,0,0:0:0:0:
256,192,133576,1,8,0:0:0:0:
256,192,134484,1,8,0:0:0:0:
256,192,135392,1,0,0:0:0:0:
256,192,136301,1,0,0:0:0:0:
256,192,136755,1,6,0:0:0:0:
256,192,137209,1,8,0:0:0:0:
256,192,139026,1,0,0:0:0:0:
256,192,140843,1,8,0:0:0:0:
256,192,142660,1,0,0:0:0:0:
256,192,144477,1,8,0:0:0:0:
256,192,146293,1,0,0:0:0:0:
256,192,148110,1,8,0:0:0:0:
256,192,149927,1,0,0:0:0:0:
256,192,151744,1,0,0:0:0:0:
256,192,152652,1,0,0:0:0:0:
256,192,153561,1,0,0:0:0:0:
256,192,154469,1,8,0:0:0:0:
256,192,154923,1,6,0:0:0:0:
256,192,155377,1,8,0:0:0:0:
256,192,156286,1,8,0:0:0:0:
256,192,157194,1,8,0:0:0:0:
256,192,157648,1,8,0:0:0:0:
256,192,158103,1,0,0:0:0:0:
256,192,158557,1,6,0:0:0:0:
256,192,159011,1,0,0:0:0:0:
256,192,159919,1,8,0:0:0:0:
256,192,160828,1,0,0:0:0:0:
256,192,161736,1,8,0:0:0:0:
256,192,162190,1,2,0:0:0:0:
256,192,162645,1,0,0:0:0:0:
256,192,163553,1,0,0:0:0:0:
256,192,164461,1,0,0:0:0:0:
256,192,164916,1,0,0:0:0:0:
256,192,165370,1,0,0:0:0:0:
256,192,165824,1,6,0:0:0:0:
256,192,167641,1,6,0:0:0:0:
256,192,168095,1,4,0:0:0:0:
256,192,169003,1,8,0:0:0:0:
256,192,169912,1,0,0:0:0:0:
256,192,170820,1,8,0:0:0:0:
256,192,171274,1,8,0:0:0:0:
256,192,171729,1,0,0:0:0:0:
256,192,172637,1,8,0:0:0:0:
256,192,173545,1,0,0:0:0:0:
256,192,174454,1,0,0:0:0:0:
256,192,174908,1,2,0:0:0:0:
256,192,175362,1,8,0:0:0:0:
256,192,176271,1,0,0:0:0:0:
256,192,177179,1,8,0:0:0:0:
256,192,178087,1,0,0:0:0:0:
256,192,178542,1,2,0:0:0:0:
256,192,178996,1,0,0:0:0:0:
256,192,179904,1,8,0:0:0:0:
256,192,180358,1,8,0:0:0:0:
256,192,180813,1,0,0:0:0:0:
256,192,181721,1,0,0:0:0:0:
256,192,182175,1,8,0:0:0:0:
256,192,182629,1,0,0:0:0:0:
256,192,183538,1,8,0:0:0:0:
256,192,184446,1,0,0:0:0:0:
256,192,185355,1,8,0:0:0:0:
256,192,185809,1,2,0:0:0:0:
256,192,186263,1,0,0:0:0:0:
256,192,187171,1,8,0:0:0:0:
256,192,188080,1,0,0:0:0:0:
256,192,188988,1,8,0:0:0:0:
256,192,189442,1,2,0:0:0:0:
256,192,189897,1,0,0:0:0:0:
256,192,190805,1,8,0:0:0:0:
256,192,191713,1,0,0:0:0:0:
256,192,192622,1,8,0:0:0:0:
256,192,193076,1,2,0:0:0:0:
256,192,193530,1,0,0:0:0:0:
256,192,194439,1,8,0:0:0:0:
256,192,195347,1,8,0:0:0:0:
256,192,195801,1,8,0:0:0:0:
256,192,196255,1,0,0:0:0:0:
256,192,196710,1,6,0:0:0:0:
256,192,197164,1,4,0:0:0:0:
256,192,198072,1,8,0:0:0:0:
256,192,198981,1,8,0:0:0:0:
256,192,199889,1,8,0:0:0:0:
256,192,200343,1,2,0:0:0:0:
256,192,200797,1,0,0:0:0:0:
256,192,201706,1,8,0:0:0:0:
256,192,202614,1,8,0:0:0:0:
256,192,203523,1,8,0:0:0:0:
256,192,203977,1,4,0:0:0:0:
256,192,204431,1,8,0:0:0:0:
256,192,205340,1,8,0:0:0:0:
256,192,206248,1,8,0:0:0:0:
256,192,207156,1,8,0:0:0:0:
256,192,207611,1,0,0:0:0:0:
256,192,208065,1,0,0:0:0:0:
256,192,208973,1,0,0:0:0:0:
256,192,209882,1,0,0:0:0:0:
256,192,210336,1,0,0:0:0:0:
256,192,210790,1,0,0:0:0:0:
256,192,211244,1,6,0:0:0:0:
256,192,213515,1,4,0:0:0:0:
256,192,214424,1,8,0:0:0:0:
256,192,215332,1,0,0:0:0:0:
256,192,216240,1,8,0:0:0:0:
256,192,216695,1,8,0:0:0:0:
256,192,217149,1,0,0:0:0:0:
256,192,218057,1,8,0:0:0:0:
256,192,218966,1,0,0:0:0:0:
256,192,219874,1,8,0:0:0:0:
256,192,220328,1,2,0:0:0:0:
256,192,220782,1,0,0:0:0:0:
256,192,221691,1,8,0:0:0:0:
256,192,222599,1,0,0:0:0:0:
256,192,223508,1,8,0:0:0:0:
256,192,223962,1,2,0:0:0:0:
256,192,224416,1,0,0:0:0:0:
256,192,225324,1,8,0:0:0:0:
256,192,225779,1,8,0:0:0:0:
256,192,226233,1,0,0:0:0:0:
256,192,227141,1,8,0:0:0:0:
256,192,227595,1,2,0:0:0:0:
256,192,228050,1,0,0:0:0:0:
256,192,228958,1,8,0:0:0:0:
256,192,229412,1,2,0:0:0:0:
256,192,229866,1,4,0:0:0:0:
