osu file format v14

[General]
AudioFilename: audio.mp3
AudioLeadIn: 0
PreviewTime: 77709
Countdown: 0
SampleSet: Normal
StackLeniency: 0.7
Mode: 1
LetterboxInBreaks: 0
WidescreenStoryboard: 0

[Editor]
DistanceSpacing: 0.9
BeatDivisor: 4
GridSize: 4
TimelineZoom: 2.1

[Metadata]
Title:DADDY (feat. CL of 2NE1)
TitleUnicode:DADDY (feat. CL of 2NE1)
Artist:PSY
ArtistUnicode:PSY
Creator:kvgyubh
Version:Futsuu
Source:
Tags:kpop 칠집싸이다 7th album seventh DukeDukeDura Duke D-D-Duke
BeatmapID:1293644
BeatmapSetID:600496

[Difficulty]
HPDrainRate:6
CircleSize:2
OverallDifficulty:4.5
ApproachRate:5
SliderMultiplier:1.4
SliderTickRate:1

[Events]
//Background and Video events
0,0,"Psy_2013.jpg",0,0
//Break Periods
//Storyboard Layer 0 (Background)
//Storyboard Layer 1 (Fail)
//Storyboard Layer 2 (Pass)
//Storyboard Layer 3 (Foreground)
//Storyboard Sound Samples

[TimingPoints]
4583,454.201362604088,4,1,0,80,1,0
93606,-100,4,1,0,90,0,1
108140,-100,4,1,0,80,0,0
182629,-100,4,1,0,90,0,1
197164,-100,4,1,0,80,0,0
213515,-100,4,1,0,80,0,1
229866,-100,4,1,0,80,0,0

[HitObjects]
256,192,7762,5,6,0:0:0:0:
256,192,11396,1,6,0:0:0:0:
256,192,11850,1,4,0:0:0:0:
256,192,12304,1,8,0:0:0:0:
256,192,12758,1,8,0:0:0:0:
256,192,13212,1,8,0:0:0:0:
256,192,13667,1,8,0:0:0:0:
256,192,14121,1,8,0:0:0:0:
256,192,14575,1,8,0:0:0:0:
256,192,15029,1,6,0:0:0:0:
256,192,15483,1,8,0:0:0:0:
256,192,15938,1,8,0:0:0:0:
256,192,16392,1,8,0:0:0:0:
256,192,16846,1,8,0:0:0:0:
256,192,17300,1,8,0:0:0:0:
256,192,17754,1,8,0:0:0:0:
256,192,18209,1,8,0:0:0:0:
256,192,18663,1,6,0:0:0:0:
256,192,19117,1,0,0:0:0:0:
256,192,19571,1,0,0:0:0:0:
256,192,20025,1,2,0:0:0:0:
256,192,20252,1,0,0:0:0:0:
256,192,20934,1,2,0:0:0:0:
256,192,21388,1,0,0:0:0:0:
256,192,21842,1,0,0:0:0:0:
256,192,22069,1,2,0:0:0:0:
256,192,22751,1,0,0:0:0:0:
256,192,23205,1,0,0:0:0:0:
256,192,23659,1,0,0:0:0:0:
256,192,23886,1,2,0:0:0:0:
256,192,24567,1,2,0:0:0:0:
256,192,25022,1,2,0:0:0:0:
256,192,25476,1,2,0:0:0:0:
256,192,25703,1,0,0:0:0:0:
256,192,26384,1,0,0:0:0:0:
256,192,26838,1,0,0:0:0:0:
256,192,27293,1,0,0:0:0:0:
256,192,27520,1,2,0:0:0:0:
256,192,28201,1,2,0:0:0:0:
256,192,28655,1,0,0:0:0:0:
256,192,29109,1,2,0:0:0:0:
256,192,29336,1,0,0:0:0:0:
256,192,30018,1,0,0:0:0:0:
256,192,30472,1,0,0:0:0:0:
256,192,30926,1,0,0:0:0:0:
256,192,31153,1,2,0:0:0:0:
256,192,31835,1,2,0:0:0:0:
256,192,32289,1,2,0:0:0:0:
256,192,32516,1,2,0:0:0:0:
256,192,32743,1,0,0:0:0:0:
256,192,33197,1,2,0:0:0:0:
256,192,33651,1,0,0:0:0:0:
256,192,34560,1,0,0:0:0:0:
256,192,35468,1,0,0:0:0:0:
256,192,35922,1,8,0:0:0:0:
256,192,36377,1,0,0:0:0:0:
256,192,37285,1,0,0:0:0:0:
256,192,37739,1,8,0:0:0:0:
256,192,38193,1,0,0:0:0:0:
256,192,38648,1,8,0:0:0:0:
256,192,39102,1,0,0:0:0:0:
256,192,40010,1,0,0:0:0:0:
256,192,40237,1,0,0:0:0:0:
256,192,40464,1,8,0:0:0:0:
256,192,40919,1,0,0:0:0:0:
256,192,41827,1,0,0:0:0:0:
256,192,42281,1,8,0:0:0:0:
256,192,42508,1,8,0:0:0:0:
256,192,42735,1,0,0:0:0:0:
256,192,43190,1,8,0:0:0:0:
256,192,43644,1,0,0:0:0:0:
256,192,44098,1,8,0:0:0:0:
256,192,44325,1,8,0:0:0:0:
256,192,44552,1,0,0:0:0:0:
256,192,45006,1,8,0:0:0:0:
256,192,45234,1,8,0:0:0:0:
256,192,45461,1,0,0:0:0:0:
256,192,45688,1,0,0:0:0:0:
256,192,45915,1,8,0:0:0:0:
256,192,46369,1,0,0:0:0:0:
256,192,47277,1,0,0:0:0:0:
256,192,47732,1,8,0:0:0:0:
256,192,47959,1,8,0:0:0:0:
256,192,48186,1,0,0:0:0:0:
256,192,49548,1,8,0:0:0:0:
256,192,50003,1,0,0:0:0:0:
256,192,51365,1,0,0:0:0:0:
256,192,51819,1,2,0:0:0:0:
256,192,53182,1,8,0:0:0:0:
256,192,53636,1,0,0:0:0:0:
256,192,54772,1,8,0:0:0:0:
256,192,54999,1,8,0:0:0:0:
256,192,55226,1,8,0:0:0:0:
256,192,55453,1,0,0:0:0:0:
256,192,56816,1,8,0:0:0:0:
256,192,57270,1,0,0:0:0:0:
256,192,58632,1,0,0:0:0:0:
256,192,59087,1,8,0:0:0:0:
256,192,60449,1,8,0:0:0:0:
256,192,60903,1,0,0:0:0:0:
256,192,62039,1,0,0:0:0:0:
256,192,62266,1,8,0:0:0:0:
256,192,62493,1,2,0:0:0:0:
256,192,62720,1,0,0:0:0:0:
256,192,63629,1,8,0:0:0:0:
256,192,64537,1,0,0:0:0:0:
256,192,64991,1,8,0:0:0:0:
256,192,65445,1,8,0:0:0:0:
256,192,66354,1,0,0:0:0:0:
256,192,67262,1,8,0:0:0:0:
256,192,68171,1,8,0:0:0:0:
256,192,68625,1,8,0:0:0:0:
256,192,69079,1,0,0:0:0:0:
256,192,69987,1,0,0:0:0:0:
256,192,70896,1,8,0:0:0:0:
256,192,71350,1,8,0:0:0:0:
256,192,71804,1,0,0:0:0:0:
256,192,72713,1,8,0:0:0:0:
256,192,73167,1,8,0:0:0:0:
256,192,73621,1,0,0:0:0:0:
256,192,74530,1,8,0:0:0:0:
256,192,74984,1,8,0:0:0:0:
256,192,75438,1,0,0:0:0:0:
256,192,76346,1,0,0:0:0:0:
256,192,76801,1,8,0:0:0:0:
256,192,78617,1,6,0:0:0:0:
256,192,79072,1,4,0:0:0:0:
256,192,79526,1,8,0:0:0:0:
256,192,79980,1,0,0:0:0:0:
256,192,80207,1,0,0:0:0:0:
256,192,80434,1,8,0:0:0:0:
256,192,80888,1,0,0:0:0:0:
256,192,81343,1,8,0:0:0:0:
256,192,81797,1,8,0:0:0:0:
256,192,82024,1,8,0:0:0:0:
256,192,82251,1,0,0:0:0:0:
256,192,82705,1,0,0:0:0:0:
256,192,83159,1,8,0:0:0:0:
256,192,83614,1,0,0:0:0:0:
256,192,83841,1,0,0:0:0:0:
256,192,84068,1,8,0:0:0:0:
256,192,84522,1,0,0:0:0:0:
256,192,84976,1,8,0:0:0:0:
256,192,85430,1,0,0:0:0:0:
256,192,85885,1,8,0:0:0:0:
256,192,86112,1,0,0:0:0:0:
256,192,86339,1,0,0:0:0:0:
256,192,86793,1,8,0:0:0:0:
256,192,87247,1,0,0:0:0:0:
256,192,87701,1,8,0:0:0:0:
256,192,87928,1,8,0:0:0:0:
256,192,88156,1,0,0:0:0:0:
256,192,88610,1,8,0:0:0:0:
256,192,89064,1,0,0:0:0:0:
256,192,89518,1,0,0:0:0:0:
256,192,89745,1,0,0:0:0:0:
256,192,89972,1,8,0:0:0:0:
256,192,90427,1,8,0:0:0:0:
256,192,90881,1,0,0:0:0:0:
256,192,91335,1,8,0:0:0:0:
256,192,91562,1,0,0:0:0:0:
256,192,91789,1,0,0:0:0:0:
256,192,92243,1,8,0:0:0:0:
256,192,92698,1,0,0:0:0:0:
256,192,93152,1,8,0:0:0:0:
256,192,93379,1,0,0:0:0:0:
256,192,93606,1,0,0:0:0:0:
256,192,94060,1,8,0:0:0:0:
256,192,94514,1,0,0:0:0:0:
256,192,94969,1,8,0:0:0:0:
256,192,95196,1,0,0:0:0:0:
256,192,95423,1,0,0:0:0:0:
256,192,95877,1,8,0:0:0:0:
256,192,96331,1,0,0:0:0:0:
256,192,96785,1,0,0:0:0:0:
256,192,97012,1,0,0:0:0:0:
256,192,97240,1,8,0:0:0:0:
256,192,97694,1,8,0:0:0:0:
256,192,98148,1,0,0:0:0:0:
256,192,98602,1,0,0:0:0:0:
256,192,98829,1,2,0:0:0:0:
256,192,99056,1,0,0:0:0:0:
256,192,99738,1,8,0:0:0:0:
256,192,99965,1,0,0:0:0:0:
256,192,100192,1,0,0:0:0:0:
256,192,100419,1,8,0:0:0:0:
256,192,100873,1,0,0:0:0:0:
256,192,101327,1,8,0:0:0:0:
256,192,101782,1,0,0:0:0:0:
256,192,102009,1,0,0:0:0:0:
256,192,102236,1,8,0:0:0:0:
256,192,102690,1,0,0:0:0:0:
256,192,103144,1,8,0:0:0:0:
256,192,103598,1,8,0:0:0:0:
256,192,103825,1,0,0:0:0:0:
256,192,104053,1,2,0:0:0:0:
256,192,104507,1,0,0:0:0:0:
256,192,104961,1,8,0:0:0:0:
256,192,105415,1,8,0:0:0:0:
256,192,105642,1,8,0:0:0:0:
256,192,105869,1,0,0:0:0:0:
256,192,106324,1,0,0:0:0:0:
256,192,107232,1,8,0:0:0:0:
256,192,107686,1,8,0:0:0:0:
256,192,108140,1,0,0:0:0:0:
256,192,108595,1,0,0:0:0:0:
256,192,109049,1,8,0:0:0:0:
256,192,109957,1,8,0:0:0:0:
256,192,110411,1,0,0:0:0:0:
256,192,110866,1,0,0:0:0:0:
256,192,111774,1,0,0:0:0:0:
256,192,112228,1,0,0:0:0:0:
256,192,112682,1,8,0:0:0:0:
256,192,113591,1,2,0:0:0:0:
256,192,114045,1,8,0:0:0:0:
256,192,114499,1,0,0:0:0:0:
256,192,115408,1,0,0:0:0:0:
256,192,115862,1,0,0:0:0:0:
256,192,116316,1,8,0:0:0:0:
256,192,117224,1,8,0:0:0:0:
256,192,117679,1,8,0:0:0:0:
256,192,118133,1,0,0:0:0:0:
256,192,119041,1,0,0:0:0:0:
256,192,119495,1,8,0:0:0:0:
256,192,119950,1,8,0:0:0:0:
256,192,120858,1,8,0:0:0:0:
256,192,121312,1,0,0:0:0:0:
256,192,121766,1,8,0:0:0:0:
256,192,122675,1,0,0:0:0:0:
256,192,123129,1,8,0:0:0:0:
256,192,123583,1,0,0:0:0:0:
256,192,124037,1,8,0:0:0:0:
256,192,124265,1,8,0:0:0:0:
256,192,124492,1,0,0:0:0:0:
256,192,124946,1,8,0:0:0:0:
256,192,125400,1,0,0:0:0:0:
256,192,125854,1,8,0:0:0:0:
256,192,126081,1,2,0:0:0:0:
256,192,126308,1,0,0:0:0:0:
256,192,126763,1,0,0:0:0:0:
256,192,126990,1,0,0:0:0:0:
256,192,127217,1,8,0:0:0:0:
256,192,127671,1,8,0:0:0:0:
256,192,128125,1,0,0:0:0:0:
256,192,128352,1,0,0:0:0:0:
256,192,128579,1,8,0:0:0:0:
256,192,129034,1,8,0:0:0:0:
256,192,129261,1,0,0:0:0:0:
256,192,129488,1,8,0:0:0:0:
256,192,129942,1,0,0:0:0:0:
256,192,130396,1,8,0:0:0:0:
256,192,130623,1,0,0:0:0:0:
256,192,130850,1,0,0:0:0:0:
256,192,131305,1,8,0:0:0:0:
256,192,131759,1,0,0:0:0:0:
256,192,132213,1,8,0:0:0:0:
256,192,132440,1,0,0:0:0:0:
256,192,132667,1,0,0:0:0:0:
256,192,133121,1,0,0:0:0:0:
256,192,133349,1,0,0:0:0:0:
256,192,133576,1,8,0:0:0:0:
256,192,134030,1,0,0:0:0:0:
256,192,134257,1,0,0:0:0:0:
256,192,134484,1,8,0:0:0:0:
256,192,134938,1,8,0:0:0:0:
256,192,135392,1,0,0:0:0:0:
256,192,136301,1,0,0:0:0:0:
256,192,136528,1,0,0:0:0:0:
256,192,136755,1,8,0:0:0:0:
256,192,137209,1,8,0:0:0:0:
256,192,137550,1,8,0:0:0:0:
256,192,137891,1,0,0:0:0:0:
256,192,139026,1,0,0:0:0:0:
256,192,139367,1,0,0:0:0:0:
256,192,139707,1,8,0:0:0:0:
256,192,140843,1,8,0:0:0:0:
256,192,141184,1,8,0:0:0:0:
256,192,141524,1,0,0:0:0:0:
256,192,142660,1,0,0:0:0:0:
256,192,143000,1,0,0:0:0:0:
256,192,143341,1,8,0:0:0:0:
256,192,144477,1,8,0:0:0:0:
256,192,144817,1,8,0:0:0:0:
256,192,145158,1,0,0:0:0:0:
256,192,146293,1,8,0:0:0:0:
256,192,146634,1,0,0:0:0:0:
256,192,146975,1,8,0:0:0:0:
256,192,148110,1,0,0:0:0:0:
256,192,148451,1,0,0:0:0:0:
256,192,148791,1,8,0:0:0:0:
256,192,149927,1,8,0:0:0:0:
256,192,150268,1,0,0:0:0:0:
256,192,150608,1,8,0:0:0:0:
256,192,151744,1,0,0:0:0:0:
256,192,152084,1,8,0:0:0:0:
256,192,152425,1,0,0:0:0:0:
256,192,152652,1,0,0:0:0:0:
256,192,153106,1,8,0:0:0:0:
256,192,153561,1,0,0:0:0:0:
256,192,153901,1,8,0:0:0:0:
256,192,154242,1,0,0:0:0:0:
256,192,154469,1,0,0:0:0:0:
256,192,154923,1,8,0:0:0:0:
256,192,155377,1,0,0:0:0:0:
256,192,155718,1,8,0:0:0:0:
256,192,156059,1,0,0:0:0:0:
256,192,156286,1,0,0:0:0:0:
256,192,156740,1,8,0:0:0:0:
256,192,157194,1,0,0:0:0:0:
256,192,157535,1,2,0:0:0:0:
256,192,157875,1,0,0:0:0:0:
256,192,158103,1,0,0:0:0:0:
256,192,158557,1,8,0:0:0:0:
256,192,159011,1,0,0:0:0:0:
256,192,159465,1,8,0:0:0:0:
256,192,159919,1,0,0:0:0:0:
256,192,160146,1,0,0:0:0:0:
256,192,160374,1,8,0:0:0:0:
256,192,160828,1,0,0:0:0:0:
256,192,161282,1,8,0:0:0:0:
256,192,161509,1,8,0:0:0:0:
256,192,161736,1,0,0:0:0:0:
256,192,162190,1,8,0:0:0:0:
256,192,162645,1,0,0:0:0:0:
256,192,163099,1,8,0:0:0:0:
256,192,163326,1,0,0:0:0:0:
256,192,163553,1,0,0:0:0:0:
256,192,164007,1,8,0:0:0:0:
256,192,164461,1,0,0:0:0:0:
256,192,164916,1,0,0:0:0:0:
256,192,165370,1,0,0:0:0:0:
256,192,165597,1,0,0:0:0:0:
256,192,165824,1,8,0:0:0:0:
256,192,167641,1,6,0:0:0:0:
256,192,168095,1,4,0:0:0:0:
256,192,168549,1,0,0:0:0:0:
256,192,168776,1,0,0:0:0:0:
256,192,169003,1,8,0:0:0:0:
256,192,169458,1,8,0:0:0:0:
256,192,169912,1,0,0:0:0:0:
256,192,170366,1,8,0:0:0:0:
256,192,170593,1,0,0:0:0:0:
256,192,170820,1,0,0:0:0:0:
256,192,171274,1,8,0:0:0:0:
256,192,171729,1,0,0:0:0:0:
256,192,172183,1,8,0:0:0:0:
256,192,172410,1,0,0:0:0:0:
256,192,172637,1,0,0:0:0:0:
256,192,173091,1,8,0:0:0:0:
256,192,173545,1,0,0:0:0:0:
256,192,174000,1,0,0:0:0:0:
256,192,174227,1,0,0:0:0:0:
256,192,174454,1,8,0:0:0:0:
256,192,174908,1,8,0:0:0:0:
256,192,175362,1,0,0:0:0:0:
256,192,175816,1,8,0:0:0:0:
256,192,176044,1,0,0:0:0:0:
256,192,176271,1,8,0:0:0:0:
256,192,176725,1,8,0:0:0:0:
256,192,177179,1,0,0:0:0:0:
256,192,177633,1,0,0:0:0:0:
256,192,177860,1,0,0:0:0:0:
256,192,178087,1,8,0:0:0:0:
256,192,178542,1,8,0:0:0:0:
256,192,178996,1,0,0:0:0:0:
256,192,179450,1,8,0:0:0:0:
256,192,179677,1,8,0:0:0:0:
256,192,179904,1,0,0:0:0:0:
256,192,180358,1,8,0:0:0:0:
256,192,180813,1,0,0:0:0:0:
256,192,181267,1,8,0:0:0:0:
256,192,181494,1,8,0:0:0:0:
256,192,181721,1,0,0:0:0:0:
256,192,181948,1,0,0:0:0:0:
256,192,182175,1,8,0:0:0:0:
256,192,182629,1,0,0:0:0:0:
256,192,183084,1,8,0:0:0:0:
256,192,183538,1,0,0:0:0:0:
256,192,183765,1,0,0:0:0:0:
256,192,183992,1,8,0:0:0:0:
256,192,184446,1,0,0:0:0:0:
256,192,184900,1,8,0:0:0:0:
256,192,185355,1,0,0:0:0:0:
256,192,185582,1,0,0:0:0:0:
256,192,185809,1,8,0:0:0:0:
256,192,186263,1,0,0:0:0:0:
256,192,186717,1,8,0:0:0:0:
256,192,187171,1,0,0:0:0:0:
256,192,187399,1,0,0:0:0:0:
256,192,187626,1,8,0:0:0:0:
256,192,188080,1,8,0:0:0:0:
256,192,188534,1,0,0:0:0:0:
256,192,188761,1,8,0:0:0:0:
256,192,188988,1,0,0:0:0:0:
256,192,189215,1,0,0:0:0:0:
256,192,189442,1,8,0:0:0:0:
256,192,189897,1,0,0:0:0:0:
256,192,190351,1,8,0:0:0:0:
256,192,190805,1,0,0:0:0:0:
256,192,191032,1,0,0:0:0:0:
256,192,191259,1,8,0:0:0:0:
256,192,191713,1,0,0:0:0:0:
256,192,192168,1,8,0:0:0:0:
256,192,192622,1,8,0:0:0:0:
256,192,192849,1,8,0:0:0:0:
256,192,193076,1,0,0:0:0:0:
256,192,193530,1,0,0:0:0:0:
256,192,193984,1,8,0:0:0:0:
256,192,194439,1,0,0:0:0:0:
256,192,194666,1,0,0:0:0:0:
256,192,194893,1,8,0:0:0:0:
256,192,195347,1,8,0:0:0:0:
256,192,195801,1,0,0:0:0:0:
256,192,196255,1,0,0:0:0:0:
256,192,196483,1,0,0:0:0:0:
256,192,196710,1,8,0:0:0:0:
256,192,197164,1,4,0:0:0:0:
256,192,197618,1,8,0:0:0:0:
256,192,198072,1,8,0:0:0:0:
256,192,198526,1,8,0:0:0:0:
256,192,198981,1,8,0:0:0:0:
256,192,199435,1,8,0:0:0:0:
256,192,199889,1,8,0:0:0:0:
256,192,200343,1,6,0:0:0:0:
256,192,200797,1,8,0:0:0:0:
256,192,201252,1,8,0:0:0:0:
256,192,201706,1,8,0:0:0:0:
256,192,202160,1,8,0:0:0:0:
256,192,202614,1,8,0:0:0:0:
256,192,203068,1,8,0:0:0:0:
256,192,203523,1,8,0:0:0:0:
256,192,203977,1,6,0:0:0:0:
256,192,204431,1,8,0:0:0:0:
256,192,204885,1,8,0:0:0:0:
256,192,205340,1,8,0:0:0:0:
256,192,205794,1,8,0:0:0:0:
256,192,206248,1,8,0:0:0:0:
256,192,206702,1,8,0:0:0:0:
256,192,207156,1,8,0:0:0:0:
256,192,207611,1,8,0:0:0:0:
256,192,208065,1,8,0:0:0:0:
256,192,208519,1,0,0:0:0:0:
256,192,208973,1,0,0:0:0:0:
256,192,209427,1,0,0:0:0:0:
256,192,209882,1,0,0:0:0:0:
256,192,210336,1,0,0:0:0:0:
256,192,210790,1,0,0:0:0:0:
256,192,211017,1,0,0:0:0:0:
256,192,211244,1,8,0:0:0:0:
256,192,213515,1,4,0:0:0:0:
256,192,213969,1,8,0:0:0:0:
256,192,214424,1,8,0:0:0:0:
256,192,214651,1,8,0:0:0:0:
256,192,214878,1,0,0:0:0:0:
256,192,215332,1,0,0:0:0:0:
256,192,215786,1,8,0:0:0:0:
256,192,216240,1,0,0:0:0:0:
256,192,216467,1,0,0:0:0:0:
256,192,216695,1,8,0:0:0:0:
256,192,217149,1,0,0:0:0:0:
256,192,217603,1,8,0:0:0:0:
256,192,218057,1,8,0:0:0:0:
256,192,218284,1,0,0:0:0:0:
256,192,218511,1,0,0:0:0:0:
256,192,218738,1,8,0:0:0:0:
256,192,218966,1,0,0:0:0:0:
256,192,219420,1,8,0:0:0:0:
256,192,219874,1,0,0:0:0:0:
256,192,220101,1,0,0:0:0:0:
256,192,220328,1,8,0:0:0:0:
256,192,220782,1,0,0:0:0:0:
256,192,221237,1,8,0:0:0:0:
256,192,221691,1,0,0:0:0:0:
256,192,221918,1,0,0:0:0:0:
256,192,222145,1,8,0:0:0:0:
256,192,222599,1,0,0:0:0:0:
256,192,223053,1,8,0:0:0:0:
256,192,223508,1,8,0:0:0:0:
256,192,223735,1,0,0:0:0:0:
256,192,223962,1,0,0:0:0:0:
256,192,224416,1,0,0:0:0:0:
256,192,224870,1,8,0:0:0:0:
256,192,225324,1,0,0:0:0:0:
256,192,225551,1,0,0:0:0:0:
256,192,225779,1,8,0:0:0:0:
256,192,226233,1,0,0:0:0:0:
256,192,226687,1,8,0:0:0:0:
256,192,226914,1,0,0:0:0:0:
256,192,227141,1,0,0:0:0:0:
256,192,227595,1,8,0:0:0:0:
256,192,228050,1,0,0:0:0:0:
256,192,228504,1,0,0:0:0:0:
256,192,228958,1,8,0:0:0:0:
256,192,229412,1,8,0:0:0:0:
256,192,229639,1,0,0:0:0:0:
256,192,229866,1,4,0:0:0:0:
