osu file format v14

[General]
AudioFilename: audio.mp3
AudioLeadIn: 0
PreviewTime: 83810
Countdown: 0
SampleSet: Normal
StackLeniency: 0.7
Mode: 0
LetterboxInBreaks: 0
WidescreenStoryboard: 1

[Editor]
DistanceSpacing: 1
BeatDivisor: 4
GridSize: 4
TimelineZoom: 1

[Metadata]
Title:DADDY
TitleUnicode:DADDY
Artist:PSY
ArtistUnicode:PSY
Creator:Happy190
Version:Normal
Source:
Tags:
BeatmapID:1093075
BeatmapSetID:512907

[Difficulty]
HPDrainRate:3
CircleSize:3
OverallDifficulty:3
ApproachRate:3
SliderMultiplier:1
SliderTickRate:1

[Events]
//Background and Video events
0,0,"PSY--DADDY.jpg",0,0
Video,-200,"RealLife.avi"
//Break Periods
2,53835,67217
2,143513,156440
//Storyboard Layer 0 (Background)
//Storyboard Layer 1 (Fail)
//Storyboard Layer 2 (Pass)
//Storyboard Layer 3 (Foreground)
//Storyboard Sound Samples

[TimingPoints]
10390,455.217935586662,4,1,0,75,1,0
85045,-100,4,1,0,80,0,1
114179,-100,4,1,0,70,0,0
128746,-100,4,1,0,80,0,0
174268,-100,4,1,0,85,0,1
203402,-100,4,1,0,80,0,0
219790,-100,4,1,0,85,0,1
236178,-100,4,1,0,80,0,0

[Colours]
Combo1 : 255,192,0
Combo2 : 255,0,128
Combo3 : 18,124,255
Combo4 : 81,81,81

[HitObjects]
112,96,17673,6,0,P|116:196|128:256,1,150
156,284,18583,2,0,P|192:276|224:204,1,100
244,180,19266,1,0,0:0:0:0:
268,136,19494,6,0,P|312:124|376:152,1,100
444,196,20404,1,0,0:0:0:0:
480,288,20860,2,0,P|424:332|384:328,1,100
352,344,21542,6,0,L|296:200,1,150
256,112,22680,1,0,0:0:0:0:
160,140,23136,2,0,L|208:248,1,100
224,276,23818,2,0,L|288:276,1,50
472,260,24956,6,0,P|492:212|480:160,1,100
464,120,25639,2,0,L|408:108,1,50
316,92,26322,1,0,0:0:0:0:
216,92,26777,2,0,P|168:172|192:236,1,150
216,260,27688,1,0,0:0:0:0:
312,272,28143,6,0,P|368:180|328:84,1,200
256,44,29509,2,0,L|156:48,1,100
108,56,30191,2,0,P|64:64|28:168,1,150
44,248,31330,1,0,0:0:0:0:
124,192,31785,1,0,0:0:0:0:
196,264,32240,6,0,P|224:216|232:152,1,100
264,76,33150,2,0,P|300:64|364:72,1,100
440,132,34061,2,0,P|448:168|444:204,1,50
440,232,34516,2,0,P|408:256|396:260,1,50
352,272,34971,2,0,B|328:272|328:272|300:296|248:296,1,100
156,296,35882,5,0,0:0:0:0:
84,228,36337,1,0,0:0:0:0:
104,132,36792,2,0,L|92:56,2,75
152,144,37703,2,0,L|252:144,1,100
352,148,38613,1,0,0:0:0:0:
400,160,38841,1,0,0:0:0:0:
440,188,39068,1,0,0:0:0:0:
492,272,39523,6,0,P|472:320|424:332,1,100
380,328,40206,1,0,0:0:0:0:
336,308,40434,1,0,0:0:0:0:
248,264,40889,2,0,P|196:248|144:264,1,100
60,296,41800,2,0,B|28:236|28:236|28:192,1,100
36,104,42710,1,0,0:0:0:0:
132,136,43165,6,0,P|188:148|244:132,1,100
316,88,44076,2,0,L|316:32,2,50
396,144,44986,2,0,P|416:188|388:236,1,100
356,264,45669,1,0,0:0:0:0:
316,296,45896,2,0,L|204:304,1,100
116,312,46807,5,0,0:0:0:0:
52,236,47262,2,0,P|64:184|96:148,1,100
164,76,48173,1,0,0:0:0:0:
240,144,48628,2,0,P|272:148|304:136,1,50
324,108,49083,2,0,L|324:56,2,50
404,172,49993,2,0,P|420:216|412:232,1,50
412,264,50449,6,0,P|336:284|296:284,1,100
216,288,51359,2,0,L|100:288,1,100
16,288,52270,1,0,0:0:0:0:
4,240,52497,1,0,0:0:0:0:
24,196,52725,1,0,0:0:0:0:
100,128,53180,2,0,L|208:128,1,100
200,128,68657,5,0,0:0:0:0:
292,84,69113,2,0,P|368:84|404:104,1,100
444,176,70023,2,0,L|448:240,1,50
436,276,70478,2,0,P|388:284|332:268,1,100
260,212,71389,1,0,0:0:0:0:
204,288,71844,6,0,P|168:296|88:280,1,100
40,212,72754,1,0,0:0:0:0:
92,136,73210,2,0,P|132:100|184:108,1,100
264,152,74120,2,0,P|316:164|364:128,1,100
428,72,75030,1,0,0:0:0:0:
488,152,75486,1,0,0:0:0:0:
480,248,75941,6,0,P|444:296|356:312,1,150
316,288,76851,2,0,L|268:248,1,50
244,220,77307,1,0,0:0:0:0:
180,144,77762,2,0,L|188:52,2,75
160,196,78672,2,0,P|136:248|100:276,1,100
20,332,79583,5,0,0:0:0:0:
8,240,80038,2,0,P|4:200|20:120,1,100
64,56,80948,1,0,0:0:0:0:
164,36,81403,2,8,L|216:32,4,50
64,56,82769,1,4,0:0:0:0:
64,56,85045,6,0,P|128:120|204:128,1,150,2|0,0:0|0:0,0:0:0:0:
236,132,85956,2,0,L|292:132,1,50
336,132,86411,2,0,P|404:144|424:168,1,100,0|2,0:0|0:0,0:0:0:0:
464,256,87321,1,0,0:0:0:0:
424,348,87777,2,8,P|364:356|308:340,1,100
240,300,88687,6,0,B|176:284|176:284|168:312|168:312|112:296,1,150,2|0,0:0|0:0,0:0:0:0:
76,280,89597,1,0,0:0:0:0:
12,200,90053,1,0,0:0:0:0:
68,116,90508,2,0,P|124:84|176:92,1,100
256,104,91418,1,0,0:0:0:0:
352,128,91874,2,0,L|416:140,1,50
448,156,92329,6,0,P|464:196|448:248,1,100,2|0,0:0|0:0,0:0:0:0:
360,320,93239,2,0,L|300:316,1,50
248,308,93694,2,0,P|232:280|256:208,1,100,0|2,0:0|0:0,0:0:0:0:
336,136,94605,1,0,0:0:0:0:
260,60,95060,2,0,P|216:52|152:64,1,100
108,152,95970,6,0,B|92:192|92:192|100:236|180:264,1,150
228,276,96881,1,0,0:0:0:0:
348,288,97336,2,0,P|384:268|396:208,1,100
364,100,98247,2,0,P|372:80|452:28,2,100
300,204,99612,5,2,0:0:0:0:
264,308,100067,2,0,P|248:332|172:340,1,100,2|2,0:0|0:0,0:0:0:0:
100,304,100864,1,2,0:0:0:0:
60,224,101205,1,0,0:0:0:0:
60,164,101433,6,0,P|92:140|156:140,1,100
264,180,102344,2,0,L|324:228,1,75
392,280,103026,1,0,0:0:0:0:
448,304,103254,2,0,P|472:260|460:208,1,100
376,132,104164,2,0,L|304:92,1,75
228,60,104847,1,0,0:0:0:0:
176,32,105075,6,0,L|116:20,1,50
68,36,105530,2,0,P|40:84|44:144,1,100
96,232,106440,1,0,0:0:0:0:
164,320,106896,6,0,P|184:344|248:324,1,100,2|2,0:0|0:0,0:0:0:0:
344,264,107806,1,0,0:0:0:0:
396,232,108034,1,0,0:0:0:0:
456,260,108261,6,0,P|488:212|476:160,1,100
440,60,109172,2,0,L|328:40,1,100
220,44,110082,6,0,L|116:64,1,100
20,120,110993,2,0,P|0:164|20:212,1,100
112,284,111903,1,0,0:0:0:0:
216,224,112358,1,0,0:0:0:0:
316,288,112814,2,0,P|364:312|408:292,1,100
468,212,113724,1,0,0:0:0:0:
460,92,114179,6,0,P|448:68|364:48,1,100
324,44,114862,1,0,0:0:0:0:
284,88,115090,2,0,P|260:112|208:120,2,75
324,44,116000,2,0,L|376:144,1,100
396,188,116683,5,0,0:0:0:0:
388,248,116910,2,0,P|344:284|312:280,2,75
396,188,117821,1,0,0:0:0:0:
336,188,118049,2,0,L|276:188,1,50
168,188,118731,2,0,P|132:180|132:136,1,75
164,68,119414,2,0,P|216:48|312:68,1,150
352,100,120325,2,0,L|376:156,1,50
396,264,121007,1,0,0:0:0:0:
332,368,121463,6,0,L|264:368,1,50
228,344,121918,2,0,L|168:340,1,50
120,324,122373,2,0,P|100:260|108:240,1,75
136,172,123056,1,0,0:0:0:0:
168,120,123284,2,0,P|232:76|256:84,1,100
296,100,123966,2,0,L|344:140,1,50
416,212,124649,1,0,0:0:0:0:
364,320,125104,6,0,P|304:348|264:336,1,100
224,328,125787,2,0,L|192:268,1,50
160,208,126356,1,0,0:0:0:0:
152,120,126698,2,0,P|188:104|212:108,1,50
312,120,127381,2,0,P|356:136|400:176,1,100
476,260,128291,1,0,0:0:0:0:
388,348,128746,6,0,L|328:344,1,50
292,320,129201,2,0,P|228:288|200:292,1,100
84,304,130112,2,0,L|56:256,1,50
36,216,130567,2,0,P|48:156|32:116,1,100
8,68,131250,1,0,0:0:0:0:
52,32,131477,2,0,P|104:48|148:80,1,100
236,144,132388,5,0,0:0:0:0:
328,224,132843,1,0,0:0:0:0:
372,264,133071,1,0,0:0:0:0:
428,248,133298,1,0,0:0:0:0:
496,148,133754,2,0,L|496:80,2,50
500,276,134664,1,0,0:0:0:0:
428,352,135119,2,0,L|316:352,1,100
212,336,136030,6,0,L|148:332,1,50
104,324,136485,2,0,L|44:324,1,50
20,276,136940,2,0,P|16:232|32:200,1,75
100,148,137623,1,0,0:0:0:0:
144,108,137851,2,0,L|148:52,2,50
204,120,138533,1,0,0:0:0:0:
264,120,138761,2,0,P|328:132|360:164,1,100
428,248,139671,5,0,0:0:0:0:
356,328,140127,2,0,P|308:344|252:340,1,100
148,292,141037,2,0,L|96:264,1,50
56,236,141492,6,0,B|64:184|124:152,1,100
160,124,142175,1,0,0:0:0:0:
216,108,142403,2,0,L|288:108,1,50
324,116,142858,2,0,P|348:160|328:204,1,100
329,202,157880,6,0,P|268:224|224:200,1,100
168,140,158791,2,0,P|224:124|272:136,1,100
329,202,159701,1,0,0:0:0:0:
396,232,160042,2,0,P|432:240|476:216,1,75
496,188,160611,2,0,B|520:128|492:76,1,100
416,36,161522,5,0,0:0:0:0:
348,96,161977,2,0,P|288:108|240:88,1,100
176,28,162888,1,0,0:0:0:0:
76,24,163343,2,0,L|76:88,1,50
52,116,163798,2,0,L|-8:116,2,50
80,212,164708,1,0,0:0:0:0:
168,148,165164,6,0,L|272:168,1,100
356,184,166074,1,0,0:0:0:0:
428,252,166529,1,0,0:0:0:0:
448,156,166984,2,0,P|456:108|416:68,1,100
332,36,167895,5,0,0:0:0:0:
248,92,168350,1,0,0:0:0:0:
172,36,168805,2,0,P|116:32|60:40,1,100
8,112,169716,5,0,0:0:0:0:
80,172,170171,1,0,0:0:0:0:
168,128,170626,2,0,L|228:128,1,50
264,148,171081,2,0,L|332:148,2,50
264,148,171992,1,0,0:0:0:0:
