osu file format v14

[General]
AudioFilename: audio.mp3
AudioLeadIn: 0
PreviewTime: 83810
Countdown: 1
SampleSet: Normal
StackLeniency: 0.7
Mode: 0
LetterboxInBreaks: 0
WidescreenStoryboard: 1

[Editor]
DistanceSpacing: 1.2
BeatDivisor: 4
GridSize: 4
TimelineZoom: 1

[Metadata]
Title:DADDY
TitleUnicode:DADDY
Artist:PSY
ArtistUnicode:PSY
Creator:Happy190
Version:Hard
Source:
Tags:
BeatmapID:1092621
BeatmapSetID:512907

[Difficulty]
HPDrainRate:5
CircleSize:4
OverallDifficulty:6
ApproachRate:6
SliderMultiplier:1.2
SliderTickRate:1

[Events]
//Background and Video events
0,0,"PSY--DADDY.jpg",0,0
Video,-200,"RealLife.avi"
//Break Periods
2,53835,67553
//Storyboard Layer 0 (Background)
//Storyboard Layer 1 (Fail)
//Storyboard Layer 2 (Pass)
//Storyboard Layer 3 (Foreground)
//Storyboard Sound Samples

[TimingPoints]
10390,455.217935586662,4,1,0,75,1,0
85045,-100,4,1,0,80,0,1
114179,-100,4,1,0,70,0,0
128746,-100,4,1,0,80,0,0
174268,-100,4,1,0,85,0,1
203402,-100,4,1,0,80,0,0
219790,-100,4,1,0,85,0,1
236178,-100,4,1,0,80,0,0

[Colours]
Combo1 : 255,192,0
Combo2 : 255,55,55
Combo3 : 18,124,255
Combo4 : 81,81,81

[HitObjects]
116,104,17673,6,0,P|152:76|204:72,1,90
292,84,18356,1,0,0:0:0:0:
356,112,18583,2,0,P|392:136|408:156,1,60
400,220,19039,2,0,P|364:208|340:184,1,60
280,168,19494,6,0,P|224:168|192:176,1,90
92,220,20177,1,0,0:0:0:0:
56,284,20404,1,0,0:0:0:0:
132,288,20632,1,0,0:0:0:0:
212,252,20860,2,0,P|256:252|328:280,1,120
452,348,21770,5,0,0:0:0:0:
488,288,21998,2,0,P|496:252|484:208,1,60
460,164,22453,1,0,0:0:0:0:
460,164,22680,2,0,P|380:136|336:136,1,120
272,140,23363,5,0,0:0:0:0:
156,136,23591,1,0,0:0:0:0:
212,224,23818,1,0,0:0:0:0:
212,296,24046,2,0,L|156:336,1,60
100,364,24501,1,0,0:0:0:0:
100,364,24956,6,0,L|64:308,1,60
28,252,25412,1,0,0:0:0:0:
72,196,25639,1,0,0:0:0:0:
24,144,25867,2,0,P|52:116|116:100,1,90
208,104,26550,2,0,L|272:104,1,60
324,152,27005,6,0,L|392:152,2,60
268,196,27688,2,0,P|228:204|200:264,2,90
328,236,28598,1,0,0:0:0:0:
400,236,28826,1,0,0:0:0:0:
468,264,29053,2,0,P|480:288|472:320,1,60
416,360,29509,6,0,L|312:360,1,90
220,364,30191,1,0,0:0:0:0:
152,344,30419,2,0,L|92:304,1,60
48,264,30874,2,0,P|76:240|108:228,1,60
168,216,31330,1,0,0:0:0:0:
256,104,31785,1,0,0:0:0:0:
332,220,32240,6,0,P|384:216|408:200,1,60
384,140,32695,2,0,P|340:144|304:160,2,60
472,128,33492,2,0,P|496:180|496:220,1,90
476,280,34061,1,0,0:0:0:0:
420,324,34288,2,0,L|348:324,1,60
288,324,34744,1,0,0:0:0:0:
216,312,34971,6,0,P|184:264|188:216,1,90
220,132,35654,1,0,0:0:0:0:
264,76,35882,2,0,P|312:60|388:80,1,120
432,120,36565,1,0,0:0:0:0:
460,188,36792,2,0,B|440:228|404:232|404:232|400:272,2,90
508,132,37703,6,0,P|520:88|472:32,1,120
404,24,38385,1,0,0:0:0:0:
336,52,38613,2,0,L|288:88,1,60
228,128,39068,1,0,0:0:0:0:
120,200,39523,6,0,P|112:236|128:280,1,60
180,296,39979,2,0,P|192:268|188:232,1,60
184,168,40434,2,0,P|176:128|192:72,2,90
252,196,41344,2,0,P|308:228|328:228,1,60
360,184,41800,1,0,0:0:0:0:
376,256,42027,1,0,0:0:0:0:
440,200,42255,2,0,B|472:148|472:148|464:104,1,90
392,40,42938,1,0,0:0:0:0:
324,12,43165,6,0,P|244:4|192:16,1,120
132,16,43848,2,0,L|100:68,1,60
64,128,44303,1,0,0:0:0:0:
116,180,44531,1,0,0:0:0:0:
240,108,44986,2,0,L|304:108,1,60
372,116,45441,2,0,P|396:144|360:220,1,120
312,256,46124,1,0,0:0:0:0:
252,216,46352,1,0,0:0:0:0:
132,136,46807,5,0,0:0:0:0:
92,76,47035,2,0,P|112:56|164:68,1,60
200,96,47490,2,0,P|232:96|264:76,1,60
348,24,48059,1,0,0:0:0:0:
424,100,48400,1,0,0:0:0:0:
468,160,48628,2,0,P|484:192|472:240,1,60
424,256,49083,2,0,P|408:292|376:300,1,60
320,280,49538,2,0,P|264:300|220:276,1,90
144,236,50221,1,0,0:0:0:0:
92,184,50449,6,0,B|52:144|88:112|88:112|152:116,1,120
180,160,51132,2,0,P|208:172|240:168,1,60
284,116,51587,2,0,L|340:176,1,60
376,212,52042,1,0,0:0:0:0:
428,284,52270,6,0,P|420:320|336:320,1,120
264,272,53180,2,0,P|284:316|352:328,1,120
356,328,68657,5,0,0:0:0:0:
