osu file format v14

[General]
AudioFilename: audio.mp3
AudioLeadIn: 0
PreviewTime: 83810
Countdown: 0
SampleSet: Normal
StackLeniency: 0.7
Mode: 0
LetterboxInBreaks: 0
WidescreenStoryboard: 0

[Editor]
DistanceSpacing: 1.1
BeatDivisor: 4
GridSize: 4
TimelineZoom: 1

[Metadata]
Title:DADDY
TitleUnicode:DADDY
Artist:PSY
ArtistUnicode:PSY
Creator:Happy190
Version:Easy
Source:
Tags:
BeatmapID:1090049
BeatmapSetID:512907

[Difficulty]
HPDrainRate:3
CircleSize:3
OverallDifficulty:3
ApproachRate:3
SliderMultiplier:0.8
SliderTickRate:1

[Events]
//Background and Video events
0,0,"PSY--DADDY.jpg",0,0
Video,-200,"RealLife.avi"
//Break Periods
2,54290,67217
2,143058,156440
//Storyboard Layer 0 (Background)
//Storyboard Layer 1 (Fail)
//Storyboard Layer 2 (Pass)
//Storyboard Layer 3 (Foreground)
//Storyboard Sound Samples

[TimingPoints]
10390,455.217935586662,4,1,0,75,1,0
85045,-100,4,1,0,80,0,1
114179,-100,4,1,0,70,0,0
128746,-100,4,1,0,80,0,0
174268,-100,4,1,0,85,0,1
203402,-100,4,1,0,80,0,0
219790,-100,4,1,0,85,0,1
236178,-100,4,1,0,80,0,0

[Colours]
Combo1 : 255,192,0
Combo2 : 255,55,55
Combo3 : 18,124,255
Combo4 : 81,81,81

[HitObjects]
176,80,17218,6,0,P|256:60|336:88,1,160
412,116,18583,1,0,0:0:0:0:
456,192,19039,2,0,P|468:300|432:336,1,160
352,312,20404,1,0,0:0:0:0:
280,260,20860,6,0,P|200:232|172:160,1,160
260,164,22225,1,0,0:0:0:0:
332,112,22680,2,0,L|404:56,2,80
264,168,24046,1,0,0:0:0:0:
108,252,24956,6,0,P|156:312|240:308,1,160
320,304,26322,2,0,L|372:224,1,80
400,156,27233,1,0,0:0:0:0:
368,72,27688,2,0,L|212:28,1,160
132,68,29053,6,0,P|128:132|140:144,1,80
208,192,29964,2,0,P|216:252|208:268,1,80
144,328,30874,1,0,0:0:0:0:
224,360,31330,2,8,P|264:368|304:356,1,80,4|0,0:0|0:0,0:0:0:0:
388,340,32240,6,0,L|424:252,1,80
456,188,33150,1,0,0:0:0:0:
368,192,33606,1,0,0:0:0:0:
416,116,34061,2,0,L|456:40,2,80
296,248,35882,6,0,P|248:264|208:256,1,80
140,220,36792,1,0,0:0:0:0:
140,132,37247,1,0,0:0:0:0:
220,100,37703,1,0,0:0:0:0:
224,188,38158,1,0,0:0:0:0:
296,140,38613,2,0,L|376:128,1,80
460,112,39523,5,0,0:0:0:0:
480,152,39751,1,0,0:0:0:0:
500,192,39979,2,0,P|508:244|496:284,1,80
416,276,40889,2,0,P|400:220|404:188,1,80
448,124,41800,1,0,0:0:0:0:
388,52,42255,6,0,P|344:40|296:52,1,80
264,120,43165,2,0,P|220:128|188:116,1,80
132,48,44076,2,0,L|88:128,1,80
40,188,44986,2,0,L|0:188,2,40
96,256,45896,1,4,0:0:0:0:
184,284,46352,5,0,0:0:0:0:
260,236,46807,1,0,0:0:0:0:
284,152,47262,1,0,0:0:0:0:
240,76,47717,2,0,P|196:48|164:48,2,80
284,152,49083,1,0,0:0:0:0:
332,232,49538,6,0,P|348:272|348:280,1,40
332,312,49993,2,0,P|300:332|248:336,1,80
176,304,50904,2,0,P|116:240|144:176,1,160
200,116,52270,1,0,0:0:0:0:
268,172,52725,1,0,0:0:0:0:
336,116,53180,1,0,0:0:0:0:
400,176,53635,2,0,P|432:164|456:120,1,80
164,88,68657,6,0,P|224:72|328:92,1,160
360,104,69795,2,0,L|376:152,1,40
380,232,70478,2,0,P|328:280|240:284,1,160
200,268,71616,2,0,L|188:224,1,40
172,144,72299,5,8,0:0:0:0:
232,80,72754,1,8,0:0:0:0:
308,52,73210,2,8,P|360:52|396:76,2,80
232,84,74575,2,0,P|244:140|336:192,1,160,8|2,0:0|0:0,0:0:0:0:
404,152,75941,5,0,0:0:0:0:
492,236,76624,2,0,P|484:280|420:328,1,120
349,295,77762,2,0,B|341:247|305:231|269:215|293:155,1,160
324,80,79127,1,0,0:0:0:0:
259,27,79583,2,0,P|211:19|115:83,1,160
103,157,80948,1,0,0:0:0:0:
112,239,81403,2,0,L|124:327,3,80
128,332,85045,6,0,P|154:307|180:268,1,80,0|8,0:0|0:0,0:0:0:0:
216,192,85956,1,0,0:0:0:0:
252,112,86411,2,0,L|264:72,1,40,8|2,0:0|0:0,0:0:0:0:
288,36,86866,2,0,P|344:32|376:48,1,80,8|0,0:0|0:0,0:0:0:0:
412,116,87777,1,0,0:0:0:0:
424,204,88232,2,0,L|424:256,1,40,8|2,0:0|0:0,0:0:0:0:
408,284,88687,6,0,P|368:296|296:260,1,120,8|0,0:0|0:0,0:0:0:0:
280,216,89597,2,8,P|260:184|212:156,2,80,8|0|8,0:0|0:0|0:0,0:0:0:0:
375,200,90963,1,0,0:0:0:0:
435,122,91418,2,0,B|423:78|459:62|459:62|427:6,1,120,8|0,0:0|0:0,0:0:0:0:
385,13,92329,6,0,P|325:25|293:25,1,80,2|0,0:0|0:0,0:0:0:0:
216,12,93239,2,0,B|192:48|216:72|216:72|192:100|208:128,1,120
220,164,94150,2,0,P|212:228|192:248,1,80,2|0,0:0|0:0,0:0:0:0:
124,272,95060,1,0,0:0:0:0:
176,344,95515,1,8,0:0:0:0:
256,304,95970,6,0,P|328:292|360:216,1,160,2|0,0:0|0:0,0:0:0:0:
364,132,97336,2,0,P|384:96|424:88,1,80
492,136,98247,1,0,0:0:0:0:
444,212,98702,1,0,0:0:0:0:
504,276,99157,1,8,0:0:0:0:
436,332,99612,6,0,P|380:356|356:352,1,80,2|2,0:0|0:0,0:0:0:0:
276,332,100523,1,8,0:0:0:0:
212,272,100978,1,8,0:0:0:0:
176,192,101433,2,0,L|136:164,2,40,8|0|8,0:0|0:0|0:0,0:0:0:0:
260,168,102344,2,0,P|308:160|336:132,1,80,8|8,0:0|0:0,0:0:0:0:
356,104,103026,6,0,L|412:100,1,40,0|8,0:0|0:0,0:0:0:0:
484,92,103709,1,8,0:0:0:0:
504,176,104164,2,0,P|508:216|496:268,1,80,8|8,0:0|0:0,0:0:0:0:
484,296,104847,2,0,L|432:308,1,40,2|2,0:0|0:0,0:0:0:0:
360,324,105530,1,8,0:0:0:0:
280,292,105985,1,0,0:0:0:0:
220,232,106440,2,0,L|220:184,1,40
244,156,106896,6,0,P|256:128|240:68,1,80,2|2,0:0|0:0,0:0:0:0:
176,28,107806,2,0,P|136:16|92:28,1,80,8|8,0:0|0:0,0:0:0:0:
68,56,108489,2,2,L|52:100,1,40
32,180,109172,1,8,0:0:0:0:
96,240,109627,1,8,0:0:0:0:
44,312,110082,2,0,P|92:332|132:324,1,80,4|0,0:0|0:0,0:0:0:0:
188,272,110993,6,8,P|236:268|272:276,1,80
348,316,111903,1,0,0:0:0:0:
420,264,112358,2,8,L|416:172,1,80
404,96,113269,1,8,0:0:0:0:
332,48,113724,1,4,0:0:0:0:
244,24,114179,6,0,P|228:56|240:136,1,120
272,164,115090,2,0,P|300:216|296:244,1,80
272,317,116000,1,0,0:0:0:0:
199,357,116455,2,0,L|143:357,1,40
116,360,116910,2,0,P|72:340|60:312,1,80
57,219,117821,6,0,L|61:127,1,80
78,53,118731,1,0,0:0:0:0:
156,13,119187,2,0,P|236:-3|316:17,1,160
388,64,120552,1,0,0:0:0:0:
464,20,121007,1,2,0:0:0:0:
504,100,121463,6,0,P|512:152|432:216,1,160,0|8,0:0|0:0,0:0:0:0:
352,200,122828,2,0,L|308:184,1,40,8|0,0:0|0:0,0:0:0:0:
272,180,123284,2,0,P|232:212|228:248,1,80
248,324,124194,1,2,0:0:0:0:
180,380,124649,2,0,L|148:340,1,40
132,312,125104,6,0,P|88:284|76:248,1,80
24,188,126015,2,0,L|64:112,1,80
120,52,126925,2,8,L|116:-4,2,40,8|0|0,0:0|0:0|0:0,0:0:0:0:
184,112,127836,2,0,L|232:176,1,80,0|2,0:0|0:0,0:0:0:0:
292,240,128746,6,0,L|328:272,1,40,8|0,0:0|0:0,0:0:0:0:
360,288,129201,2,0,P|412:284|440:256,1,80,8|0,0:0|0:0,0:0:0:0:
460,184,130112,2,0,L|428:148,1,40
396,132,130567,2,0,P|348:144|324:168,2,80
472,88,131933,6,0,P|464:52|432:24,1,80
344,16,132843,1,0,0:0:0:0:
280,76,133298,1,0,0:0:0:0:
204,32,133754,2,0,L|164:32,2,40
280,76,134664,1,0,0:0:0:0:
352,28,135119,6,0,P|388:28|436:64,1,80,2|8,0:0|0:0,0:0:0:0:
468,124,136030,1,0,0:0:0:0:
488,164,136257,1,0,0:0:0:0:
500,204,136485,2,0,P|504:240|488:292,1,80,0|8,0:0|0:0,0:0:0:0:
432,340,137395,1,0,0:0:0:0:
352,376,137851,6,0,L|304:376,1,40
268,380,138306,1,0,0:0:0:0:
180,380,138761,2,0,P|140:364|112:332,1,80
84,264,139671,5,0,0:0:0:0:
80,176,140127,1,0,0:0:0:0:
116,96,140582,1,0,0:0:0:0:
184,40,141037,1,0,0:0:0:0:
272,28,141492,6,0,P|316:28|356:44,1,80
376,76,142175,2,0,L|404:116,1,40
448,180,142858,1,2,0:0:0:0:
444,180,157880,6,0,L|440:236,1,40,8|0,0:0|0:0,0:0:0:0:
432,268,158335,2,8,P|408:280|356:272,1,80
292,212,159246,1,8,0:0:0:0:
280,124,159701,2,0,L|280:72,1,40,8|0,0:0|0:0,0:0:0:0:
268,40,160156,2,8,P|224:28|184:44,1,80
130,104,161067,5,0,0:0:0:0:
64,160,161522,2,8,L|64:251,1,80
150,255,162432,2,8,L|152:337,1,80
232,370,163343,2,0,L|280:369,1,40,8|0,0:0|0:0,0:0:0:0:
313,353,163798,2,8,P|319:313|304:273,1,80
239,219,164708,1,4,0:0:0:0:
164,172,165164,6,0,B|171:114|154:92|154:92|189:60,1,120
219,52,166074,2,0,P|275:37|314:42,2,80
174,122,167440,1,8,0:0:0:0:
116,196,167895,6,0,P|91:235|90:278,2,80
160,117,169261,1,8,0:0:0:0:
236,72,169716,1,8,0:0:0:0:
324,72,170171,1,8,0:0:0:0:
407,94,170626,1,8,0:0:0:0:
478,144,171081,2,0,L|486:188,2,40,8|0|8,0:0|0:0|0:0,0:0:0:0:
489,56,171992,1,0,0:0:0:0:
489,56,174268,6,0,P|437:46|361:64,1,120
342,92,175178,2,2,L|323:131,1,40
301,165,175634,2,0,P|260:191|212:204,1,80,8|0,0:0|0:0,0:0:0:0:
144,208,176544,1,0,0:0:0:0:
68,162,176999,2,0,P|39:163|-2:201,1,80
8,284,177910,6,0,B|44:308|80:288|80:288|108:316|136:304,1,120
160,312,178820,2,0,P|220:312|244:304,1,80
312,260,179731,1,0,0:0:0:0:
360,188,180186,1,0,0:0:0:0:
360,100,180641,2,0,L|360:44,1,40
360,16,181096,2,0,P|400:8|444:20,1,80
500,80,182007,5,0,0:0:0:0:
460,156,182462,2,0,L|444:200,1,40
432,236,182917,2,0,P|400:272|368:276,1,80
284,260,183828,1,0,0:0:0:0:
212,208,184283,1,0,0:0:0:0:
284,156,184738,1,0,0:0:0:0:
224,92,185193,6,0,P|164:88|104:120,1,120
80,144,186104,2,0,P|32:160|-8:152,2,80,2|8|0,0:0|0:0|0:0,0:0:0:0:
164,176,187469,1,8,0:0:0:0:
204,252,187924,1,8,0:0:0:0:
268,192,188380,1,8,0:0:0:0:
324,260,188835,6,0,P|380:272|400:256,1,80,2|2,0:0|0:0,0:0:0:0:
456,196,189745,2,0,L|452:140,2,40
504,272,190656,2,8,P|512:320|500:360,1,80
420,380,191566,2,8,P|376:384|332:376,1,80
256,348,192477,5,8,0:0:0:0:
208,276,192932,2,0,P|140:272|116:280,1,80,8|8,0:0|0:0,0:0:0:0:
92,300,193615,2,8,L|60:272,1,40,0|8,0:0|0:0,0:0:0:0:
0,212,194298,1,2,0:0:0:0:
60,148,194753,2,0,P|92:132|152:132,1,80
220,148,195663,1,0,0:0:0:0:
300,184,196118,6,0,P|348:188|380:176,1,80,2|2,0:0|0:0,0:0:0:0:
436,112,197029,1,8,0:0:0:0:
488,184,197484,1,8,0:0:0:0:
428,248,197939,2,2,L|424:296,1,40
420,332,198395,1,2,0:0:0:0:
340,372,198850,2,8,P|296:380|260:368,1,80
200,308,199760,5,0,0:0:0:0:
144,240,200215,2,0,L|100:164,1,80
64,92,201126,1,0,0:0:0:0:
132,36,201581,2,0,P|200:12|284:36,1,160
352,88,202947,1,0,0:0:0:0:
420,28,203402,5,0,0:0:0:0:
472,96,203857,2,0,B|504:160|508:176|508:176|500:188|448:232,1,160
376,260,205223,1,0,0:0:0:0:
300,300,205678,2,0,P|252:308|212:296,1,80
148,256,206588,1,4,0:0:0:0:
88,316,207044,6,0,B|44:248|44:248|104:184,1,160
164,132,208409,1,0,0:0:0:0:
232,76,208865,2,0,L|232:36,2,40
300,132,209775,1,0,0:0:0:0:
364,192,210230,1,2,0:0:0:0:
416,260,210685,6,0,P|396:308|288:336,1,160
324,256,212051,1,0,0:0:0:0:
348,172,212506,2,0,B|248:160|232:256,1,160
324,256,213872,1,0,0:0:0:0:
408,240,214327,6,0,P|448:192|448:172,1,80
440,92,215238,2,0,P|416:56|380:40,1,80
340,40,215920,2,0,L|288:40,1,40
220,45,216603,1,8,0:0:0:0:
144,75,217058,1,8,0:0:0:0:
94,142,217514,1,4,0:0:0:0:
96,140,219790,5,2,0:0:0:0:
84,228,220245,2,0,P|88:300|96:312,1,80,2|0,0:0|0:0,0:0:0:0:
168,264,221155,1,0,0:0:0:0:
256,264,221611,2,0,L|312:264,2,40
172,264,222521,1,0,0:0:0:0:
172,352,222976,1,0,0:0:0:0:
260,352,223431,5,0,0:0:0:0:
340,348,223887,2,0,P|408:316|416:264,1,120
416,236,224797,2,0,L|404:184,1,40
395,158,225252,1,0,0:0:0:0:
351,89,225708,2,0,P|291:69|267:73,1,80
198,96,226618,1,0,0:0:0:0:
156,176,227073,6,0,P|220:200|312:184,1,160,2|0,0:0|0:0,0:0:0:0:
384,140,228439,1,0,0:0:0:0:
456,88,228894,2,0,L|472:172,1,80
492,252,229805,1,0,0:0:0:0:
408,280,230260,1,4,0:0:0:0:
384,196,230715,6,0,L|332:200,1,40
304,200,231170,2,0,P|296:232|308:276,1,80
366,334,232081,2,0,P|386:302|382:246,1,80
392,224,232763,6,0,L|432:208,1,40
505,174,233446,1,0,0:0:0:0:
459,107,233902,1,0,0:0:0:0:
256,192,234357,12,0,236178,0:0:0:0:
