osu file format v14

[General]
AudioFilename: [MV] PRISTIN() _ WEE WOO (1).mp3
AudioLeadIn: 0
PreviewTime: 51762
Countdown: 1
SampleSet: Normal
StackLeniency: 0.7
Mode: 0
LetterboxInBreaks: 1
WidescreenStoryboard: 1

[Editor]
Bookmarks: 16743,24127,31512,38897,46281,53666,61050,68435,83204,90589,97974,105358,112743,120127,127512,134897,142281,160743,168127,175512
DistanceSpacing: 0.8
BeatDivisor: 4
GridSize: 32
TimelineZoom: 1

[Metadata]
Title:WEE WOO
TitleUnicode:WEE WOO
Artist:PRISTIN
ArtistUnicode:프리스틴
Creator:Eunwoo
Version:Collab Normal
Source:
Tags:Pledis entertainment HI! PRISTIN debut kpop k-pop first album Nayoung Roa Yuha Eunwoo Rena Kyulkyung Yehana Seungyeon Xiyeon Kyla 나영 로아 ìœ í•˜ 은우 ë ˆë‚˜ ê²°ê²½ 예하나 성연 시연 카일라 Firetruck
BeatmapID:1279302
BeatmapSetID:603372

[Difficulty]
HPDrainRate:4
CircleSize:3.5
OverallDifficulty:5
ApproachRate:5
SliderMultiplier:1.3
SliderTickRate:1

[Events]
//Background and Video events
0,0,"eunwoo.png",0,0
Video,0,"eunwoow.avi"
//Break Periods
2,68435,82004
2,127512,133697
2,142281,159543
//Storyboard Layer 0 (Background)
//Storyboard Layer 1 (Fail)
//Storyboard Layer 2 (Pass)
//Storyboard Layer 3 (Foreground)
//Storyboard Sound Samples

[TimingPoints]
1974,461.538461538462,4,1,0,100,1,0
53666,-100,4,1,0,100,0,1
60820,-100,4,1,0,100,0,0
61050,-100,4,1,0,100,0,1
68435,-100,4,1,0,100,0,0
112743,-100,4,1,0,100,0,1
119897,-100,4,1,0,100,0,0
120127,-100,4,1,0,100,0,1
127512,-100,4,1,0,100,0,0
160743,-100,4,1,0,100,0,1
167897,-100,4,1,0,100,0,0
168127,-100,4,1,0,100,0,1
175512,-100,4,1,0,100,0,0

[HitObjects]
57,170,16743,6,0,L|192:158,1,130
238,156,17435,1,0,0:0:0:0:
238,156,17666,2,0,P|274:155|307:147,1,65
350,130,18127,2,0,P|386:131|419:139,1,65
465,129,18589,6,0,L|425:253,1,130
387,349,19512,1,0,0:0:0:0:
299,293,19974,1,0,0:0:0:0:
207,343,20435,6,0,L|134:315,1,65
96,335,20897,2,0,L|167:218,1,130
219,135,21820,1,0,0:0:0:0:
313,92,22281,6,0,L|383:66,2,65
219,135,23204,1,0,0:0:0:0:
119,103,23666,1,0,0:0:0:0:
74,196,24127,6,0,P|64:257|90:328,1,130
119,359,24820,1,0,0:0:0:0:
220,338,25281,2,0,L|265:386,2,65
198,290,25974,6,0,P|210:241|194:155,1,130
175,61,26897,1,0,0:0:0:0:
272,97,27358,2,0,L|351:99,1,65
386,81,27820,2,0,P|377:144|397:208,1,130
361,304,28743,2,0,P|330:308|290:299,1,65
255,270,29204,2,0,P|224:266|184:275,1,65
139,279,29666,6,0,B|68:247|68:247|17:198,1,130
88,124,30589,2,0,P|154:118|220:126,1,130
321,125,31512,6,0,L|324:196,1,65
345,237,31974,2,0,L|348:308,1,65
344,353,32435,2,0,P|308:357|274:352,2,65
443,322,33358,6,0,B|455:279|455:279|449:181,1,130
364,133,34281,2,0,B|352:176|352:176|358:274,1,130
272,322,35204,6,0,P|236:316|189:323,1,65
158,336,35666,2,0,P|122:342|75:335,1,65
41,338,36127,2,0,P|56:282|46:204,1,130
16,109,37050,5,0,0:0:0:0:
118,128,37512,1,0,0:0:0:0:
220,110,37974,2,0,L|304:112,2,65
118,128,38897,6,0,P|54:192|54:256,1,130
152,219,39820,2,0,P|216:283|216:347,1,130
239,367,40512,1,0,0:0:0:0:
239,367,40743,6,0,L|303:303,1,65
334,305,41204,2,0,L|385:249,1,65
428,243,41666,2,0,P|374:208|327:152,1,130
263,79,42589,6,0,L|192:109,1,65
156,128,43050,2,0,P|152:185|115:249,1,130
99,296,43743,1,0,0:0:0:0:
99,296,43974,2,0,L|174:298,1,65
214,309,44435,2,0,P|218:258|276:189,1,130
365,172,45358,2,0,P|361:223|303:292,1,130
232,348,46281,6,0,B|187:342|187:342|154:348|154:348|99:341,1,130
51,334,46974,1,0,0:0:0:0:
51,334,47204,2,0,L|70:268,2,65
154,326,48127,6,0,P|215:316|284:327,1,130
377,285,49050,2,0,P|438:295|507:284,1,130
462,190,49974,5,0,0:0:0:0:
380,126,50435,2,0,L|309:105,1,65
283,67,50897,2,0,L|255:213,1,130
242,297,51820,5,0,0:0:0:0:
242,297,53666,2,0,L|260:204,1,65
263,181,54127,2,0,P|206:185|138:160,1,130
41,122,55050,1,0,0:0:0:0:
41,122,55281,2,0,P|88:72|214:81,1,195
241,228,56666,2,0,L|240:302,1,65
335,250,57358,6,0,B|350:190|350:190|333:121,1,130
324,20,58281,2,0,B|387:39|387:39|445:103,1,130
463,185,59204,5,0,0:0:0:0:
378,246,59666,2,0,L|285:248,1,65
261,249,60127,1,0,0:0:0:0:
237,147,60589,1,0,0:0:0:0:
138,111,61050,6,0,P|79:113|9:78,1,130
97,19,61974,1,0,0:0:0:0:
197,45,62435,1,0,0:0:0:0:
296,76,62897,6,0,P|359:63|423:77,1,130
359,160,63820,1,0,0:0:0:0:
255,170,64281,1,0,0:0:0:0:
152,188,64743,6,0,L|73:172,1,65
67,127,65204,2,0,L|26:261,1,130
55,351,66127,1,0,0:0:0:0:
55,351,66358,6,0,P|116:337|184:351,1,130
227,374,67050,1,0,0:0:0:0:
95,108,83204,6,0,L|240:97,1,130
276,96,83897,1,0,0:0:0:0:
276,96,84127,2,0,P|274:142|321:217,1,130
349,251,84820,1,0,0:0:0:0:
349,251,85050,6,0,L|261:246,1,65
238,272,85512,2,0,L|150:267,1,65
137,306,85974,2,0,L|143:173,1,130
195,86,86897,6,0,L|290:72,1,65
310,87,87358,2,0,L|405:73,1,65
418,49,87820,2,0,P|421:123|453:186,1,130
381,256,88743,6,0,L|242:287,2,130
470,308,90127,1,0,0:0:0:0:
448,192,90589,6,0,L|352:96,1,130
256,96,91512,2,0,L|182:113,1,65
153,144,91974,2,0,L|79:161,1,65
47,189,92435,6,0,L|50:319,1,130
153,327,93358,2,0,P|187:267|249:229,1,130
338,212,94281,5,0,0:0:0:0:
338,212,94512,2,0,L|343:290,1,65
264,345,95204,2,0,P|200:377|136:345,1,130
151,254,96127,6,0,B|102:197|102:197|87:126,1,130
180,90,97050,1,0,0:0:0:0:
283,95,97512,2,0,P|316:92|368:98,1,65
386,59,97974,6,0,L|390:213,1,130
389,241,98666,1,0,0:0:0:0:
389,241,98897,2,0,P|323:226|263:237,1,130
216,260,99589,1,0,0:0:0:0:
216,260,99820,6,0,L|214:194,1,65
171,165,100281,2,0,L|169:99,1,65
165,47,100743,2,0,P|223:52|290:30,1,130
392,50,101666,2,0,P|396:85|392:116,1,65
422,157,102127,2,0,L|293:154,1,130
239,152,102820,1,0,0:0:0:0:
239,152,103050,2,0,P|245:224|222:295,1,130
209,327,103743,5,0,0:0:0:0:
209,327,103974,2,0,L|139:320,1,65
99,346,104435,2,0,P|103:290|88:212,1,130
193,226,105358,6,0,P|256:242|341:250,1,130
357,212,106050,1,0,0:0:0:0:
357,212,106281,2,0,P|307:163|240:125,1,130
203,134,106974,1,0,0:0:0:0:
203,134,107204,6,0,P|149:172|98:242,1,130
179,298,108127,2,0,L|330:335,1,130
373,249,109050,2,0,L|425:110,1,130
324,75,109974,1,0,0:0:0:0:
324,75,110204,2,0,L|238:73,1,65
159,42,110897,2,0,P|133:102|138:188,1,130
120,269,111820,2,0,P|208:298|256:288,1,130
345,273,112743,6,0,B|350:223|350:223|343:131,1,130
258,83,113666,2,0,B|253:133|253:133|260:225,1,130
266,264,114358,1,0,0:0:0:0:
266,264,114589,6,0,P|202:251|138:262,1,130
56,324,115512,1,0,0:0:0:0:
42,220,115974,1,0,0:0:0:0:
138,261,116435,6,0,B|184:257|184:257|221:261|221:261|276:259,1,130
314,282,117127,2,0,P|309:228|341:160,1,130
389,143,117820,2,0,L|364:73,1,65
352,31,118281,6,0,B|292:35|292:35|203:17,1,130
167,108,119204,2,0,B|227:104|227:104|316:122,1,130
224,193,120127,6,0,P|149:204|108:243,1,130
205,282,121050,2,0,P|265:298|341:300,1,130
384,299,121743,1,0,0:0:0:0:
384,299,121974,6,0,B|374:252|374:252|387:164,1,130
335,79,122897,2,0,B|401:84|401:84|465:106,1,130
385,170,123820,6,0,B|323:197|323:197|245:209,1,130
163,241,124743,2,0,P|99:208|63:141,1,130
45,113,125435,6,0,B|120:111|120:111|188:86,1,130
220,73,126127,1,0,0:0:0:0:
73,104,134897,6,0,P|132:110|203:83,1,130
285,31,135820,2,0,L|425:20,1,130
502,76,136743,5,0,0:0:0:0:
451,166,137204,1,0,0:0:0:0:
386,247,137666,2,0,P|355:238|318:235,1,65
272,248,138127,2,0,P|239:244|208:235,1,65
162,259,138589,6,0,L|216:124,1,130
256,45,139512,1,0,0:0:0:0:
151,49,139974,2,0,L|42:38,2,97.5
253,193,160743,6,0,P|188:177|149:111,1,130
135,78,161435,1,0,0:0:0:0:
135,78,161666,2,0,P|199:83|274:68,1,130
313,84,162358,6,0,B|308:171|308:171|326:282,1,195
246,345,163512,1,0,0:0:0:0:
246,345,163743,2,0,L|168:337,1,65
156,237,164435,6,0,P|216:210|266:150,1,130
291,64,165358,2,0,B|341:105|341:105|420:138,1,130
450,222,166281,6,0,B|485:163|485:163|505:99,1,130
401,130,167204,1,0,0:0:0:0:
304,90,167666,2,0,B|267:94|267:94|215:82,1,65
207,46,168127,6,0,L|182:177,1,130
145,270,169050,2,0,B|209:259|209:259|277:267,1,130
321,287,169743,6,0,P|370:279|426:286,2,97.5
291,187,170897,1,0,0:0:0:0:
212,254,171358,1,0,0:0:0:0:
112,224,171820,6,0,L|119:86,1,130
118,42,172512,1,0,0:0:0:0:
118,42,172743,2,0,P|178:49|252:37,1,130
288,8,173435,6,0,L|285:149,1,130
284,190,174127,1,0,0:0:0:0:
275,293,174589,2,0,B|149:243|146:337|11:279,1,260
