osu file format v14

[General]
AudioFilename: audio.mp3
AudioLeadIn: 0
PreviewTime: 55944
Countdown: 0
SampleSet: Soft
StackLeniency: 0.7
Mode: 0
LetterboxInBreaks: 0
WidescreenStoryboard: 1

[Editor]
Bookmarks: 11668,12082
DistanceSpacing: 0.8
BeatDivisor: 4
GridSize: 8
TimelineZoom: 1

[Metadata]
Title:Balance Doll
TitleUnicode:バランスドール
Artist:PRAGUE
ArtistUnicode:PRAGUE
Creator:misakiakill
Version:Hard
Source:銀魂°
Tags:Sakura Shiro, Gintama ending18,Anime ending,Gintama season 2
BeatmapID:971158
BeatmapSetID:452772

[Difficulty]
HPDrainRate:6
CircleSize:4
OverallDifficulty:7
ApproachRate:7
SliderMultiplier:1.9
SliderTickRate:2

[Events]
//Background and Video events
0,0,"background.jpg",0,0
Video,-1327,"Gintama Ending 18.mp4"
//Break Periods
//Storyboard Layer 0 (Background)
//Storyboard Layer 1 (Fail)
//Storyboard Layer 2 (Pass)
//Storyboard Layer 3 (Foreground)
//Storyboard Sound Samples

[TimingPoints]
82,413.793103448276,4,2,1,100,1,0
13219,-100,4,2,1,49,0,0
16633,-181.818181818181,4,2,1,100,0,0
26047,-181.818181818181,4,2,3,100,0,0
26254,-181.818181818181,4,2,1,100,0,0
34323,-181.818181818181,4,2,1,100,0,0
34530,-181.818181818181,4,2,1,100,0,0
35978,-181.818181818181,4,2,3,100,0,0
36185,-181.818181818181,4,2,1,100,0,0
43116,-100,4,2,1,100,0,0
52530,-100,4,2,1,55,0,0
56357,-100,4,2,1,100,0,1
76530,-100,4,2,1,100,0,1
76737,-100,4,2,1,100,0,1
78185,-100,4,2,1,100,0,1
78392,-100,4,2,1,100,0,1
80978,-133.333333333333,4,2,1,100,0,1
82840,-153.846153846153,4,2,1,100,0,0
86150,-153.846153846153,4,2,1,100,0,0
87806,-153.846153846153,4,2,1,100,0,0
89254,-153.846153846153,4,2,1,100,0,0

[Colours]
Combo1 : 105,204,252
Combo2 : 236,254,255
Combo3 : 128,255,255
Combo4 : 255,196,249

[HitObjects]
72,48,82,6,0,P|48:152|64:240,1,190,4|8,0:1|0:0,0:0:0:0:
120,320,909,1,0,0:0:0:0:
232,320,1116,1,0,0:0:0:0:
168,240,1323,1,8,0:0:0:0:
216,160,1737,5,0,0:0:0:0:
280,240,1944,1,0,0:0:0:0:
328,152,2150,1,8,0:0:0:0:
328,152,2357,1,0,0:0:0:0:
328,152,2564,2,0,L|256:72,1,95
168,56,2978,1,8,0:0:0:0:
64,120,3392,6,0,B|32:208|32:208|64:320,1,190,4|8,0:1|0:0,0:0:0:0:
152,328,4013,1,0,0:0:0:0:
176,224,4219,1,0,0:0:0:0:
256,304,4426,2,0,L|328:232,1,95,0|8,0:0|0:0,0:0:0:0:
416,272,5047,6,0,B|472:200|472:200|464:80,2,190,0|8|0,0:0|0:0|0:0,0:0:0:0:
336,320,6082,1,0,0:0:0:0:
272,248,6288,1,8,0:0:0:0:
328,176,6702,6,0,P|304:112|264:88,1,95,4|0,0:1|0:0,0:0:0:0:
184,72,7116,2,0,P|160:136|120:160,1,95,8|0,0:0|0:0,0:0:0:0:
72,232,7530,2,0,P|40:168|48:128,2,95,0|0|8,0:0|0:0|0:0,0:0:0:0:
228,315,8357,5,0,0:0:0:0:
228,315,8564,1,0,0:0:0:0:
312,256,8771,1,8,0:0:0:0:
312,256,8978,1,0,0:0:0:0:
240,184,9185,1,0,0:0:0:0:
240,184,9392,1,0,0:0:0:0:
312,120,9599,1,8,0:0:0:0:
200,64,10013,6,0,L|80:72,2,95,2|0|8,0:0|0:0|0:0,0:0:0:0:
208,136,10633,1,0,0:0:0:0:
216,208,10840,2,0,L|352:200,2,95,0|0|8,0:0|0:0|0:0,0:0:0:0:
224,320,11668,6,0,B|288:320|288:320|336:288|336:288|408:288,1,190,2|8,0:0|0:0,0:0:0:0:
464,248,12288,1,0,0:0:0:0:
400,216,12495,2,0,L|360:120,2,95,0|0|2,0:0|0:0|0:0,0:0:0:0:
256,192,13323,12,0,16219,0:0:0:0:
104,80,16633,6,0,L|112:192,1,104.500003189087,4|8,0:1|0:0,0:0:0:0:
56,224,17254,1,0,0:0:0:0:
96,280,17461,1,0,0:0:0:0:
184,312,17875,2,0,L|256:304,1,52.2500015945435,8|0,0:0|0:0,0:0:0:0:
288,248,18288,6,0,L|288:176,1,52.2500015945435,2|0,0:0|0:0,0:0:0:0:
368,208,18702,2,0,L|368:136,1,52.2500015945435,2|0,0:0|0:0,0:0:0:0:
448,168,19116,2,0,L|448:104,1,52.2500015945435,2|0,0:0|0:0,0:0:0:0:
448,115,19530,2,0,B|376:63|376:63|352:64,1,104.500003189087,8|2,0:0|0:0,0:0:0:0:
264,112,20254,5,2,0:0:0:0:
152,64,20564,1,2,0:0:0:0:
96,120,20771,2,0,L|112:192,1,52.2500015945435,2|0,0:0|0:0,0:0:0:0:
168,208,21185,2,0,P|223:223|256:272,1,104.500003189087,8|2,0:0|0:0,0:0:0:0:
176,280,21806,1,0,0:0:0:0:
120,352,22013,2,0,L|80:288,1,52.2500015945435,2|2,0:0|0:0,0:0:0:0:
80,128,22840,6,0,P|72:80|120:40,1,104.500003189087,8|0,0:0|0:0,0:0:0:0:
152,104,23461,2,0,L|208:128,1,52.2500015945435
264,72,23875,1,0,0:0:0:0:
296,144,24082,1,0,0:0:0:0:
416,88,24495,2,0,L|464:120,1,52.2500015945435,8|0,0:0|0:0,0:0:0:0:
480,200,24909,5,2,0:0:0:0:
368,296,25219,1,2,0:0:0:0:
272,200,25530,1,2,0:0:0:0:
183,119,25944,6,0,L|71:87,1,104.500003189087
82,90,26564,1,0,0:0:0:0:
40,144,26771,1,0,0:0:0:0:
72,208,26978,1,0,0:0:0:0:
128,248,27185,2,0,P|176:272|216:304,1,104.500003189087
296,304,27806,2,0,P|352:264|400:256,1,104.500003189087,8|0,0:0|0:0,0:0:0:0:
440,192,28426,6,0,L|432:136,1,52.2500015945435
352,144,28840,2,0,L|344:72,2,52.2500015945435
352,144,29461,6,0,P|296:160|240:152,1,104.500003189087,0|4,0:0|0:1,0:0:0:0:
200,96,30082,1,0,0:0:0:0:
120,104,30288,2,0,L|48:104,1,52.2500015945435
24,160,30702,2,8,P|8:200|40:272,1,104.500003189087,0|8,0:0|0:0,0:0:0:0:
88,208,31530,5,2,0:0:0:0:
200,296,31840,1,2,0:0:0:0:
304,200,32150,1,2,0:0:0:0:
232,96,32564,2,0,L|296:96,1,52.2500015945435,2|10,0:0|0:0,0:0:0:0:
432,144,33185,6,0,B|432:176|456:200|456:200|448:240,2,78.3750023918153,2|2|2,0:0|0:0|0:0,0:0:0:0:
400,80,34013,1,0,0:0:0:0:
336,56,34219,1,0,0:0:0:0:
264,64,34426,2,8,P|192:48|160:64,1,104.500003189087,8|2,0:0|0:0,0:0:0:0:
104,96,35150,1,2,0:0:0:0:
152,192,35461,1,2,0:0:0:0:
272,216,35875,6,0,P|288:272|344:312,1,104.500003189087
352,192,36495,2,0,P|336:136|312:104,2,78.3750023918153,2|2|2,0:0|0:0|0:0,0:0:0:0:
416,296,37530,2,0,L|464:304,2,26.1250007972718,0|0|8,0:0|0:0|0:0,0:0:0:0:
312,288,38150,5,2,0:0:0:0:
192,336,38461,1,2,0:0:0:0:
208,200,38771,1,2,0:0:0:0:
80,264,39185,6,0,L|64:192,1,52.2500015945435,0|8,0:0|0:0,0:0:0:0:
48,144,39599,1,0,0:0:0:0:
88,88,39806,2,0,P|168:48|288:64,1,209.000006378174
192,176,41047,6,0,P|232:208|288:216,2,104.500003189087,8|0|0,0:0|0:0|0:0,0:0:0:0:
280,64,42288,2,0,P|336:72|376:104,1,104.500003189087,0|8,0:0|0:0,0:0:0:0:
424,152,42909,1,0,0:0:0:0:
416,224,43116,6,0,P|408:272|280:320,1,190,4|8,0:1|0:0,0:0:0:0:
160,264,43944,2,0,P|248:224|272:120,1,190,0|8,0:0|0:0,0:0:0:0:
216,64,44771,5,0,0:0:0:0:
144,128,44978,1,0,0:0:0:0:
64,72,45185,1,8,0:0:0:0:
16,160,45392,1,0,0:0:0:0:
56,256,45599,1,0,0:0:0:0:
160,264,46013,6,0,P|200:152|272:128,2,190,4|0|8,0:1|0:0|0:0,0:0:0:0:
216,296,47047,1,0,0:0:0:0:
272,328,47254,1,0,0:0:0:0:
320,344,47461,2,0,L|376:256,1,95,0|8,0:0|0:0,0:0:0:0:
344,176,47875,2,0,L|272:288,1,95,0|2,0:0|0:0,0:0:0:0:
232,200,48288,5,0,0:0:0:0:
184,232,48495,1,8,0:0:0:0:
144,192,48702,1,0,0:0:0:0:
96,224,48909,1,0,0:0:0:0:
32,112,49323,6,0,P|96:56|232:56,1,190,8|4,0:0|0:1,0:0:0:0:
320,48,50150,2,0,P|368:56|416:96,2,95,8|0|0,0:0|0:0|0:0,0:0:0:0:
264,96,50771,1,0,0:0:0:0:
224,160,50978,1,8,0:0:0:0:
312,280,51392,6,0,P|368:272|408:232,2,95,0|0|8,0:0|0:0|0:0,0:0:0:0:
264,224,52013,1,0,0:0:0:0:
224,160,52219,1,0,0:0:0:0:
256,192,52633,12,0,54702,0:0:0:0:
160,32,55116,6,0,L|56:80,1,95,0|8,0:0|0:0,0:0:0:0:
144,120,55530,2,0,L|240:72,1,95
272,56,55840,1,8,0:3:0:0:
280,64,55944,1,8,0:3:0:0:
280,64,56047,1,8,0:3:0:0:
400,56,56357,22,0,P|320:136|240:152,1,190,4|8,0:1|0:0,0:0:0:0:
208,88,56978,1,0,0:0:0:0:
160,32,57185,2,0,P|93:49|40:172,1,190,0|8,0:0|0:0,0:0:0:0:
104,192,57806,1,0,0:0:0:0:
40,248,58013,6,0,P|64:312|192:352,1,190,4|8,0:1|0:0,0:0:0:0:
224,296,58633,1,0,0:0:0:0:
280,352,58840,2,0,P|328:344|376:304,2,95,0|0|8,0:0|0:0|0:0,0:0:0:0:
304,264,59461,5,0,0:0:0:0:
392,224,59668,2,0,B|392:144|392:88|392:88|336:48,1,190,4|8,0:1|0:0,0:0:0:0:
256,56,60288,2,0,L|152:56,2,95
296,128,60909,1,8,0:0:0:0:
248,176,61116,5,0,0:0:0:0:
192,216,61323,1,4,0:1:0:0:
136,256,61530,1,0,0:0:0:0:
72,296,61737,2,0,P|56:240|88:192,1,95,8|0,0:0|0:0,0:0:0:0:
136,160,62150,2,0,P|144:96|120:48,2,95,0|0|8,0:0|0:0|0:0,0:0:0:0:
224,56,62978,6,4,P|312:32|432:64,1,190,4|8,0:1|0:2,0:1:0:0:
392,145,63599,1,0,0:0:0:0:
464,104,63806,2,0,P|504:168|480:280,1,190,0|8,0:0|0:0,0:0:0:0:
408,320,64426,5,0,0:0:0:0:
328,288,64633,2,0,P|296:208|336:104,2,190,4|8|0,0:1|0:0|0:0,0:0:0:0:
408,320,65668,1,0,0:0:0:0:
400,240,65875,2,0,L|392:136,2,95,8|0|4,0:0|0:0|0:1,0:0:0:0:
272,288,66702,5,8,0:0:0:0:
144,224,67116,1,0,0:0:0:0:
96,168,67323,1,0,0:0:0:0:
128,104,67530,1,8,0:0:0:0:
216,112,67944,5,0,0:0:0:0:
344,72,68150,1,0,0:0:0:0:
272,192,68357,1,8,0:0:0:0:
256,40,68564,1,0,0:0:0:0:
360,168,68771,1,0,0:0:0:0:
112,176,69185,5,8,0:3:0:0:
136,176,69288,1,8,0:3:0:0:
160,176,69392,1,8,0:3:0:0:
184,176,69495,1,8,0:3:0:0:
207,176,69599,22,0,P|327:248|312:312,1,190,4|8,0:1|0:0,0:0:0:0:
248,256,70219,1,0,0:0:0:0:
224,336,70426,1,0,0:0:0:0:
144,312,70633,2,0,L|72:224,1,95,0|8,0:0|0:0,0:0:0:0:
40,184,71047,1,0,0:0:0:0:
40,184,71254,2,0,P|40:96|128:48,2,190,0|8|0,0:0|0:0|0:0,0:0:0:0:
112,224,72288,5,0,0:0:0:0:
184,248,72495,1,8,0:0:0:0:
176,168,72702,1,0,0:0:0:0:
256,120,72909,6,0,P|288:216|392:248,1,190,4|8,0:1|0:0,0:0:0:0:
432,224,73530,1,0,0:0:0:0:
472,160,73737,2,0,P|432:80|336:48,1,190,0|8,0:1|0:0,0:0:0:0:
168,48,74564,6,0,L|272:48,2,95,0|0|8,0:0|0:0|0:0,0:0:0:0:
112,104,75185,1,0,0:0:0:0:
152,168,75392,1,0,0:0:0:0:
128,280,75806,38,0,B|200:280|200:280|248:248|248:248|336:248,1,190,8|4,0:0|0:1,0:0:0:0:
368,216,76426,1,0,0:0:0:0:
320,168,76633,22,0,B|248:168|248:168|200:144|200:144|112:144,1,190,8|0,0:0|0:1,0:0:0:0:
88,88,77254,1,0,0:0:0:0:
152,56,77461,38,0,P|240:32|336:56,2,190,8|4|8,0:0|0:1|0:0,0:0:0:0:
88,88,78495,1,0,0:0:0:0:
135,144,78702,1,0,0:0:0:0:
160,280,79116,37,8,0:0:0:0:
240,160,79530,1,4,0:1:0:0:
336,264,79944,2,0,L|408:344,2,95,8|0|0,0:0|0:0|0:0,0:0:0:0:
240,160,80771,1,8,0:0:0:0:
256,192,81185,12,0,82840,0:0:0:0:
120,88,83150,38,0,L|120:136,1,30.8749985866547,0|8,0:0|0:0,0:0:0:0:
120,192,83461,2,0,L|176:224,1,61.7499971733095
232,176,83875,2,0,L|296:208,1,61.7499971733095,0|8,0:0|0:0,0:0:0:0:
400,256,84495,5,0,0:0:0:0:
440,200,84702,1,0,0:0:0:0:
392,152,84909,1,0,0:0:0:0:
304,80,85323,2,0,P|248:56|176:72,2,123.499994346619,0|8|4,0:0|0:0|0:1,0:0:0:0:
264,144,86461,6,0,L|240:168,1,30.8749985866547,0|8,0:0|0:0,0:0:0:0:
168,208,86771,1,0,0:0:0:0:
184,288,86978,2,0,P|256:312|304:312,1,123.499994346619,0|8,0:0|0:0,0:0:0:0:
352,224,87806,2,0,P|376:144|360:88,1,123.499994346619,0|8,0:0|0:0,0:0:0:0:
208,96,88633,37,10,0:0:0:0:
144,208,88840,1,10,0:0:0:0:
288,192,89047,1,10,0:0:0:0:
