osu file format v14

[General]
AudioFilename: audio.mp3
AudioLeadIn: 0
PreviewTime: 243620
Countdown: 0
SampleSet: Soft
StackLeniency: 0.5
Mode: 0
LetterboxInBreaks: 0
WidescreenStoryboard: 0

[Editor]
Bookmarks: 44075,81893,125529,174984,218620,244802,294257
DistanceSpacing: 1
BeatDivisor: 4
GridSize: 4
TimelineZoom: 1.9

[Metadata]
Title:Watashitachi no Story
TitleUnicode:わたしたちのストーリー
Artist:PPP
ArtistUnicode:PPP
Creator:God Haachama
Version:Dreaming Sky
Source:けものフレンズ
Tags:koldnoodl zekk kemono friends furenzu kemofure japanese pop jpop j-pop idol vtuber virtual youtuber kemov ペパプ pepapu penguin PENGUINS Performance Project Royal Emperor Gentoo Rockhopper Humboldt penguin japari cafe café café2 2 two ペパプ・イン・ザ・スカイ! in the sky! 佐々木未来 Mikoi Sasaki 根本流風 Nemoto Ruka 田村響華 Tamura Kyouka 相羽あいな Aina Aiba 築田行子 Chikuta Ikuko gen gean rocker hululu princess our 三矢禅晃 vaporfly red crewmate
BeatmapID:3638569
BeatmapSetID:1776731

[Difficulty]
HPDrainRate:5
CircleSize:4.4
OverallDifficulty:8.8
ApproachRate:9.2
SliderMultiplier:1.6
SliderTickRate:1

[Events]
//Background and Video events
0,0,"86561583_p0.jpg",0,0
//Break Periods
//Storyboard Layer 0 (Background)
//Storyboard Layer 1 (Fail)
//Storyboard Layer 2 (Pass)
//Storyboard Layer 3 (Foreground)
//Storyboard Layer 4 (Overlay)
//Storyboard Sound Samples

[TimingPoints]
439,363.636363636364,4,2,1,60,1,0
439,-100,4,2,1,60,0,0
2620,-142.857142857143,4,2,1,60,0,0
2893,-142.857142857143,4,2,1,5,0,0
2984,-142.857142857143,4,2,1,60,0,0
3257,-142.857142857143,4,2,1,5,0,0
3348,-111.111111111111,4,2,1,70,0,0
5439,-111.111111111111,4,2,1,5,0,0
5529,-111.111111111111,4,2,1,70,0,0
8348,-111.111111111111,4,2,1,5,0,0
8439,-111.111111111111,4,2,1,70,0,0
8620,-100,4,2,1,70,0,0
8893,-100,4,2,2,70,0,0
8984,-100,4,2,3,70,0,0
9075,-100,4,2,4,70,0,0
9166,-90.9090909090909,4,2,1,75,0,0
9439,-90.9090909090909,4,2,1,5,0,0
9529,-90.9090909090909,4,2,1,75,0,0
10348,-90.9090909090909,4,2,1,5,0,0
10439,-90.9090909090909,4,2,1,75,0,0
15257,-90.9090909090909,4,2,1,5,0,0
15348,-90.9090909090909,4,2,1,75,0,0
17802,-90.9090909090909,4,2,1,5,0,0
17893,-90.9090909090909,4,2,1,75,0,0
20711,-90.9090909090909,4,2,1,5,0,0
20802,-125,4,2,1,60,0,0
23984,-125,4,2,1,5,0,0
24075,-125,4,2,1,60,0,0
24893,-125,4,2,1,5,0,0
24984,-125,4,2,1,60,0,0
26529,-125,4,2,1,5,0,0
26620,-125,4,2,1,60,0,0
29802,-125,4,2,1,5,0,0
29893,-125,4,2,1,60,0,0
30711,-125,4,2,1,5,0,0
30795,-125,4,2,1,5,0,0
30802,-125,4,2,1,60,0,0
32348,-125,4,2,1,5,0,0
32439,-125,4,2,1,60,0,0
35620,-125,4,2,1,5,0,0
35711,-125,4,2,1,60,0,0
36348,-125,4,2,1,5,0,0
36439,-125,4,2,1,60,0,0
41439,-125,4,2,1,5,0,0
41529,-125,4,2,1,60,0,0
42166,-125,4,2,1,5,0,0
42257,-125,4,2,1,60,0,0
44075,-117.647058823529,4,2,1,65,0,0
44439,-90.9090909090909,4,2,1,65,0,0
45166,-111.111111111111,4,2,1,65,0,0
52711,-111.111111111111,4,2,1,5,0,0
52802,-111.111111111111,4,2,1,65,0,0
54529,-111.111111111111,4,2,1,5,0,0
54620,-111.111111111111,4,2,1,65,0,0
61075,-111.111111111111,4,2,1,5,0,0
61166,-111.111111111111,4,2,1,65,0,0
63257,-111.111111111111,4,2,1,5,0,0
63348,-111.111111111111,4,2,1,65,0,0
67348,-125,4,2,1,50,0,0
75893,-105.263157894737,4,2,1,65,0,0
81893,-86.9565217391306,4,2,1,80,0,1
83620,-86.9565217391306,4,2,1,5,0,1
83711,-86.9565217391306,4,2,1,80,0,1
87257,-86.9565217391306,4,2,1,5,0,1
87348,-86.9565217391306,4,2,1,80,0,1
93711,-86.9565217391306,4,2,1,5,0,1
93802,-86.9565217391306,4,2,1,80,0,1
93984,-86.9565217391306,4,2,1,5,0,1
94075,-86.9565217391306,4,2,1,80,0,1
94439,-86.9565217391306,4,2,1,5,0,1
94529,-86.9565217391306,4,2,1,80,0,1
94711,-86.9565217391306,4,2,1,5,0,1
94802,-86.9565217391306,4,2,1,80,0,1
95257,-86.9565217391306,4,2,1,5,0,1
95348,-86.9565217391306,4,2,1,80,0,1
96620,-86.9565217391306,4,2,1,5,0,1
96711,-86.9565217391306,4,2,1,80,0,1
96893,-86.9565217391306,4,2,1,5,0,1
96984,-86.9565217391306,4,2,1,80,0,1
97348,-86.9565217391306,4,2,1,5,0,1
97439,-86.9565217391306,4,2,1,80,0,1
97620,-86.9565217391306,4,2,1,5,0,1
97711,-86.9565217391306,4,2,1,80,0,1
98893,-86.9565217391306,4,2,1,5,0,1
98984,-86.9565217391306,4,2,1,80,0,1
99620,-86.9565217391306,4,2,1,5,0,1
99711,-86.9565217391306,4,2,1,80,0,1
101075,-86.9565217391306,4,2,1,5,0,1
101166,-86.9565217391306,4,2,1,80,0,1
104439,-86.9565217391306,4,2,2,80,0,1
104529,-86.9565217391306,4,2,3,80,0,1
104620,-86.9565217391306,4,2,4,80,0,1
104802,-86.9565217391306,4,2,1,80,0,1
106893,-86.9565217391306,4,2,1,5,0,1
106984,-86.9565217391306,4,2,1,80,0,1
110529,-86.9565217391306,4,2,1,5,0,1
110620,-86.9565217391306,4,2,1,80,0,1
116984,-86.9565217391306,4,2,1,5,0,1
117075,-86.9565217391306,4,2,1,80,0,1
117257,-86.9565217391306,4,2,1,5,0,1
117348,-86.9565217391306,4,2,1,80,0,1
117711,-86.9565217391306,4,2,1,5,0,1
117802,-86.9565217391306,4,2,1,80,0,1
117984,-86.9565217391306,4,2,1,5,0,1
118075,-86.9565217391306,4,2,1,80,0,1
118529,-86.9565217391306,4,2,1,5,0,1
118620,-86.9565217391306,4,2,1,80,0,1
119893,-86.9565217391306,4,2,1,5,0,1
119984,-86.9565217391306,4,2,1,80,0,1
120166,-86.9565217391306,4,2,1,5,0,1
120257,-86.9565217391306,4,2,1,80,0,1
120620,-86.9565217391306,4,2,1,5,0,1
120711,-86.9565217391306,4,2,1,80,0,1
120893,-86.9565217391306,4,2,1,5,0,1
120984,-86.9565217391306,4,2,1,80,0,1
122620,-86.9565217391306,4,2,1,70,0,0
124439,-117.647058823529,4,2,1,70,0,0
124711,-117.647058823529,4,2,1,5,0,0
124802,-133.333333333334,4,2,1,70,0,0
125529,-90.9090909090909,4,2,1,75,0,0
125802,-90.9090909090909,4,2,1,5,0,0
125893,-90.9090909090909,4,2,1,75,0,0
127075,-90.9090909090909,4,2,1,5,0,0
127166,-90.9090909090909,4,2,1,75,0,0
128711,-90.9090909090909,4,2,1,5,0,0
128802,-90.9090909090909,4,2,1,75,0,0
131620,-90.9090909090909,4,2,1,5,0,0
131711,-90.9090909090909,4,2,1,75,0,0
134166,-90.9090909090909,4,2,1,5,0,0
134257,-90.9090909090909,4,2,1,75,0,0
136711,-90.9090909090909,4,2,2,75,0,0
136802,-90.9090909090909,4,2,3,75,0,0
137075,-90.9090909090909,4,2,3,75,0,0
137166,-125,4,2,1,60,0,0
140348,-125,4,2,1,5,0,0
140439,-125,4,2,1,60,0,0
141802,-125,4,2,1,5,0,0
141893,-125,4,2,1,60,0,0
142893,-125,4,2,1,5,0,0
142984,-125,4,2,1,60,0,0
146166,-125,4,2,1,5,0,0
146257,-125,4,2,1,60,0,0
147620,-125,4,2,1,5,0,0
147711,-125,4,2,1,60,0,0
150166,-125,4,2,1,5,0,0
150257,-125,4,2,1,60,0,0
151984,-125,4,2,1,5,0,0
152075,-125,4,2,1,60,0,0
153802,-125,4,2,1,5,0,0
153893,-125,4,2,1,60,0,0
155620,-125,4,2,1,5,0,0
155711,-125,4,2,1,60,0,0
157075,-125,4,2,1,5,0,0
157166,-125,4,2,1,60,0,0
160439,-125,4,2,1,50,0,0
166166,-125,4,2,1,5,0,0
166257,-125,4,2,1,60,0,0
168984,-105.263157894737,4,2,1,60,0,0
174984,-90.9090909090909,4,2,1,80,0,1
181075,-90.9090909090909,4,2,1,5,0,1
181166,-90.9090909090909,4,2,1,80,0,1
197529,-90.9090909090909,4,2,2,80,0,1
197620,-90.9090909090909,4,2,3,80,0,1
197711,-90.9090909090909,4,2,4,80,0,1
197893,-90.9090909090909,4,2,1,80,0,1
198166,-90.9090909090909,4,2,1,5,0,1
198257,-90.9090909090909,4,2,1,80,0,1
200348,-90.9090909090909,4,2,1,5,0,1
200439,-90.9090909090909,4,2,1,80,0,1
201439,-90.9090909090909,4,2,1,5,0,1
201529,-90.9090909090909,4,2,1,80,0,1
215711,-90.9090909090909,4,2,1,70,0,0
218620,-100,4,2,1,70,0,0
230257,-90.9090909090909,4,2,1,75,0,0
230529,-90.9090909090909,4,2,1,5,0,0
230620,-90.9090909090909,4,2,1,75,0,0
239620,-90.9090909090909,4,2,1,5,0,0
239711,-90.9090909090909,4,2,1,75,0,0
243348,-90.9090909090909,4,2,1,70,0,0
243711,-90.9090909090909,4,2,2,65,0,0
243893,-90.9090909090909,4,2,1,65,0,0
244075,-90.9090909090909,4,2,3,60,0,0
244257,-90.9090909090909,4,2,1,60,0,0
244439,-90.9090909090909,4,2,4,55,0,0
244620,-90.9090909090909,4,2,1,55,0,0
244802,-142.857142857143,4,2,5,45,0,0
245348,-142.857142857143,4,2,6,45,0,0
246984,-142.857142857143,4,2,2,45,0,0
247348,-142.857142857143,4,2,5,45,0,0
248257,-142.857142857143,4,2,10,45,0,0
249166,-142.857142857143,4,2,8,45,0,0
249529,-142.857142857143,4,2,5,45,0,0
249893,-142.857142857143,4,2,9,45,0,0
250257,-142.857142857143,4,2,2,45,0,0
250620,-142.857142857143,4,2,5,45,0,0
251166,-142.857142857143,4,2,7,45,0,0
252075,-142.857142857143,4,2,7,50,0,0
252439,-142.857142857143,4,2,7,55,0,0
252802,-142.857142857143,4,2,2,60,0,0
253166,-142.857142857143,4,2,5,65,0,0
253529,-142.857142857143,4,2,1,70,0,0
253893,-76.9230769230769,4,2,1,70,0,0
254166,-76.9230769230769,4,2,1,5,0,0
254257,-76.9230769230769,4,2,1,70,0,0
254893,-76.9230769230769,4,2,1,5,0,0
254984,-90.9090909090909,4,2,1,70,0,0
255984,-90.9090909090909,4,2,1,5,0,0
256075,-76.9230769230769,4,2,1,70,0,0
256439,-90.9090909090909,4,2,1,80,0,1
265075,-90.9090909090909,4,2,1,5,0,1
265166,-90.9090909090909,4,2,1,80,0,1
267348,-90.9090909090909,4,2,2,80,0,1
267439,-90.9090909090909,4,2,3,80,0,1
267529,-90.9090909090909,4,2,4,80,0,1
267711,-90.9090909090909,4,2,1,80,0,1
268348,-90.9090909090909,4,2,1,5,0,1
268439,-90.9090909090909,4,2,1,80,0,1
270893,-90.9090909090909,4,2,1,5,0,1
270984,-90.9090909090909,4,2,1,80,0,1
271620,-90.9090909090909,4,2,1,5,0,1
271711,-90.9090909090909,4,2,1,80,0,1
274166,-90.9090909090909,4,2,1,5,0,1
274257,-90.9090909090909,4,2,1,80,0,1
279620,-90.9090909090909,4,2,1,5,0,1
279711,-90.9090909090909,4,2,1,80,0,1
285529,-90.9090909090909,4,2,1,70,0,0
287711,-142.857142857143,4,2,1,70,0,0
288439,-90.9090909090909,4,2,1,80,0,1
291348,-90.9090909090909,4,2,1,70,0,0
293439,-90.9090909090909,4,2,1,5,0,0
293529,-142.857142857143,4,2,1,70,0,0
294257,-90.909090909091,4,2,1,75,0,0
294529,-90.909090909091,4,2,1,5,0,0
294620,-90.909090909091,4,2,1,75,0,0
295439,-90.909090909091,4,2,1,5,0,0
295529,-90.909090909091,4,2,1,75,0,0
300348,-90.909090909091,4,2,1,5,0,0
300439,-90.909090909091,4,2,1,75,0,0
302893,-90.909090909091,4,2,1,5,0,0
302984,-90.909090909091,4,2,1,75,0,0
305802,-90.909090909091,4,2,1,5,0,0
305893,-90.909090909091,4,2,1,75,0,0
305984,-90.909090909091,4,2,2,75,0,0
306075,-90.909090909091,4,2,3,75,0,0
306166,-90.909090909091,4,2,4,75,0,0
306257,-90.909090909091,4,2,1,75,0,0

[Colours]
Combo1 : 128,128,255
Combo2 : 255,128,128
Combo3 : 255,255,128
Combo4 : 128,255,128
Combo5 : 128,255,255
Combo6 : 255,151,203

[HitObjects]
256,192,439,12,0,2439,0:0:0:0:
501,320,2620,6,0,P|461:316|421:363,1,83.9999974365235,2|0,0:0|0:0,0:0:0:0:
354,315,2984,2,0,P|328:280|342:226,1,83.9999974365235,2|0,0:0|0:0,0:0:0:0:
379,178,3348,5,6,1:2:0:0:
232,304,3529,2,0,P|196:297|161:291,1,71.9999978027344,2|8,1:2|0:0,0:0:0:0:
379,178,3893,2,0,P|414:184|449:190,1,71.9999978027344,2|0,1:2|0:0,0:0:0:0:
266,56,4257,2,0,P|272:91|278:126,1,71.9999978027344,2|8,1:2|0:0,0:0:0:0:
407,0,4620,1,2,1:2:0:0:
278,126,5166,6,0,P|236:94|161:123,1,107.999996704102,4|0,1:2|0:0,0:0:0:0:
114,64,5529,2,0,B|83:120|128:180|144:149|186:218|141:282,1,215.999993408203,2|0,0:0|0:0,0:0:0:0:
278,126,6257,1,6,1:2:0:0:
59,294,7529,5,8,0:3:0:0:
59,294,7620,1,8,0:3:0:0:
59,294,7711,2,0,P|54:258|46:223,1,71.9999978027344,2|8,1:2|0:3,0:0:0:0:
218,333,8075,2,0,P|266:295|331:318,1,107.999996704102,12|0,0:0|0:0,0:0:0:0:
309,300,8439,1,2,0:0:0:0:
452,252,8620,5,8,0:0:0:0:
452,252,8711,1,8,0:0:0:0:
452,252,8802,2,0,L|445:291,1,40,8|8,0:3|0:3,0:0:0:0:
357,187,8984,2,0,L|364:226,1,40,8|8,0:3|0:3,0:0:0:0:
512,78,9166,6,0,P|475:119|389:106,1,132.00000402832,6|0,1:2|0:0,0:0:0:0:
330,86,9529,2,0,P|322:42|314:0,1,88.000002685547,10|0,0:0|0:0,0:0:0:0:
418,40,9893,1,2,1:2:0:0:
256,135,10075,2,0,P|191:102|126:119,1,132.00000402832,2|0,0:0|0:0,0:0:0:0:
74,159,10439,6,0,P|56:109|71:69,1,88.000002685547,2|0,0:0|1:2,0:0:0:0:
183,199,10802,2,0,P|174:242|167:285,1,88.000002685547,2|8,0:0|0:0,0:0:0:0:
48,346,11166,2,0,P|41:302|32:259,1,88.000002685547,2|0,0:0|1:2,0:0:0:0:
224,357,11529,2,0,P|186:377|142:374,1,88.000002685547,2|8,0:0|0:0,0:0:0:0:
298,189,11893,1,2,0:0:0:0:
405,302,12075,6,0,P|361:292|318:286,1,88.000002685547,4|0,1:2|0:0,0:0:0:0:
497,180,12439,1,10,0:0:0:0:
385,99,12620,2,0,P|394:142|400:185,1,88.000002685547,2|0,0:0|1:2,0:0:0:0:
277,65,12984,1,0,0:0:0:0:
447,10,13166,1,8,0:0:0:0:
298,189,13348,6,0,B|187:169|187:169|149:199|163:238,1,176.000005371094,6|2,0:0|0:0,0:0:0:0:
0,116,13893,1,10,0:0:0:0:
110,25,14075,2,0,P|101:68|94:111,1,88.000002685547,2|0,0:0|1:2,0:0:0:0:
53,285,14439,2,0,P|31:247|34:204,1,88.000002685547,2|8,0:0|0:0,0:0:0:0:
218,75,14802,5,10,0:0:0:0:
218,75,14893,1,8,0:0:0:0:
218,75,14984,2,0,P|282:87|347:97,1,132.00000402832,4|0,1:2|0:0,0:0:0:0:
405,153,15348,2,0,B|435:120|435:120|425:77,1,88.000002685547,10|0,0:0|0:0,0:0:0:0:
298,189,15711,1,2,1:2:0:0:
426,267,15893,2,0,P|468:257|512:251,1,88.000002685547,2|8,0:0|0:0,0:0:0:0:
327,369,16257,6,0,P|280:343|234:351,1,88.000002685547,2|0,0:0|1:2,0:0:0:0:
82,259,16620,2,0,P|91:301|97:345,1,88.000002685547,2|8,0:0|0:0,0:0:0:0:
200,178,16984,2,0,P|190:220|184:264,1,88.000002685547,2|0,0:0|1:2,0:0:0:0:
102,150,17348,1,2,1:2:0:0:
283,253,17529,2,0,P|347:257|394:213,1,132.00000402832,12|0,0:0|0:0,0:0:0:0:
416,138,17893,5,12,0:0:0:0:
327,369,18075,1,0,1:2:0:0:
414,132,18257,1,2,1:2:0:0:
511,270,18439,5,10,0:0:0:0:
312,167,18620,1,0,1:2:0:0:
506,70,18802,1,2,1:2:0:0:
424,320,18984,1,8,0:3:0:0:
241,95,19166,6,0,B|206:56|159:75|159:75|140:124|75:133,1,176.000005371094,6|8,1:2|0:3,0:0:0:0:
81,47,19620,1,8,0:3:0:0:
81,47,19711,1,8,0:0:0:0:
193,170,19893,2,0,P|189:192|187:214,1,44.0000013427735,0|0,1:2|1:2,0:0:0:0:
137,290,20075,1,8,0:0:0:0:
137,290,20166,1,8,0:0:0:0:
137,290,20257,1,8,0:3:0:0:
137,290,20348,1,8,0:3:0:0:
137,290,20439,2,0,P|179:259|263:277,1,132.00000402832,10|0,0:3|0:0,0:0:0:0:
312,326,20802,6,0,P|375:336|437:348,2,128,6|8|0,1:2|0:0|1:2,0:0:0:0:
385,165,21711,1,0,0:0:0:0:
472,241,21893,2,0,P|440:245|409:252,1,64,10|0,0:0|0:0,0:0:0:0:
315,81,22257,6,0,P|346:76|377:69,1,64,2|0,1:2|0:0,0:0:0:0:
255,194,22620,2,0,P|223:186|192:182,1,64,10|0,0:0|0:0,0:0:0:0:
221,39,22984,6,0,P|225:70|232:101,1,64,2|0,1:2|0:0,0:0:0:0:
115,230,23348,2,0,P|111:199|104:168,1,64,10|0,0:0|0:0,0:0:0:0:
308,325,23711,6,0,P|269:297|223:302,1,96,2|0,1:2|0:0,0:0:0:0:
173,369,24075,2,0,P|204:373|235:380,1,64,10|0,0:0|0:0,0:0:0:0:
115,230,24439,5,2,1:2:0:0:
8,331,24620,2,0,P|55:321|102:314,1,96,2|0,0:0|0:0,0:0:0:0:
102,314,24984,1,2,0:0:0:0:
210,212,25166,6,0,P|213:180|221:149,1,64,0|0,1:2|0:0,0:0:0:0:
150,47,25529,2,0,P|135:74|137:105,1,64,8|0,0:0|0:0,0:0:0:0:
306,190,25893,2,0,P|336:181|368:177,1,64,0|0,1:2|0:0,0:0:0:0:
488,283,26257,2,0,P|441:293|395:255,1,96,10|0,0:0|0:0,0:0:0:0:
342,320,26620,6,0,P|296:314|241:382,2,128,6|8|0,1:2|0:0|1:2,0:0:0:0:
461,192,27529,1,0,0:0:0:0:
357,114,27711,2,0,L|368:177,1,64,10|0,0:0|0:0,0:0:0:0:
424,45,28075,6,0,P|455:52|487:57,1,64,2|0,1:2|0:0,0:0:0:0:
269,162,28439,2,0,P|237:155|205:150,1,64,10|0,0:0|0:0,0:0:0:0:
54,87,28802,6,0,P|81:71|113:74,1,64,0|0,1:2|0:0,0:0:0:0:
144,249,29166,2,0,P|116:264|84:261,1,64,10|0,0:0|0:0,0:0:0:0:
269,162,29529,6,0,L|363:178,1,96,2|0,1:2|0:0,0:0:0:0:
431,224,29893,2,0,P|444:195|442:164,1,64,10|0,0:0|0:0,0:0:0:0:
286,265,30257,1,2,1:2:0:0:
386,380,30439,2,0,P|377:332|369:285,1,96,2|0,0:0|0:0,0:0:0:0:
369,285,30802,1,2,0:0:0:0:
203,352,30984,6,0,P|234:356|265:363,1,64,0|0,1:2|0:0,0:0:0:0:
100,275,31348,2,0,P|68:281|37:286,1,64,8|0,0:0|0:0,0:0:0:0:
208,169,31711,2,0,P|201:200|196:231,1,64,0|0,1:2|0:0,0:0:0:0:
137,41,32075,2,0,P|121:85|140:127,1,96,10|0,0:0|0:0,0:0:0:0:
208,169,32439,6,0,P|262:157|334:146,2,128,6|8|0,1:2|0:0|1:2,0:0:0:0:
289,66,33348,1,0,0:0:0:0:
371,255,33529,2,0,P|339:248|308:243,1,64,10|0,0:0|0:0,0:0:0:0:
149,358,33893,6,0,P|181:351|212:346,1,64,2|0,1:2|0:0,0:0:0:0:
88,241,34257,2,0,P|119:247|150:252,1,64,10|0,0:0|0:0,0:0:0:0:
114,98,34620,6,0,P|118:129|125:160,1,64,2|0,1:2|0:0,0:0:0:0:
12,295,34984,2,0,P|7:263|0:232,1,64,10|0,0:0|0:0,0:0:0:0:
125,160,35348,6,0,P|170:149|212:170,1,96,2|0,1:2|0:0,0:0:0:0:
289,147,35711,2,0,P|304:110|300:78,1,64,10|0,0:0|0:0,0:0:0:0:
355,217,36075,6,0,P|401:220|441:194,1,96,2|0,1:2|0:0,0:0:0:0:
441,194,36439,1,10,0:0:0:0:
302,86,36620,1,2,0:0:0:0:
423,39,36802,6,0,P|416:69|411:101,1,64,0|0,1:2|0:0,0:0:0:0:
292,230,37166,2,0,P|323:221|355:217,1,64,8|0,0:0|0:0,0:0:0:0:
478,370,37529,2,0,P|448:362|416:357,1,64,0|0,1:2|0:0,0:0:0:0:
355,217,37893,1,10,0:0:0:0:
482,278,38075,1,2,0:0:0:0:
313,377,38257,6,0,P|268:344|186:358,2,128,6|8|0,1:2|0:0|1:2,0:0:0:0:
171,255,39166,1,0,0:0:0:0:
249,159,39348,2,0,P|253:190|261:221,1,64,10|0,0:0|0:0,0:0:0:0:
90,323,39711,6,0,P|85:291|77:260,1,64,2|0,1:2|0:0,0:0:0:0:
167,103,40075,2,0,P|159:133|154:165,1,64,10|0,0:0|0:0,0:0:0:0:
104,32,40439,6,0,P|74:42|42:43,1,64,2|0,1:2|0:0,0:0:0:0:
249,159,40802,2,0,P|279:148|311:147,1,64,10|0,0:0|0:0,0:0:0:0:
473,40,41166,6,0,P|463:87|456:134,1,96,6|0,1:2|0:0,0:0:0:0:
456,134,41529,1,10,0:0:0:0:
508,294,41711,1,2,1:2:0:0:
328,248,41893,6,0,P|375:242|422:231,1,96,0|0,1:2|0:0,0:0:0:0:
422,231,42257,1,8,0:0:0:0:
311,147,42439,1,0,1:2:0:0:
233,327,42620,1,0,1:2:0:0:
328,248,42802,5,2,0:0:0:0:
153,165,42984,1,10,0:0:0:0:
377,83,43166,1,2,0:0:0:0:
202,0,43348,5,2,1:2:0:0:
202,0,43529,1,2,0:0:0:0:
230,234,43711,1,10,0:0:0:0:
26,120,43893,1,2,0:0:0:0:
297,136,44075,6,0,P|262:145|208:154,1,68.0000012969971,6|0,1:2|0:0,0:0:0:0:
24,333,44439,2,0,B|54:299|110:305|110:305|141:344|194:340,1,176.000005371094,8|0,0:0|1:2,0:0:0:0:
329,301,44984,1,0,0:0:0:0:
253,370,45166,2,0,P|259:334|231:279,1,71.9999978027344,10|0,0:0|0:0,0:0:0:0:
401,227,45529,6,0,L|317:209,1,71.9999978027344,2|0,1:2|0:0,0:0:0:0:
101,254,45893,2,0,L|185:272,1,71.9999978027344,8|0,0:0|0:0,0:0:0:0:
222,220,46166,1,2,0:0:0:0:
210,208,46257,2,0,P|204:172|232:117,1,71.9999978027344,2|0,1:2|0:0,0:0:0:0:
400,45,46620,2,0,P|406:81|378:136,1,71.9999978027344,10|0,0:0|0:0,0:0:0:0:
214,44,46984,6,0,P|149:60|56:72,2,143.999995605469,2|10|2,1:2|0:0|1:2,0:0:0:0:
82,169,47893,1,2,0:0:0:0:
205,273,48075,2,0,P|169:265|134:260,1,71.9999978027344,8|2,0:0|0:0,0:0:0:0:
275,150,48439,6,0,B|364:139|340:198|437:178,1,143.999995605469,2|10,1:2|0:0,0:0:0:0:
511,163,48984,1,0,0:0:0:0:
409,312,49166,1,2,1:2:0:0:
345,122,49348,1,0,0:0:0:0:
242,312,49529,2,0,P|278:302|339:298,1,71.9999978027344,10|0,0:0|0:0,0:0:0:0:
154,255,49893,6,0,P|99:291|18:276,1,143.999995605469,6|8,1:2|0:0,0:0:0:0:
75,194,50439,1,0,0:0:0:0:
228,296,50620,2,0,P|233:261|253:200,1,71.9999978027344,0|0,1:2|0:0,0:0:0:0:
156,48,50984,2,0,P|151:83|131:144,1,71.9999978027344,10|0,0:0|0:0,0:0:0:0:
278,107,51348,6,0,B|355:117|349:70|429:80,1,143.999995605469,2|10,1:2|0:0,0:0:0:0:
512,150,51893,1,0,0:0:0:0:
412,204,52075,2,0,P|400:237|403:293,1,71.9999978027344,2|0,1:2|0:0,0:0:0:0:
512,384,52439,2,0,L|390:360,1,107.999996704102,10|0,0:0|0:0,0:0:0:0:
342,319,52802,6,0,B|299:339|299:339|254:318|198:324,1,143.999995605469,0|10,1:2|0:0,0:0:0:0:
88,360,53348,1,0,0:0:0:0:
15,275,53529,2,0,P|6:237|33:192,1,71.9999978027344,2|2,1:2|0:0,0:0:0:0:
167,51,53893,2,0,P|170:90|182:143,1,71.9999978027344,8|2,0:0|0:0,0:0:0:0:
399,249,54257,6,0,P|355:209|281:218,1,107.999996704102,2|0,1:2|0:0,0:0:0:0:
243,236,54620,2,0,P|202:240|159:252,1,71.9999978027344,10|0,0:0|0:0,0:0:0:0:
0,101,54984,2,0,P|41:97|84:85,1,71.9999978027344,2|0,1:2|0:0,0:0:0:0:
214,155,55348,1,10,0:0:0:0:
274,31,55529,1,0,0:0:0:0:
108,185,55711,6,0,P|88:234|132:315,1,143.999995605469,6|8,1:2|0:0,0:0:0:0:
301,281,56257,1,0,0:0:0:0:
250,371,56439,1,0,1:2:0:0:
184,231,56620,1,0,0:0:0:0:
412,366,56802,2,0,P|375:356|328:351,1,71.9999978027344,10|0,0:0|0:0,0:0:0:0:
455,158,57166,6,0,P|393:175|297:185,1,143.999995605469,2|10,1:2|0:0,0:0:0:0:
208,120,57711,1,0,0:0:0:0:
224,280,57893,2,0,P|227:241|238:203,1,71.9999978027344,2|0,1:2|0:0,0:0:0:0:
122,36,58257,2,0,P|119:75|108:113,1,71.9999978027344,10|0,0:0|0:0,0:0:0:0:
0,244,58620,6,0,B|80:254|67:212|139:216,1,143.999995605469,2|10,1:2|0:0,0:0:0:0:
323,341,59166,1,2,0:0:0:0:
323,341,59348,2,0,P|288:342|256:326,1,71.9999978027344,0|2,1:0|0:2,0:0:0:0:
0,384,59711,2,0,P|54:344|148:352,1,143.999995605469,10|0,0:0|1:2,0:0:0:0:
283,212,60257,5,0,0:0:0:0:
212,168,60439,2,0,L|201:263,1,71.9999978027344,8|0,0:0|0:0,0:0:0:0:
38,135,60802,2,0,P|32:80|76:25,1,107.999996704102,0|0,1:2|0:0,0:0:0:0:
127,56,61166,2,0,P|166:52|205:43,1,71.9999978027344,10|2,0:0|0:0,0:0:0:0:
406,115,61529,6,0,P|367:119|328:128,1,71.9999978027344,6|0,1:2|0:0,0:0:0:0:
240,227,61893,1,8,0:0:0:0:
256,127,62075,1,0,0:0:0:0:
341,245,62257,5,0,1:2:0:0:
145,201,62439,1,0,0:0:0:0:
251,376,62620,2,0,L|236:291,1,71.9999978027344,10|0,0:0|0:0,0:0:0:0:
39,144,62984,6,0,P|17:199|38:258,1,107.999996704102,2|0,1:2|0:0,0:0:0:0:
91,286,63348,2,0,P|128:278|169:272,1,71.9999978027344,10|0,0:0|0:0,0:0:0:0:
264,182,63711,2,0,L|430:212,1,143.999995605469,2|10,1:2|0:0,0:0:0:0:
488,169,64257,1,0,0:0:0:0:
309,384,64439,6,0,P|305:342|292:293,1,71.9999978027344,6|0,1:2|0:0,0:0:0:0:
331,237,64802,1,10,0:0:0:0:
142,294,64984,2,0,L|48:281,1,71.9999978027344,2|2,0:0|1:2,0:0:0:0:
191,48,65348,1,0,0:0:0:0:
242,238,65529,1,8,0:0:0:0:
351,100,65711,1,8,0:3:0:0:
136,163,65893,5,0,1:2:0:0:
345,258,66075,1,0,1:2:0:0:
103,242,66257,5,8,0:0:0:0:
394,189,66439,1,0,1:2:0:0:
208,361,66620,1,0,1:2:0:0:
249,114,66802,1,0,0:0:0:0:
485,321,66984,5,10,0:0:0:0:
485,321,67166,1,2,0:0:0:0:
411,274,67348,6,0,P|361:298|276:288,1,128,6|0,1:2|0:0,0:0:0:0:
115,370,67893,1,2,1:2:0:0:
66,310,68075,2,0,L|88:173,1,128,10|2,0:0|0:0,0:0:0:0:
0,95,68620,2,0,B|79:107|60:68|147:74,1,128,2|0,1:2|1:2,0:0:0:0:
203,133,69166,2,0,P|239:124|284:118,1,64,0|0,0:0|1:2,0:0:0:0:
434,9,69529,2,0,P|398:18|353:24,1,64,8|0,0:0|0:0,0:0:0:0:
342,85,69802,1,2,0:0:0:0:
338,94,69893,2,0,P|338:130|359:173,1,64,2|2,0:0|0:0,0:0:0:0:
512,288,70257,6,0,L|369:268,1,128,2|0,1:2|0:0,0:0:0:0:
304,332,70802,1,2,1:2:0:0:
247,275,70984,2,0,P|248:240|277:198,1,64,10|2,0:0|0:0,0:0:0:0:
260,214,71348,1,2,0:0:0:0:
154,289,71529,6,0,B|92:293|95:260|10:270,1,128,0|2,1:2|1:2,0:0:0:0:
84,380,72075,2,0,P|115:372|146:368,1,64,2|0,0:0|1:2,0:0:0:0:
36,172,72439,2,0,P|97:190|160:199,1,128,8|2,0:0|1:2,0:0:0:0:
430,40,73166,6,0,P|469:80|453:155,1,128,6|0,1:2|0:0,0:0:0:0:
400,211,73711,1,2,1:2:0:0:
332,155,73893,2,0,P|271:150|190:136,1,128,10|2,0:0|0:0,0:0:0:0:
0,332,74439,6,0,P|68:269|160:281,1,192,2|0,1:2|0:0,0:0:0:0:
229,339,75166,1,0,0:0:0:0:
308,261,75348,2,0,P|312:229|290:187,1,64,8|8,0:0|0:3,0:0:0:0:
234,172,75620,1,8,0:3:0:0:
225,177,75711,1,10,0:3:0:0:
10,109,75893,6,0,B|95:122|80:75|175:89,1,151.999995941162,6|0,1:2|0:0,0:0:0:0:
285,10,76439,2,0,L|270:91,1,75.9999979705811,10|2,0:0|0:0,0:0:0:0:
418,243,76802,2,0,P|431:213|412:152,1,75.9999979705811,0|0,1:2|0:0,0:0:0:0:
238,187,77166,6,0,L|155:202,1,75.9999979705811,10|2,0:0|0:0,0:0:0:0:
60,265,77529,1,0,1:2:0:0:
87,146,77711,1,0,0:0:0:0:
166,317,77893,1,10,0:0:0:0:
0,196,78075,1,2,0:0:0:0:
242,303,78257,6,0,P|288:293|334:289,1,75.9999979705811,0|0,1:2|0:0,0:0:0:0:
240,93,78620,2,0,P|277:101|314:106,1,75.9999979705811,10|2,0:0|0:0,0:0:0:0:
512,183,78984,5,8,0:0:0:0:
360,231,79166,1,0,1:2:0:0:
398,65,79348,1,8,0:0:0:0:
468,279,79529,1,0,1:2:0:0:
264,192,79711,5,8,0:0:0:0:
458,123,79893,1,0,1:2:0:0:
341,314,80075,1,8,0:0:0:0:
261,103,80257,1,8,0:3:0:0:
158,334,80439,6,0,P|196:325|246:318,1,75.9999979705811,4|0,1:2|1:2,0:0:0:0:
358,153,80802,1,10,0:0:0:0:
445,378,80984,1,8,0:0:0:0:
481,77,81166,1,10,0:0:0:0:
306,247,81348,1,8,0:0:0:0:
512,190,81529,2,0,P|481:191|436:172,1,75.9999979705811,10|8,0:0|0:3,0:0:0:0:
206,20,81893,6,0,B|224:54|252:75|252:75|227:123|218:198,1,184.000003509522,6|8,1:2|0:0,0:0:0:0:
35,79,82439,1,2,0:0:0:0:
117,299,82620,2,0,P|162:292|208:286,1,92.0000017547608,2|0,1:2|0:0,0:0:0:0:
377,330,82984,1,8,0:0:0:0:
220,181,83166,1,2,0:0:0:0:
432,78,83348,6,0,P|380:135|296:102,1,138.000002632141,2|0,1:2|0:0,0:0:0:0:
258,58,83711,2,0,P|303:51|348:42,1,92.0000017547608,10|0,0:0|0:0,0:0:0:0:
500,218,84075,5,2,1:2:0:0:
324,129,84257,1,0,0:0:0:0:
512,42,84439,1,10,0:0:0:0:
374,255,84620,5,2,0:0:0:0:
374,255,84711,1,2,0:0:0:0:
374,255,84802,2,0,P|287:211|190:249,1,184.000003509522,6|8,1:2|0:0,0:0:0:0:
31,111,85348,1,2,0:0:0:0:
152,43,85529,2,0,P|142:88|135:133,1,92.0000017547608,2|0,1:2|0:0,0:0:0:0:
23,312,85893,2,0,P|16:266|7:221,1,92.0000017547608,8|0,0:0|0:0,0:0:0:0:
170,356,86257,5,2,1:2:0:0:
272,148,86439,1,0,0:0:0:0:
105,227,86620,1,10,0:0:0:0:
305,344,86802,5,2,0:0:0:0:
305,344,86893,1,2,0:0:0:0:
305,344,86984,2,0,P|363:309|443:335,1,138.000002632141,2|0,1:2|0:0,0:0:0:0:
512,292,87348,2,0,P|503:337|496:382,1,92.0000017547608,10|0,0:0|0:0,0:0:0:0:
403,197,87711,6,0,P|366:136|413:19,1,184.000003509522,6|8,1:2|0:0,0:0:0:0:
493,148,88257,1,0,0:0:0:0:
296,237,88439,2,0,P|251:227|205:221,1,92.0000017547608,2|0,1:2|0:0,0:0:0:0:
259,47,88802,2,0,P|265:92|274:137,1,92.0000017547608,8|0,0:0|0:0,0:0:0:0:
96,288,89166,5,2,1:2:0:0:
183,114,89348,1,0,0:0:0:0:
258,308,89529,1,10,0:0:0:0:
91,204,89711,1,0,0:0:0:0:
274,137,89893,5,2,1:2:0:0:
175,322,90075,1,0,0:0:0:0:
337,198,90257,1,10,0:0:0:0:
183,114,90439,1,0,0:0:0:0:
257,322,90620,6,0,P|301:312|347:306,1,92.0000017547608,6|0,1:2|0:0,0:0:0:0:
409,130,90984,1,8,0:0:0:0:
267,231,91166,1,0,0:0:0:0:
464,338,91348,6,0,P|470:292|479:247,1,92.0000017547608,0|0,1:2|0:0,0:0:0:0:
343,62,91711,1,10,0:0:0:0:
512,138,91893,1,2,0:0:0:0:
267,231,92075,6,0,B|220:209|172:242|189:258|134:286|84:256,1,184.000003509522,4|8,1:2|0:0,0:0:0:0:
164,74,92620,1,0,0:0:0:0:
6,136,92802,2,0,P|51:141|96:152,1,92.0000017547608,2|0,1:2|0:0,0:0:0:0:
27,322,93166,2,0,P|5:281|9:236,1,92.0000017547608,10|0,0:0|0:0,0:0:0:0:
164,74,93529,6,0,P|205:96|250:92,1,92.0000017547608,6|0,1:2|0:0,0:0:0:0:
286,163,93802,2,0,P|330:149|359:114,1,92.0000017547608,2|0,0:0|0:0,0:0:0:0:
367,35,94075,1,2,0:0:0:0:
442,307,94257,6,0,P|403:330|358:323,1,92.0000017547608,2|0,1:2|0:0,0:0:0:0:
345,246,94529,2,0,P|383:222|428:229,1,92.0000017547608,2|0,0:0|0:0,0:0:0:0:
503,256,94802,1,2,0:0:0:0:
261,369,94984,6,0,P|193:354|125:345,1,138.000002632141,6|0,1:2|0:0,0:0:0:0:
56,304,95348,2,0,P|40:243|56:209,1,92.0000017547608,10|2,0:0|0:0,0:0:0:0:
207,109,95711,1,0,1:2:0:0:
27,30,95893,1,0,0:0:0:0:
142,221,96075,1,8,0:0:0:0:
202,4,96257,1,2,0:0:0:0:
347,220,96439,6,0,P|392:225|437:235,1,92.0000017547608,6|0,1:2|0:0,0:0:0:0:
454,151,96711,2,0,P|408:145|363:135,1,92.0000017547608,2|0,0:0|0:0,0:0:0:0:
288,166,96984,1,2,0:0:0:0:
55,237,97166,6,0,P|103:256|152:240,1,92.0000017547608,2|0,1:2|0:0,0:0:0:0:
203,297,97439,2,0,P|251:276|274:230,1,92.0000017547608,2|0,0:0|0:0,0:0:0:0:
288,166,97711,1,2,0:0:0:0:
196,42,97893,6,0,P|191:87|181:132,1,92.0000017547608,6|0,1:2|0:0,0:0:0:0:
282,0,98257,1,10,0:0:0:0:
95,55,98439,1,2,0:0:0:0:
288,166,98620,2,0,B|322:142|357:149|357:149|381:182|432:189,1,138.000002632141,0|0,1:2|0:0,0:0:0:0:
465,242,98984,2,0,P|488:203|484:158,1,92.0000017547608,8|2,0:0|0:0,0:0:0:0:
361,343,99348,6,0,P|308:303|223:317,1,138.000002632141,6|0,1:2|0:0,0:0:0:0:
239,307,99711,1,10,0:0:0:0:
94,220,99893,1,2,0:0:0:0:
143,371,100075,2,0,P|149:325|158:280,1,92.0000017547608,0|0,1:2|0:0,0:0:0:0:
15,159,100439,2,0,P|8:204|0:249,1,92.0000017547608,8|2,0:0|0:0,0:0:0:0:
273,80,100802,6,0,P|240:123|146:123,1,138.000002632141,6|0,1:2|0:0,0:0:0:0:
160,130,101166,1,10,0:0:0:0:
188,40,101348,1,2,0:0:0:0:
345,193,101529,2,0,P|350:147|360:102,1,92.0000017547608,0|0,1:2|0:0,0:0:0:0:
237,231,101893,2,0,P|247:275|252:321,1,92.0000017547608,8|0,0:0|0:0,0:0:0:0:
450,158,102257,5,10,0:0:0:0:
375,375,102439,1,0,1:2:0:0:
447,150,102620,1,2,1:2:0:0:
252,321,102802,5,8,0:0:0:0:
455,245,102984,1,2,1:2:0:0:
261,129,103166,1,0,1:2:0:0:
375,375,103348,5,10,0:0:0:0:
141,222,103529,1,0,1:2:0:0:
395,79,103711,5,2,1:2:0:0:
259,366,103893,1,0,1:2:0:0:
259,366,103984,1,0,1:2:0:0:
259,366,104075,2,0,L|251:320,1,46.0000008773804,8|8,0:0|0:0,0:0:0:0:
345,193,104257,2,0,L|337:238,1,46.0000008773804,8|8,0:3|0:3,0:0:0:0:
134,105,104439,5,8,0:3:0:0:
153,63,104529,1,8,0:3:0:0:
189,35,104620,1,8,0:3:0:0:
233,25,104711,1,8,0:3:0:0:
278,35,104802,1,8,0:0:0:0:
449,238,104984,2,0,P|443:215|441:192,1,46.0000008773804,8|8,0:0|0:0,0:0:0:0:
376,11,105166,6,0,P|362:102|345:192,1,184.000003509522,6|8,1:2|0:0,0:0:0:0:
467,109,105711,1,2,0:0:0:0:
232,25,105893,2,0,P|241:70|248:115,1,92.0000017547608,2|0,1:2|0:0,0:0:0:0:
79,268,106257,1,8,0:0:0:0:
134,105,106439,1,2,0:0:0:0:
257,236,106620,6,0,P|282:287|250:361,1,138.000002632141,2|0,1:2|0:0,0:0:0:0:
178,384,106984,2,0,P|171:338|162:293,1,92.0000017547608,10|0,0:0|0:0,0:0:0:0:
248,115,107348,1,2,1:2:0:0:
54,174,107529,1,0,0:0:0:0:
136,0,107711,1,10,0:0:0:0:
257,236,107893,5,2,0:0:0:0:
257,236,107984,1,2,0:0:0:0:
257,236,108075,2,0,B|300:232|332:193|332:193|387:180|438:224,1,184.000003509522,6|8,1:2|0:0,0:0:0:0:
248,115,108620,1,2,0:0:0:0:
349,374,108802,2,0,P|355:328|364:283,1,92.0000017547608,2|0,1:2|0:0,0:0:0:0:
155,191,109166,2,0,P|164:235|170:281,1,92.0000017547608,8|0,0:0|0:0,0:0:0:0:
95,360,109529,5,2,1:2:0:0:
257,236,109711,1,0,0:0:0:0:
72,161,109893,1,10,0:0:0:0:
231,364,110075,5,2,0:0:0:0:
231,364,110166,1,2,0:0:0:0:
231,364,110257,2,0,P|282:324|363:343,1,138.000002632141,2|0,1:2|0:0,0:0:0:0:
409,279,110620,2,0,P|430:319|427:364,1,92.0000017547608,10|0,0:0|0:0,0:0:0:0:
512,149,110984,6,0,P|421:167|330:180,1,184.000003509522,6|8,1:2|0:0,0:0:0:0:
367,0,111529,1,2,0:0:0:0:
207,67,111711,2,0,P|252:76|297:82,1,92.0000017547608,2|0,1:2|0:0,0:0:0:0:
267,266,112075,2,0,P|221:256|176:250,1,92.0000017547608,8|0,0:0|0:0,0:0:0:0:
330,179,112439,5,2,1:2:0:0:
210,349,112620,1,0,0:0:0:0:
358,286,112802,1,10,0:0:0:0:
202,168,112984,1,0,0:0:0:0:
267,266,113166,5,2,1:2:0:0:
207,67,113348,1,0,0:0:0:0:
99,242,113529,1,10,0:0:0:0:
273,120,113711,1,0,0:0:0:0:
107,19,113893,6,0,P|61:28|16:34,1,92.0000017547608,6|0,1:2|0:0,0:0:0:0:
160,158,114257,1,8,0:0:0:0:
0,281,114439,1,0,0:0:0:0:
68,118,114620,6,0,P|59:163|53:208,1,92.0000017547608,0|0,1:2|0:0,0:0:0:0:
191,352,114984,1,10,0:0:0:0:
160,158,115166,1,2,0:0:0:0:
29,379,115348,6,0,P|71:342|205:364,1,184.000003509522,4|8,1:2|0:0,0:0:0:0:
318,204,115893,1,0,0:0:0:0:
383,318,116075,2,0,P|338:308|292:302,1,92.0000017547608,2|0,1:2|0:0,0:0:0:0:
402,99,116439,2,0,P|357:108|311:114,1,92.0000017547608,10|0,0:0|0:0,0:0:0:0:
97,220,116802,6,0,P|72:182|75:137,1,92.0000017547608,6|0,1:2|0:0,0:0:0:0:
18,72,117075,2,0,P|63:64|108:56,1,92.0000017547608,2|0,0:0|0:0,0:0:0:0:
184,83,117348,1,2,0:0:0:0:
479,117,117529,6,0,B|508:80|508:80|498:36,1,92.0000017547608,2|0,1:2|0:0,0:0:0:0:
421,18,117802,2,0,B|392:55|392:55|401:98,1,92.0000017547608,2|0,0:0|0:0,0:0:0:0:
423,175,118075,1,2,0:0:0:0:
512,384,118257,6,0,P|455:342|364:359,1,138.000002632141,6|0,1:2|0:0,0:0:0:0:
318,286,118620,2,0,P|312:331|302:376,1,92.0000017547608,10|2,0:0|0:0,0:0:0:0:
241,215,118984,1,0,1:2:0:0:
390,344,119166,1,0,0:0:0:0:
204,295,119348,1,8,0:0:0:0:
413,258,119529,1,2,0:0:0:0:
211,384,119711,6,0,P|165:375|120:368,1,92.0000017547608,6|0,1:2|0:0,0:0:0:0:
43,384,119984,2,0,P|18:340|27:295,1,92.0000017547608,2|0,0:0|0:0,0:0:0:0:
63,231,120257,1,2,0:0:0:0:
216,90,120439,6,0,P|206:44|200:0,1,92.0000017547608,0|0,1:2|0:0,0:0:0:0:
122,12,120711,2,0,P|131:57|137:102,1,92.0000017547608,2|0,0:0|0:0,0:0:0:0:
185,169,120984,1,2,0:0:0:0:
435,90,121166,6,0,P|395:112|350:111,1,92.0000017547608,6|0,1:2|0:0,0:0:0:0:
432,0,121529,1,10,0:0:0:0:
512,216,121711,2,0,P|466:206|421:200,1,92.0000017547608,2|0,0:0|1:2,0:0:0:0:
273,329,122075,2,0,L|318:321,1,46.0000008773804,0|0,1:2|1:2,0:0:0:0:
397,311,122257,1,8,0:0:0:0:
293,182,122439,5,10,0:3:0:0:
293,182,122529,1,8,0:3:0:0:
293,182,122620,1,6,1:2:0:0:
171,384,122802,2,0,P|164:338|155:293,1,92.0000017547608,2|8,1:2|0:0,0:0:0:0:
49,126,123166,6,0,P|42:171|33:216,1,92.0000017547608,2|0,1:2|0:0,0:0:0:0:
171,68,123529,1,0,1:2:0:0:
8,12,123711,1,8,0:0:0:0:
156,177,123893,1,0,1:2:0:0:
156,177,124439,6,0,P|208:184|256:143,1,102.000001945496,4|0,1:2|0:0,0:0:0:0:
311,109,124802,2,0,P|266:180|314:255,1,180.000006866455,2|0,0:0|0:0,0:0:0:0:
378,341,125529,6,0,P|386:280|403:190,1,132.00000402832,6|0,1:2|0:0,0:0:0:0:
446,147,125893,2,0,P|475:201|456:255,1,88.000002685547,10|0,0:0|0:0,0:0:0:0:
242,153,126257,1,2,1:2:0:0:
316,55,126439,2,0,P|327:98|337:170,1,88.000002685547,2|8,0:0|0:0,0:0:0:0:
261,305,126802,6,0,P|204:270|125:300,1,132.00000402832,2|0,0:0|0:0,0:0:0:0:
78,326,127166,2,0,P|71:282|61:239,1,88.000002685547,2|8,0:0|0:0,0:0:0:0:
196,95,127529,2,0,P|186:138|179:181,1,88.000002685547,2|0,0:0|1:2,0:0:0:0:
0,163,127893,2,0,P|54:139|111:153,1,88.000002685547,2|8,0:0|0:0,0:0:0:0:
283,218,128257,5,2,0:0:0:0:
283,218,128348,1,2,0:0:0:0:
283,218,128439,2,0,P|329:220|393:151,1,132.00000402832,0|0,1:2|0:0,0:0:0:0:
454,122,128802,2,0,P|441:76|429:22,1,88.000002685547,10|2,0:0|0:0,0:0:0:0:
309,141,129166,1,0,1:2:0:0:
469,208,129348,1,0,0:0:0:0:
345,64,129529,1,8,0:0:0:0:
478,217,129711,6,0,P|463:268|450:325,1,88.000002685547,2|0,0:0|1:2,0:0:0:0:
235,297,130075,1,2,0:0:0:0:
391,215,130257,1,10,0:0:0:0:
353,384,130439,2,0,P|342:341|329:299,1,88.000002685547,2|0,0:0|1:2,0:0:0:0:
171,184,130802,2,0,P|213:194|256:202,1,88.000002685547,2|8,0:0|0:0,0:0:0:0:
176,345,131166,5,10,0:3:0:0:
176,345,131257,1,8,0:3:0:0:
176,345,131348,2,0,P|114:309|47:340,1,132.00000402832,4|0,1:2|0:0,0:0:0:0:
4,282,131711,2,0,P|-9:232|15:188,1,88.000002685547,10|0,0:0|0:0,0:0:0:0:
169,107,132075,1,2,1:2:0:0:
47,37,132257,2,0,P|65:104|74:144,1,88.000002685547,2|8,0:0|0:0,0:0:0:0:
279,117,132620,6,0,P|261:184|252:224,1,88.000002685547,2|0,0:0|1:2,0:0:0:0:
88,222,132984,2,0,B|124:196|124:196|173:207,1,88.000002685547,2|8,0:0|0:0,0:0:0:0:
349,341,133348,2,0,P|338:298|326:255,1,88.000002685547,2|0,0:0|1:2,0:0:0:0:
218,328,133711,1,2,0:0:0:0:
397,160,133893,2,0,P|453:176|458:270,1,132.00000402832,8|0,0:0|0:0,0:0:0:0:
430,308,134257,5,8,0:0:0:0:
257,217,134439,1,0,1:2:0:0:
438,314,134620,1,2,1:2:0:0:
377,81,134802,5,10,0:0:0:0:
326,255,134984,1,0,1:2:0:0:
478,98,135166,1,2,1:2:0:0:
254,26,135348,1,8,0:3:0:0:
353,340,135529,6,0,P|301:293|196:329,1,176.000005371094,6|8,1:2|0:3,0:0:0:0:
200,326,135984,1,8,0:3:0:0:
196,338,136075,1,8,0:0:0:0:
164,187,136257,1,8,0:3:0:0:
5,304,136439,1,8,0:0:0:0:
26,298,136529,1,8,0:0:0:0:
47,292,136620,1,8,0:3:0:0:
68,286,136711,1,8,0:3:0:0:
89,280,136802,2,0,L|67:131,1,132.00000402832,10|0,0:3|0:3,0:0:0:0:
27,81,137166,6,0,P|70:118|147:106,1,128,6|8,1:2|0:0,0:0:0:0:
260,80,137711,1,0,0:0:0:0:
260,80,137893,2,0,P|248:130|240:166,1,64,0|0,1:2|0:0,0:0:0:0:
181,270,138257,2,0,P|169:220|161:184,1,64,10|0,0:0|0:0,0:0:0:0:
301,231,138620,6,0,P|341:240|373:245,1,64,2|0,1:2|0:0,0:0:0:0:
195,354,138984,2,0,P|155:345|123:340,1,64,10|0,0:0|0:0,0:0:0:0:
318,321,139348,6,0,P|311:360|309:395,1,64,2|0,1:2|0:0,0:0:0:0:
461,267,139711,2,0,P|458:235|452:203,1,64,10|0,0:0|0:0,0:0:0:0:
239,243,140075,6,0,P|290:233|349:227,1,96,2|0,1:2|0:0,0:0:0:0:
384,176,140439,2,0,P|386:144|392:112,1,64,10|0,0:0|0:0,0:0:0:0:
462,34,140802,1,2,1:2:0:0:
293,119,140984,2,0,P|290:87|284:55,1,64,2|8,0:0|0:0,0:0:0:0:
369,0,141348,1,2,0:0:0:0:
204,98,141529,6,0,P|145:84|80:76,1,96,2|0,1:2|0:0,0:0:0:0:
51,126,141893,2,0,P|64:172|71:213,1,64,10|0,0:0|0:0,0:0:0:0:
163,247,142257,2,0,P|169:215|179:185,1,64,2|0,1:2|0:0,0:0:0:0:
0,263,142620,2,0,P|-12:299|29:357,1,96,10|0,0:0|0:0,0:0:0:0:
73,384,142984,6,0,P|120:346|210:346,2,128,6|8|0,1:2|0:0|1:2,0:0:0:0:
254,383,143893,1,0,0:0:0:0:
254,383,144075,2,0,P|263:341|265:298,1,64,10|0,0:0|0:0,0:0:0:0:
140,224,144439,6,0,P|181:235|218:237,1,64,2|0,1:2|0:0,0:0:0:0:
338,159,144802,2,0,P|297:148|260:146,1,64,10|0,0:0|0:0,0:0:0:0:
377,357,145166,6,0,P|382:315|393:267,1,64,2|0,1:2|0:0,0:0:0:0:
295,229,145529,2,0,P|290:271|279:319,1,64,10|0,0:0|0:0,0:0:0:0:
481,321,145893,6,0,P|503:280|477:220,1,96,2|0,1:2|0:0,0:0:0:0:
437,185,146257,2,0,P|391:193|355:200,1,64,10|0,0:0|0:0,0:0:0:0:
495,98,146620,1,2,1:2:0:0:
327,38,146802,2,0,P|373:46|409:53,1,64,2|8,0:0|0:0,0:0:0:0:
347,124,147166,1,2,0:0:0:0:
222,0,147348,6,0,P|233:50|247:123,1,96,2|0,1:2|0:0,0:0:0:0:
198,152,147711,2,0,P|191:200|188:231,1,64,10|0,0:0|0:0,0:0:0:0:
53,189,148075,2,0,P|90:180|128:172,1,64,2|0,1:2|0:0,0:0:0:0:
312,276,148439,2,0,P|275:267|237:259,1,64,10|0,0:0|0:0,0:0:0:0:
55,349,148802,6,0,P|122:354|181:303,1,128,6|8,1:2|0:0,0:0:0:0:
263,198,149348,1,0,0:0:0:0:
263,198,149529,2,0,P|255:233|248:269,1,64,0|0,1:2|0:0,0:0:0:0:
324,370,149893,2,0,P|377:358|445:347,1,96,10|0,0:0|0:0,0:0:0:0:
487,374,150257,6,0,P|493:333|501:293,1,64,2|0,1:2|0:0,0:0:0:0:
373,196,150620,2,0,P|367:237|359:277,1,64,10|0,0:0|0:0,0:0:0:0:
512,219,150984,6,0,P|470:228|438:232,1,64,2|0,1:2|0:0,0:0:0:0:
274,303,151348,2,0,P|280:262|288:222,1,64,10|0,0:0|0:0,0:0:0:0:
377,55,151711,6,0,P|410:110|394:149,1,96,2|0,1:2|0:0,0:0:0:0:
333,174,152075,2,0,P|298:166|258:162,1,64,10|0,0:0|0:0,0:0:0:0:
91,108,152439,2,0,P|122:103|153:96,1,64,2|0,1:2|0:0,0:0:0:0:
255,52,152802,1,10,0:0:0:0:
180,185,152984,2,0,P|193:231|200:274,1,64,2|0,0:0|1:2,0:0:0:0:
110,384,153348,5,0,0:0:0:0:
169,332,153529,2,0,P|223:320|263:313,1,96,8|0,0:0|0:0,0:0:0:0:
263,312,153893,1,0,1:2:0:0:
387,258,154075,1,0,0:0:0:0:
357,363,154257,1,10,0:0:0:0:
290,209,154439,1,2,0:0:0:0:
499,269,154620,6,0,P|507:233|445:150,1,128,6|8,1:2|0:0,0:0:0:0:
326,52,155166,1,0,0:0:0:0:
496,63,155348,2,0,P|451:77|380:93,1,96,0|0,1:2|0:0,0:0:0:0:
356,144,155711,2,0,P|367:189|367:224,1,64,10|0,0:0|0:0,0:0:0:0:
215,169,156075,6,0,P|167:161|125:161,1,64,2|0,1:2|0:0,0:0:0:0:
262,60,156439,2,0,P|293:57|325:51,1,64,10|0,0:0|0:0,0:0:0:0:
282,236,156802,2,0,P|271:290|260:356,1,96,2|0,1:2|0:0,0:0:0:0:
199,378,157166,2,0,P|186:331|196:295,1,64,10|0,0:0|0:0,0:0:0:0:
338,355,157529,6,0,P|399:360|459:299,1,128,6|10,1:2|0:0,0:0:0:0:
282,236,158075,1,2,1:2:0:0:
460,144,158257,1,0,1:2:0:0:
379,285,158439,2,0,P|385:241|393:194,1,64,0|8,0:0|0:0,0:0:0:0:
301,82,158802,1,0,1:2:0:0:
378,140,158984,1,0,1:2:0:0:
200,271,159166,5,2,0:0:0:0:
291,172,159348,2,0,P|285:216|277:263,1,64,10|2,0:0|0:0,0:0:0:0:
133,187,159711,1,2,1:2:0:0:
284,87,159893,1,2,0:0:0:0:
121,29,160075,1,10,0:0:0:0:
216,139,160257,1,2,0:0:0:0:
81,258,160439,6,0,P|46:205|80:128,1,128,6|0,1:2|0:0,0:0:0:0:
203,258,160984,1,2,1:2:0:0:
203,258,161166,2,0,P|196:305|182:391,1,128,10|2,0:0|0:0,0:0:0:0:
358,312,161711,6,0,P|319:320|276:329,1,64,2|0,1:2|0:0,0:0:0:0:
430,213,162075,2,0,P|391:205|348:196,1,64,0|0,1:2|0:0,0:0:0:0:
458,322,162439,1,8,0:3:0:0:
298,237,162620,2,0,P|291:176|338:122,1,128,8|2,0:0|0:0,0:0:0:0:
330,125,163166,1,2,0:0:0:0:
216,54,163348,6,0,P|147:63|86:72,1,128,6|0,1:2|0:0,0:0:0:0:
61,189,163893,1,2,1:2:0:0:
61,189,163984,1,0,1:2:0:0:
61,189,164075,2,0,P|129:192|183:142,1,128,10|2,0:0|0:0,0:0:0:0:
174,157,164620,1,0,1:2:0:0:
257,212,164802,6,0,P|250:245|241:296,1,64,0|2,0:0|1:2,0:0:0:0:
165,339,165166,1,2,0:0:0:0:
344,278,165348,1,8,0:3:0:0:
344,278,165439,1,8,0:3:0:0:
344,278,165529,2,0,P|351:311|360:362,1,64,8|0,0:0|1:2,0:0:0:0:
450,255,165893,2,0,P|459:201|470:139,1,96,2|0,0:0|0:0,0:0:0:0:
510,92,166257,6,0,P|467:125|387:119,1,128,6|0,1:2|0:0,0:0:0:0:
289,43,166802,1,2,1:2:0:0:
289,43,166893,1,0,1:2:0:0:
289,43,166984,2,0,P|302:88|299:134,1,64,10|0,0:0|0:0,0:0:0:0:
385,41,167348,1,2,0:0:0:0:
331,177,167529,1,2,1:2:0:0:
171,162,167711,6,0,P|217:152|250:143,1,64,0|0,0:0|1:2,0:0:0:0:
183,78,168075,1,0,0:0:0:0:
61,208,168257,1,8,0:3:0:0:
61,208,168348,1,8,0:3:0:0:
61,208,168439,1,8,0:0:0:0:
79,92,168620,2,0,L|88:122,2,32,0|0|10,1:2|1:2|0:0,0:0:0:0:
18,289,168984,6,0,P|92:293|146:235,1,151.999995941162,6|0,1:2|0:0,0:0:0:0:
61,208,169529,1,10,0:0:0:0:
206,345,169711,2,0,P|214:285|234:192,1,151.999995941162,2|0,0:0|0:0,0:0:0:0:
322,137,170257,1,10,0:0:0:0:
421,284,170439,1,2,0:0:0:0:
295,241,170620,6,0,P|343:224|388:216,1,75.9999979705811,0|0,1:2|0:0,0:0:0:0:
501,90,170984,2,0,P|464:81|428:67,1,75.9999979705811,10|2,0:0|0:0,0:0:0:0:
445,174,171348,1,0,1:2:0:0:
315,42,171529,1,0,0:0:0:0:
499,0,171711,1,10,0:0:0:0:
327,139,171893,5,2,0:0:0:0:
327,139,171984,1,2,0:0:0:0:
327,139,172075,2,0,P|278:128|236:126,1,75.9999979705811,8|0,0:0|1:2,0:0:0:0:
64,92,172439,1,8,0:0:0:0:
243,12,172620,1,0,1:2:0:0:
132,148,172802,1,8,0:0:0:0:
258,268,172984,1,0,1:2:0:0:
231,146,173166,1,8,0:0:0:0:
66,253,173348,5,8,0:3:0:0:
66,253,173439,1,8,0:3:0:0:
66,253,173529,2,0,P|59:207|47:169,1,75.9999979705811,4|0,1:2|1:2,0:0:0:0:
197,310,173893,2,0,P|186:346|181:384,1,75.9999979705811,10|8,0:0|0:0,0:0:0:0:
355,172,174257,1,10,0:0:0:0:
145,237,174439,1,8,0:0:0:0:
401,367,174620,1,10,0:0:0:0:
378,336,174711,1,8,0:0:0:0:
345,319,174802,1,8,0:3:0:0:
307,318,174893,1,8,0:3:0:0:
273,334,174984,6,0,P|262:273|245:140,1,176.000005371094,6|8,1:2|0:0,0:0:0:0:
295,41,175529,1,2,0:0:0:0:
149,123,175711,2,0,P|106:116|52:100,1,88.000002685547,2|0,1:2|0:0,0:0:0:0:
221,272,176075,2,0,P|257:249|314:252,1,88.000002685547,8|2,0:0|0:0,0:0:0:0:
486,234,176439,5,2,1:2:0:0:
349,360,176620,1,0,0:0:0:0:
255,143,176802,1,10,0:0:0:0:
395,260,176984,1,0,0:0:0:0:
203,368,177166,2,0,P|194:322|179:262,1,88.000002685547,2|0,1:2|0:0,0:0:0:0:
339,70,177529,2,0,P|348:116|363:176,1,88.000002685547,10|0,0:0|0:0,0:0:0:0:
149,203,177893,6,0,P|86:218|-3:146,1,176.000005371094,6|8,1:2|0:0,0:0:0:0:
179,46,178439,1,2,0:0:0:0:
317,224,178620,2,0,P|274:214|208:201,1,88.000002685547,2|0,1:2|0:0,0:0:0:0:
392,174,178984,1,8,0:0:0:0:
300,321,179166,1,0,0:0:0:0:
281,119,179348,5,2,1:2:0:0:
466,84,179529,1,0,0:0:0:0:
228,228,179711,1,10,0:0:0:0:
447,314,179893,1,0,0:0:0:0:
392,174,180075,2,0,P|381:216|373:259,1,88.000002685547,2|0,1:2|0:0,0:0:0:0:
198,93,180439,2,0,P|208:50|216:7,1,88.000002685547,10|0,0:0|0:0,0:0:0:0:
0,270,180802,6,0,P|40:230|124:226,1,132.00000402832,6|0,1:2|0:0,0:0:0:0:
179,256,181166,2,0,P|223:268|277:282,1,88.000002685547,8|2,0:0|0:0,0:0:0:0:
440,227,181529,1,2,1:2:0:0:
314,380,181711,1,0,0:0:0:0:
230,174,181893,1,8,0:0:0:0:
357,267,182075,1,0,0:0:0:0:
182,363,182257,6,0,P|174:315|163:261,1,88.000002685547,2|0,1:2|0:0,0:0:0:0:
246,69,182620,1,10,0:0:0:0:
61,181,182802,1,0,0:0:0:0:
243,266,182984,1,2,1:2:0:0:
131,64,183166,1,0,0:0:0:0:
295,181,183348,2,0,P|341:169|401:144,1,88.000002685547,10|0,0:0|0:0,0:0:0:0:
182,363,183711,6,0,P|108:310|3:325,1,176.000005371094,6|8,1:2|0:0,0:0:0:0:
196,223,184257,1,0,0:0:0:0:
48,137,184439,2,0,P|60:181|72:233,1,88.000002685547,0|0,1:2|0:0,0:0:0:0:
226,88,184802,2,0,P|234:47|175:-7,1,88.000002685547,10|2,0:0|0:0,0:0:0:0:
302,291,185166,5,0,1:2:0:0:
146,135,185348,1,0,0:0:0:0:
361,212,185529,1,8,0:0:0:0:
140,343,185711,1,0,0:0:0:0:
235,150,185893,1,2,1:2:0:0:
381,368,186075,1,0,0:0:0:0:
485,124,186257,2,0,P|446:137|363:149,1,88.000002685547,10|0,0:0|0:0,0:0:0:0:
272,310,186620,6,0,P|211:265|133:274,1,132.00000402832,6|2,1:2|0:0,0:0:0:0:
82,291,186984,2,0,L|63:190,1,88.000002685547,8|2,0:0|0:0,0:0:0:0:
226,0,187348,2,0,P|244:33|228:100,1,88.000002685547,2|0,1:2|0:0,0:0:0:0:
177,122,187620,1,2,0:0:0:0:
161,116,187711,2,0,P|118:126|60:137,1,88.000002685547,8|2,0:0|0:0,0:0:0:0:
297,244,188075,6,0,P|355:227|490:204,1,176.000005371094,6|10,1:2|0:0,0:0:0:0:
214,361,188620,2,0,P|170:318|185:204,1,176.000005371094,2|0,0:0|0:0,0:0:0:0:
384,102,189166,2,0,P|373:145|365:196,1,88.000002685547,8|2,0:0|0:0,0:0:0:0:
77,74,189529,6,0,P|119:76|180:8,1,132.00000402832,6|2,1:2|0:0,0:0:0:0:
248,29,189893,2,0,L|341:47,1,88.000002685547,8|2,0:0|0:0,0:0:0:0:
478,248,190257,6,0,P|436:246|387:280,1,88.000002685547,2|0,1:2|0:0,0:0:0:0:
332,311,190529,1,2,0:0:0:0:
319,300,190620,2,0,L|226:282,1,88.000002685547,8|2,0:0|0:0,0:0:0:0:
9,341,190984,1,6,1:2:0:0:
144,222,191166,1,0,0:0:0:0:
147,368,191348,1,10,0:0:0:0:
23,201,191529,1,2,0:0:0:0:
211,159,191711,5,0,1:2:0:0:
90,291,191893,1,0,0:0:0:0:
83,80,192075,1,8,0:0:0:0:
232,240,192257,1,2,0:0:0:0:
23,201,192439,6,0,P|86:217|181:158,1,176.000005371094,6|10,1:2|0:0,0:0:0:0:
272,47,192984,2,0,P|318:63|449:101,1,176.000005371094,2|0,0:0|0:0,0:0:0:0:
341,289,193529,1,8,0:0:0:0:
285,151,193711,1,2,0:0:0:0:
414,200,193893,5,6,1:2:0:0:
241,310,194075,1,0,0:0:0:0:
425,382,194257,1,10,0:0:0:0:
228,214,194439,2,0,P|184:247|55:247,1,176.000005371094,2|0,0:0|0:0,0:0:0:0:
0,106,194984,2,0,P|44:119|95:130,1,88.000002685547,8|0,0:0|0:0,0:0:0:0:
224,58,195348,5,10,0:0:0:0:
380,232,195529,1,0,1:2:0:0:
443,6,195711,1,2,1:2:0:0:
225,217,195893,5,8,0:0:0:0:
441,135,196075,1,2,1:2:0:0:
396,366,196257,1,0,1:2:0:0:
512,261,196439,6,0,P|466:249|412:233,1,88.000002685547,10|0,0:0|0:0,0:0:0:0:
257,384,196802,2,0,L|248:334,1,44.0000013427735,2|0,1:2|0:0,0:0:0:0:
114,286,196984,2,0,L|122:330,1,44.0000013427735,0|0,1:2|1:2,0:0:0:0:
28,218,197166,5,8,0:0:0:0:
58,208,197257,1,8,0:0:0:0:
89,200,197348,1,8,0:3:0:0:
120,191,197439,1,8,0:3:0:0:
152,203,197529,1,8,0:3:0:0:
176,196,197620,1,8,0:3:0:0:
201,189,197711,1,8,0:3:0:0:
226,182,197802,1,8,0:3:0:0:
249,177,197893,2,0,P|303:140|375:153,1,132.00000402832,8|0,0:0|0:0,0:0:0:0:
426,187,198257,6,0,P|470:202|514:212,1,88.000002685547,6|0,1:2|0:0,0:0:0:0:
333,367,198620,2,0,P|266:320|151:333,1,176.000005371094,8|2,0:0|1:2,0:0:0:0:
25,212,199166,1,0,0:0:0:0:
183,139,199348,2,0,P|169:185|153:257,1,88.000002685547,8|2,0:0|0:0,0:0:0:0:
346,91,199711,6,0,P|360:45|376:-27,1,88.000002685547,2|0,1:2|0:0,0:0:0:0:
485,265,200075,2,0,P|443:230|354:238,1,132.00000402832,10|0,0:0|0:0,0:0:0:0:
303,259,200439,2,0,L|209:273,1,88.000002685547,2|0,1:2|0:0,0:0:0:0:
25,342,200802,2,0,P|68:364|118:362,1,88.000002685547,10|0,0:0|0:0,0:0:0:0:
139,207,201166,6,0,L|116:58,1,132.00000402832,6|0,1:2|0:0,0:0:0:0:
180,29,201529,2,0,P|221:49|284:39,1,88.000002685547,8|2,0:0|0:0,0:0:0:0:
507,171,201893,2,0,P|442:156|344:232,1,176.000005371094,2|8,1:2|0:0,0:0:0:0:
261,347,202439,1,0,0:0:0:0:
105,134,202620,5,2,1:2:0:0:
270,221,202802,1,0,0:0:0:0:
91,353,202984,1,10,0:0:0:0:
158,234,203166,1,0,0:0:0:0:
261,347,203348,5,2,1:2:0:0:
233,97,203529,1,0,0:0:0:0:
444,238,203711,2,0,P|398:247|336:267,1,88.000002685547,10|0,0:0|0:0,0:0:0:0:
82,45,204075,6,0,P|147:101|264:76,1,176.000005371094,6|8,1:2|0:0,0:0:0:0:
445,25,204620,1,2,0:0:0:0:
350,184,204802,2,0,P|336:131|321:85,1,88.000002685547,2|0,1:2|0:0,0:0:0:0:
335,348,205166,1,8,0:0:0:0:
208,200,205348,1,0,0:0:0:0:
142,358,205529,5,2,1:2:0:0:
305,264,205711,1,0,0:0:0:0:
118,189,205893,1,10,0:0:0:0:
306,106,206075,1,0,0:0:0:0:
221,282,206257,5,2,1:2:0:0:
204,53,206439,1,0,0:0:0:0:
374,179,206620,2,0,P|419:166|470:146,1,88.000002685547,10|0,0:0|0:0,0:0:0:0:
277,355,206984,6,0,P|241:323|114:324,1,176.000005371094,6|8,1:2|0:0,0:0:0:0:
136,131,207529,1,0,0:0:0:0:
24,187,207711,2,0,P|34:223|48:286,1,88.000002685547,0|0,1:2|0:0,0:0:0:0:
224,97,208075,2,0,P|214:61|200:-2,1,88.000002685547,10|2,0:0|0:0,0:0:0:0:
415,303,208439,5,0,1:2:0:0:
211,224,208620,1,0,0:0:0:0:
396,120,208802,1,8,0:0:0:0:
308,324,208984,1,0,0:0:0:0:
164,148,209166,1,2,1:2:0:0:
124,375,209348,1,0,0:0:0:0:
18,200,209529,2,0,P|64:213|111:224,1,88.000002685547,10|0,0:0|0:0,0:0:0:0:
267,33,209893,6,0,P|291:65|269:180,1,132.00000402832,6|2,1:2|0:0,0:0:0:0:
235,207,210257,2,0,L|253:304,1,88.000002685547,8|2,0:0|0:0,0:0:0:0:
463,355,210620,2,0,P|419:334|360:340,1,88.000002685547,2|0,1:2|0:0,0:0:0:0:
315,358,210893,1,2,0:0:0:0:
302,367,210984,2,0,L|203:383,1,88.000002685547,8|2,0:0|0:0,0:0:0:0:
0,235,211348,6,0,P|62:218|151:281,1,176.000005371094,6|10,1:2|0:0,0:0:0:0:
259,213,211893,2,0,P|339:199|448:186,1,176.000005371094,2|0,0:0|0:0,0:0:0:0:
279,29,212439,2,0,P|271:69|259:136,1,88.000002685547,8|2,0:2|0:0,0:0:0:0:
46,258,212802,6,0,P|23:192|60:128,1,132.00000402832,6|2,1:2|0:0,0:0:0:0:
114,171,213166,2,0,P|159:162|214:154,1,88.000002685547,8|2,0:0|0:0,0:0:0:0:
480,66,213529,2,0,P|440:67|390:25,1,88.000002685547,0|0,1:2|0:0,0:0:0:0:
343,3,213802,1,2,0:0:0:0:
329,12,213893,2,0,P|284:21|229:29,1,88.000002685547,8|2,0:0|0:0,0:0:0:0:
284,227,214257,6,0,P|335:171|455:197,1,176.000005371094,6|10,1:2|0:0,0:0:0:0:
459,375,214802,2,0,P|398:361|280:339,1,176.000005371094,2|0,0:0|0:0,0:0:0:0:
182,204,215348,1,8,0:0:0:0:
112,364,215529,1,10,0:3:0:0:
21,148,215711,5,4,1:2:0:0:
249,270,215893,1,2,1:2:0:0:
197,95,216075,1,8,0:0:0:0:
27,293,216257,6,0,P|70:283|128:275,1,88.000002685547,2|0,1:2|0:0,0:0:0:0:
306,162,216620,1,2,1:2:0:0:
84,77,216802,1,8,0:0:0:0:
210,332,216984,1,0,1:2:0:0:
409,74,217529,5,4,1:2:0:0:
256,192,217893,12,0,218529,0:0:0:0:
149,329,218620,5,14,0:0:0:0:
166,226,218802,1,8,0:0:0:0:
183,123,218984,1,8,0:0:0:0:
66,37,219166,5,8,0:3:0:0:
66,37,219257,1,8,0:3:0:0:
66,37,219348,2,0,P|74:76|79:115,1,80,2|2,1:2|1:2,0:0:0:0:
23,293,219711,1,10,0:3:0:0:
166,226,219893,6,0,L|87:212,1,80,14|0,0:0|0:0,0:0:0:0:
320,123,220257,1,10,0:0:0:0:
254,357,220439,1,10,0:0:0:0:
254,357,220802,5,2,0:0:0:0:
298,291,220984,1,2,0:0:0:0:
375,271,221166,1,2,0:0:0:0:
450,298,221348,1,2,0:0:0:0:
320,123,221529,5,12,0:0:0:0:
512,12,221711,1,8,0:0:0:0:
310,121,221893,1,8,0:0:0:0:
450,190,222075,5,8,0:3:0:0:
450,190,222166,1,8,0:3:0:0:
450,190,222257,2,0,P|442:150|436:111,1,80,2|2,1:2|1:2,0:0:0:0:
512,12,222620,1,10,0:3:0:0:
300,119,222802,6,0,B|197:100|197:100|172:128|169:148,1,160,14|10,0:0|0:0,0:0:0:0:
91,326,223348,1,2,1:2:0:0:
0,216,223529,6,0,P|78:231|157:243,1,160,14|10,0:0|0:0,0:0:0:0:
341,354,224075,2,0,P|301:358|262:367,1,80,2|8,1:2|0:3,0:0:0:0:
210,314,224348,5,8,0:3:0:0:
210,314,224439,1,12,0:0:0:0:
239,176,224620,1,8,0:0:0:0:
268,38,224802,1,8,0:0:0:0:
412,102,224984,5,8,0:3:0:0:
412,102,225075,1,8,0:3:0:0:
412,102,225166,2,0,P|376:118|336:116,1,80,2|2,1:2|1:2,0:0:0:0:
389,11,225529,1,10,0:3:0:0:
491,197,225711,6,0,P|495:157|504:118,1,80,12|0,0:0|0:0,0:0:0:0:
348,287,226075,2,0,P|343:247|334:208,1,80,8|0,0:0|0:0,0:0:0:0:
453,290,226439,1,8,0:0:0:0:
262,370,226620,6,0,P|225:354|185:355,1,80,2|2,0:0|1:2,0:0:0:0:
38,234,226984,2,0,P|47:272|51:312,1,80,10|2,0:0|0:0,0:0:0:0:
192,187,227348,5,8,0:0:0:0:
0,104,227529,1,8,0:0:0:0:
182,8,227711,1,8,0:0:0:0:
98,123,227893,5,8,0:3:0:0:
98,123,227984,1,8,0:3:0:0:
98,123,228075,2,0,P|93:83|84:44,1,80,2|2,1:2|1:2,0:0:0:0:
38,234,228439,1,10,0:3:0:0:
192,187,228620,6,0,B|227:159|271:176|271:176|297:214|342:224,1,160,14|10,0:0|0:0,0:0:0:0:
245,77,229166,1,2,1:2:0:0:
361,8,229348,2,0,P|353:47|347:86,1,80,14|0,0:0|0:0,0:0:0:0:
396,150,229620,1,2,0:0:0:0:
434,160,229711,1,2,0:0:0:0:
473,153,229802,1,2,0:0:0:0:
504,129,229893,6,0,L|510:89,1,40,2|2,0:0|0:0,0:0:0:0:
337,260,230075,2,0,L|330:220,1,40,2|2,0:0|0:0,0:0:0:0:
512,383,230257,6,0,P|461:334|382:349,1,132.00000402832,6|0,1:2|0:0,0:0:0:0:
331,369,230620,2,0,P|289:377|244:384,1,88.000002685547,8|2,0:0|0:0,0:0:0:0:
29,222,230984,2,0,P|72:215|115:206,1,88.000002685547,10|0,0:0|1:2,0:0:0:0:
173,261,231257,1,2,0:0:0:0:
180,270,231348,2,0,P|171:313|164:356,1,88.000002685547,8|2,0:0|1:2,0:0:0:0:
423,149,231711,6,0,P|360:196|251:167,1,176.000005371094,4|8,1:2|0:0,0:0:0:0:
443,262,232257,1,2,1:2:0:0:
350,23,232439,2,0,P|343:66|334:109,1,88.000002685547,8|0,0:0|1:2,0:0:0:0:
246,93,232711,1,2,0:0:0:0:
246,93,232802,1,8,0:0:0:0:
440,27,232984,1,2,1:2:0:0:
260,189,233166,6,0,P|173:172|86:158,1,176.000005371094,4|8,1:2|0:0,0:0:0:0:
0,268,233711,1,2,1:2:0:0:
0,268,233802,1,2,0:0:0:0:
0,268,233893,2,0,P|44:260|87:253,1,88.000002685547,10|0,0:0|1:2,0:0:0:0:
87,253,234166,1,2,0:0:0:0:
87,253,234257,1,8,0:0:0:0:
0,172,234439,1,2,1:2:0:0:
75,382,234620,6,0,P|145:333|229:349,1,176.000005371094,6|8,1:2|0:0,0:0:0:0:
383,220,235166,1,2,1:2:0:0:
383,220,235257,1,2,1:2:0:0:
383,220,235348,2,0,P|339:213|296:204,1,88.000002685547,10|0,0:0|1:2,0:0:0:0:
234,45,235711,1,8,0:0:0:0:
401,132,235893,1,0,1:2:0:0:
223,246,236075,5,6,1:2:0:0:
223,246,236166,1,2,0:0:0:0:
223,246,236257,2,0,L|179:238,1,44.0000013427735,2|2,1:2|0:0,0:0:0:0:
120,186,236439,2,0,L|76:193,1,44.0000013427735,10|2,0:0|0:0,0:0:0:0:
234,45,236620,2,0,P|225:88|218:131,1,88.000002685547,6|0,1:2|0:0,0:0:0:0:
342,282,236984,1,2,1:2:0:0:
344,271,237075,1,2,0:0:0:0:
346,260,237166,1,10,0:3:0:0:
348,249,237257,1,2,0:0:0:0:
330,226,237348,6,0,L|345:312,1,88.000002685547,4|0,1:2|0:0,0:0:0:0:
481,222,237711,1,2,1:2:0:0:
335,126,237893,1,10,0:0:0:0:
462,27,238075,2,0,P|453:70|446:113,1,88.000002685547,6|0,1:2|0:0,0:0:0:0:
267,34,238439,5,2,1:2:0:0:
224,24,238529,1,2,0:0:0:0:
182,36,238620,1,10,0:0:0:0:
151,66,238711,1,2,0:0:0:0:
119,96,238802,1,2,0:0:0:0:
77,107,238893,1,2,0:0:0:0:
35,97,238984,6,0,P|28:53|19:10,1,88.000002685547,6|0,1:2|0:0,0:0:0:0:
178,167,239348,2,0,P|165:231|155:296,1,132.00000402832,8|0,0:0|0:0,0:0:0:0:
213,350,239711,2,0,P|251:329|294:332,1,88.000002685547,8|2,0:0|1:2,0:0:0:0:
484,259,240075,1,10,0:0:0:0:
344,154,240257,1,2,1:2:0:0:
375,376,240439,6,0,P|381:332|390:289,1,88.000002685547,10|0,0:0|1:2,0:0:0:0:
331,56,240802,1,10,0:0:0:0:
512,174,240984,1,2,1:2:0:0:
512,174,241075,1,0,1:2:0:0:
512,174,241166,2,0,P|468:180|425:189,1,88.000002685547,8|2,0:0|1:2,0:0:0:0:
244,71,241529,2,0,P|287:64|330:55,1,88.000002685547,10|0,0:0|1:2,0:0:0:0:
209,248,241893,6,0,P|167:229|122:232,1,88.000002685547,14|2,0:0|1:2,0:0:0:0:
53,262,242166,1,2,0:0:0:0:
53,262,242257,1,10,0:0:0:0:
156,49,242439,1,2,1:2:0:0:
156,49,242529,1,2,1:2:0:0:
156,49,242620,2,0,P|147:92|140:135,1,88.000002685547,10|2,0:0|1:2,0:0:0:0:
324,281,242984,1,10,0:0:0:0:
320,259,243075,1,8,0:0:0:0:
316,237,243166,1,10,0:3:0:0:
312,216,243257,1,8,0:3:0:0:
322,197,243348,6,0,P|364:206|408:212,1,88.000002685547,6|2,1:2|0:0,0:0:0:0:
336,58,243711,2,0,P|297:77|253:74,1,88.000002685547,2|2,0:0|0:0,0:0:0:0:
38,162,244075,6,0,P|32:118|22:75,1,88.000002685547,2|2,0:0|0:0,0:0:0:0:
124,222,244439,2,0,P|133:179|139:135,1,88.000002685547,2|2,0:0|0:0,0:0:0:0:
59,368,244802,6,0,P|101:327|210:338,1,167.999994873047,6|2,1:2|0:0,0:0:0:0:
204,333,245529,1,2,0:0:0:0:
431,189,246075,1,2,0:0:0:0:
431,189,246257,2,0,P|365:201|297:213,1,111.999996582031,2|2,0:0|0:0,0:0:0:0:
320,208,246984,2,0,P|314:159|308:128,1,55.9999982910157,2|0,0:0|0:0,0:0:0:0:
161,194,247348,2,0,P|134:202|107:209,1,55.9999982910157,2|0,1:2|0:0,0:0:0:0:
203,60,247711,6,0,B|212:146|244:132|242:224,1,167.999994873047,2|2,1:2|0:0,0:0:0:0:
242,221,248439,1,2,0:0:0:0:
38,338,249166,2,0,P|65:302|143:301,1,111.999996582031,2|2,0:0|0:0,0:0:0:0:
239,187,249893,2,0,P|282:200|309:273,1,111.999996582031,2|2,0:0|0:0,0:0:0:0:
446,376,250620,6,0,P|366:360|277:348,1,167.999994873047,2|2,1:2|0:0,0:0:0:0:
280,348,251348,1,2,0:0:0:0:
409,44,252075,5,2,0:0:0:0:
238,11,252439,1,2,0:0:0:0:
205,182,252802,1,2,0:0:0:0:
376,215,253166,1,2,0:0:0:0:
309,113,253529,5,2,1:2:0:0:
309,113,253711,1,0,1:2:0:0:
89,280,253893,2,0,P|77:208|53:107,1,155.999992858887,12|0,0:0|0:0,0:0:0:0:
10,73,254257,5,0,1:2:0:0:
10,73,254439,1,0,1:2:0:0:
194,324,254620,2,0,P|206:252|230:151,1,155.999992858887,14|0,0:0|0:0,0:0:0:0:
276,114,254984,5,0,1:2:0:0:
299,258,255166,1,0,0:0:0:0:
142,141,255348,1,8,0:0:0:0:
409,21,255529,1,0,1:2:0:0:
438,52,255620,1,0,1:2:0:0:
450,94,255711,1,10,0:0:0:0:
440,137,255802,2,0,P|391:129|347:121,1,88.000002685547,8|0,0:3|0:0,0:0:0:0:
271,93,256075,6,0,P|289:158|304:221,1,103.999995239258,10|0,0:0|0:0,0:0:0:0:
346,384,256439,6,0,P|356:329|379:244,1,132.00000402832,6|2,1:2|0:0,0:0:0:0:
436,209,256802,2,0,P|461:232|526:226,1,88.000002685547,8|2,0:0|0:0,0:0:0:0:
269,315,257166,2,0,P|217:304|166:301,1,88.000002685547,0|0,1:2|0:0,0:0:0:0:
118,337,257439,1,2,0:0:0:0:
109,345,257529,2,0,P|99:292|82:236,1,88.000002685547,8|2,0:0|0:0,0:0:0:0:
167,57,257893,6,0,P|220:92|209:216,1,176.000005371094,6|10,1:2|0:0,0:0:0:0:
0,62,258439,1,2,0:0:0:0:
155,143,258620,1,0,1:2:0:0:
0,218,258802,1,0,0:0:0:0:
187,294,258984,2,0,P|240:280|295:273,1,88.000002685547,8|2,0:0|0:0,0:0:0:0:
463,168,259348,6,0,P|420:153|331:144,1,132.00000402832,6|2,1:2|0:0,0:0:0:0:
277,97,259711,2,0,P|273:44|308:11,1,88.000002685547,8|2,0:0|0:0,0:0:0:0:
381,229,260075,2,0,P|368:285|367:325,1,88.000002685547,0|0,1:2|0:0,0:0:0:0:
422,365,260348,1,2,0:0:0:0:
432,373,260439,2,0,P|467:370|514:335,1,88.000002685547,8|2,0:0|0:0,0:0:0:0:
285,289,260802,6,0,P|199:306|121:243,1,176.000005371094,6|10,1:2|0:0,0:0:0:0:
292,85,261348,1,2,0:0:0:0:
213,233,261529,2,0,P|220:184|237:136,1,88.000002685547,0|0,1:2|0:0,0:0:0:0:
359,30,261893,1,8,0:0:0:0:
79,0,262075,5,2,0:0:0:0:
79,0,262166,1,2,0:0:0:0:
79,0,262257,2,0,P|99:76|116:201,1,176.000005371094,6|10,1:2|0:0,0:0:0:0:
7,345,262802,2,0,P|29:292|155:279,1,176.000005371094,2|0,0:0|0:0,0:0:0:0:
273,308,263348,1,8,0:0:0:0:
99,350,263529,1,2,0:0:0:0:
346,364,263711,6,0,P|358:316|355:248,1,88.000002685547,6|0,1:2|0:0,0:0:0:0:
201,182,264075,1,10,0:0:0:0:
399,94,264257,1,2,0:0:0:0:
290,216,264439,1,0,1:2:0:0:
495,261,264620,1,0,0:0:0:0:
360,32,264802,2,0,P|375:105|390:177,1,132.00000402832,8|0,0:0|0:0,0:0:0:0:
326,214,265166,5,10,0:0:0:0:
63,126,265348,1,0,1:2:0:0:
283,47,265529,1,2,1:2:0:0:
65,252,265711,5,8,0:0:0:0:
247,156,265893,1,2,1:2:0:0:
0,48,266075,1,0,1:2:0:0:
184,297,266257,5,10,0:0:0:0:
123,26,266439,1,0,1:2:0:0:
188,310,266620,6,0,L|240:299,1,44.0000013427735,2|2,1:2|0:0,0:0:0:0:
369,204,266802,2,0,L|317:215,1,44.0000013427735,2|2,1:2|1:2,0:0:0:0:
300,364,266984,2,0,L|352:353,1,44.0000013427735,10|10,0:0|0:0,0:0:0:0:
481,258,267166,2,0,L|429:269,1,44.0000013427735,10|10,0:3|0:3,0:0:0:0:
207,196,267348,1,10,0:3:0:0:
220,154,267439,1,8,0:3:0:0:
252,124,267529,1,8,0:3:0:0:
294,113,267620,1,8,0:3:0:0:
336,125,267711,2,0,P|327:173|325:227,1,88.000002685547,10|0,0:0|0:0,0:0:0:0:
100,371,268075,6,0,P|90:295|68:218,1,132.00000402832,6|0,1:2|0:0,0:0:0:0:
120,180,268439,2,0,P|173:193|240:194,1,88.000002685547,8|2,0:0|0:0,0:0:0:0:
365,76,268802,1,0,1:2:0:0:
192,10,268984,1,0,0:0:0:0:
308,168,269166,1,8,0:0:0:0:
466,40,269348,1,2,0:0:0:0:
297,178,269529,6,0,P|313:238|320:296,1,88.000002685547,2|0,1:2|0:0,0:0:0:0:
424,384,269893,2,0,P|431:340|444:298,1,88.000002685547,10|0,0:0|0:0,0:0:0:0:
362,122,270257,1,2,1:2:0:0:
512,229,270439,1,0,0:0:0:0:
297,350,270620,2,0,P|222:317|157:347,1,132.00000402832,10|0,0:0|0:0,0:0:0:0:
108,371,270984,6,0,P|99:324|91:268,1,88.000002685547,6|0,1:2|0:0,0:0:0:0:
240,74,271348,2,0,P|226:124|210:231,1,132.00000402832,8|0,0:0|0:0,0:0:0:0:
141,222,271711,1,2,1:2:0:0:
316,144,271893,1,0,0:0:0:0:
124,51,272075,1,8,0:0:0:0:
326,149,272257,1,0,0:0:0:0:
127,226,272439,6,0,P|117:179|114:122,1,88.000002685547,2|0,1:2|0:0,0:0:0:0:
297,281,272802,2,0,P|293:324|283:367,1,88.000002685547,10|0,0:0|0:0,0:0:0:0:
467,212,273166,2,0,P|476:169|480:125,1,88.000002685547,2|0,1:2|0:0,0:0:0:0:
274,16,273529,1,10,0:0:0:0:
396,157,273711,5,2,0:0:0:0:
396,157,273802,1,2,0:0:0:0:
396,157,273893,2,0,P|348:127|259:152,1,132.00000402832,6|0,1:2|0:0,0:0:0:0:
230,197,274257,2,0,P|249:251|256:293,1,88.000002685547,8|2,0:0|0:0,0:0:0:0:
52,201,274620,2,0,P|53:139|92:12,1,176.000005371094,2|8,1:2|0:0,0:0:0:0:
163,141,275166,1,0,0:0:0:0:
84,308,275348,6,0,P|31:291|-17:287,1,88.000002685547,2|0,1:2|0:0,0:0:0:0:
230,197,275711,2,0,P|283:180|331:176,1,88.000002685547,10|0,0:0|0:0,0:0:0:0:
127,117,276075,1,0,1:2:0:0:
189,306,276257,1,0,0:0:0:0:
398,196,276439,2,0,P|392:139|343:91,1,88.000002685547,10|0,0:0|0:0,0:0:0:0:
192,25,276802,6,0,P|214:109|229:196,1,176.000005371094,6|8,1:2|0:0,0:0:0:0:
90,377,277348,1,0,0:0:0:0:
277,314,277529,1,0,1:2:0:0:
37,174,277711,1,0,0:0:0:0:
174,282,277893,1,10,0:0:0:0:
0,384,278075,1,2,0:0:0:0:
290,312,278257,6,0,P|299:270|303:226,1,88.000002685547,0|0,1:2|0:0,0:0:0:0:
121,76,278620,2,0,P|124:119|134:162,1,88.000002685547,8|0,0:0|0:0,0:0:0:0:
377,192,278984,1,2,1:2:0:0:
223,103,279166,1,0,0:0:0:0:
418,31,279348,2,0,P|450:82|434:168,1,132.00000402832,10|0,0:0|0:0,0:0:0:0:
377,192,279711,6,0,P|331:176|265:186,1,88.000002685547,6|0,1:2|0:0,0:0:0:0:
233,223,279984,1,2,0:0:0:0:
229,233,280075,2,0,P|245:283|248:350,1,88.000002685547,8|2,0:0|0:0,0:0:0:0:
57,227,280439,2,0,P|46:175|96:94,1,132.00000402832,2|2,1:2|0:0,0:0:0:0:
132,58,280802,2,0,P|177:74|233:78,1,88.000002685547,8|2,0:0|0:0,0:0:0:0:
431,17,281166,6,0,P|376:29|351:163,1,176.000005371094,6|10,1:2|0:0,0:0:0:0:
486,265,281711,1,2,0:0:0:0:
420,113,281893,1,0,1:2:0:0:
360,317,282075,1,0,0:0:0:0:
200,188,282257,2,0,P|267:204|322:210,1,88.000002685547,8|2,0:0|0:0,0:0:0:0:
148,354,282620,6,0,P|105:342|62:335,1,88.000002685547,6|0,1:2|0:0,0:0:0:0:
10,289,282893,1,2,0:0:0:0:
3,278,282984,2,0,P|16:225|26:181,1,88.000002685547,8|2,0:0|0:0,0:0:0:0:
124,34,283348,2,0,P|134:98|148:185,1,132.00000402832,2|2,1:2|0:0,0:0:0:0:
201,210,283711,2,0,P|242:193|293:189,1,88.000002685547,8|2,0:0|0:0,0:0:0:0:
462,92,284075,6,0,P|397:111|306:29,1,176.000005371094,6|10,1:2|0:0,0:0:0:0:
414,300,284620,1,2,0:0:0:0:
203,240,284802,1,0,1:2:0:0:
370,187,284984,1,0,1:2:0:0:
370,187,285075,1,0,1:2:0:0:
370,187,285166,1,8,0:0:0:0:
169,349,285348,2,0,P|214:336|247:328,1,44.0000013427735,10|8,0:0|0:0,0:0:0:0:
316,309,285529,5,6,1:2:0:0:
4,231,285711,1,2,1:2:0:0:
151,147,285893,1,8,0:0:0:0:
76,382,286075,6,0,P|86:326|94:275,1,88.000002685547,2|0,1:2|0:0,0:0:0:0:
270,96,286439,2,0,P|262:139|255:182,1,88.000002685547,2|8,1:2|0:0,0:0:0:0:
402,366,286802,1,2,1:2:0:0:
402,366,287348,6,0,P|412:310|420:259,1,88.000002685547,4|0,1:2|0:0,0:0:0:0:
480,138,287711,2,0,P|426:190|329:172,1,167.999994873047,2|0,0:0|0:0,0:0:0:0:
254,182,288439,6,0,P|261:139|270:96,1,88.000002685547,6|2,1:2|0:0,0:0:0:0:
92,19,288802,1,8,0:0:0:0:
183,125,288984,1,2,0:0:0:0:
20,288,289166,6,0,P|12:244|4:201,1,88.000002685547,0|2,1:2|0:0,0:0:0:0:
183,125,289529,1,8,0:0:0:0:
92,231,289711,1,2,0:0:0:0:
291,319,289893,1,0,1:2:0:0:
185,223,290075,5,2,0:0:0:0:
185,223,290166,1,2,0:0:0:0:
185,223,290257,1,10,0:0:0:0:
348,138,290439,1,2,0:0:0:0:
158,321,290620,1,2,1:2:0:0:
436,384,290802,2,0,P|478:323|436:213,1,176.000005371094,2|2,0:0|0:0,0:0:0:0:
506,114,291348,5,6,1:2:0:0:
304,316,291529,2,0,P|359:302|407:295,1,88.000002685547,2|8,1:2|0:0,0:0:0:0:
148,175,291893,2,0,P|93:189|45:196,1,88.000002685547,2|0,1:2|0:0,0:0:0:0:
344,33,292257,2,0,P|330:88|323:136,1,88.000002685547,2|8,1:2|0:0,0:0:0:0:
206,266,292620,1,2,1:2:0:0:
206,266,293166,6,0,P|257:217|229:157,1,132.00000402832,4|0,1:2|0:0,0:0:0:0:
223,161,293529,2,0,P|239:212|260:346,1,167.999994873047,2|0,0:0|0:0,0:0:0:0:
43,210,294257,6,0,P|21:149|52:94,1,132.00000402832,6|0,1:2|0:0,0:0:0:0:
140,59,294620,2,0,P|130:101|124:145,1,88.000002685547,10|0,0:0|0:0,0:0:0:0:
30,8,294984,1,2,1:2:0:0:
239,115,295166,2,0,B|268:97|304:101|304:101|322:130|365:142,1,132.00000402832,2|0,0:0|0:0,0:0:0:0:
425,107,295529,6,0,P|430:63|440:20,1,88.000002685547,2|0,0:0|1:2,0:0:0:0:
307,220,295893,2,0,P|316:262|322:306,1,88.000002685547,2|8,0:0|0:0,0:0:0:0:
406,227,296257,6,0,P|445:245|489:243,1,88.000002685547,2|0,0:0|1:2,0:0:0:0:
252,370,296620,2,0,P|212:351|168:353,1,88.000002685547,2|8,0:0|0:0,0:0:0:0:
51,222,296984,1,2,0:0:0:0:
179,149,297166,6,0,P|169:191|163:235,1,88.000002685547,4|0,1:2|0:0,0:0:0:0:
355,83,297529,1,10,0:0:0:0:
251,12,297711,2,0,P|260:54|266:98,1,88.000002685547,2|0,0:0|1:2,0:0:0:0:
407,260,298075,1,0,0:0:0:0:
467,49,298257,1,8,0:0:0:0:
302,203,298439,6,0,P|359:164|458:187,1,176.000005371094,6|2,0:0|0:0,0:0:0:0:
280,313,298984,1,10,0:0:0:0:
179,113,299166,2,0,P|222:107|265:97,1,88.000002685547,2|0,0:0|1:2,0:0:0:0:
366,297,299529,2,0,P|322:302|279:312,1,88.000002685547,2|8,0:0|0:0,0:0:0:0:
104,201,299893,5,10,0:0:0:0:
104,201,299984,1,8,0:0:0:0:
104,201,300075,2,0,P|148:239|122:336,1,132.00000402832,6|0,1:2|0:0,0:0:0:0:
70,364,300439,2,0,P|64:320|54:277,1,88.000002685547,10|0,0:0|0:0,0:0:0:0:
165,50,300802,1,2,1:2:0:0:
2,88,300984,2,0,P|42:108|88:103,1,88.000002685547,2|8,0:0|0:0,0:0:0:0:
321,180,301348,6,0,P|277:185|234:195,1,88.000002685547,2|0,0:0|1:2,0:0:0:0:
426,30,301711,2,0,P|417:73|410:116,1,88.000002685547,2|8,0:0|0:0,0:0:0:0:
294,0,302075,2,0,P|302:43|309:86,1,88.000002685547,2|0,0:0|1:2,0:0:0:0:
284,311,302439,1,2,0:0:0:0:
512,228,302620,2,0,P|479:200|391:218,1,132.00000402832,8|0,0:0|0:0,0:0:0:0:
377,289,302984,5,8,0:0:0:0:
309,86,303166,1,0,1:2:0:0:
152,294,303348,1,2,1:2:0:0:
321,180,303529,5,10,0:0:0:0:
113,89,303711,1,0,1:2:0:0:
212,346,303893,1,0,1:2:0:0:
188,36,304075,1,8,0:3:0:0:
0,219,304257,6,0,P|87:203|182:187,1,176.000005371094,4|8,1:2|0:3,0:0:0:0:
227,254,304711,1,8,0:3:0:0:
227,254,304802,1,8,0:0:0:0:
436,128,304984,6,0,P|414:124|392:120,1,44.0000013427735,8|8,0:3|0:3,0:0:0:0:
314,186,305166,2,0,P|311:164|306:142,1,44.0000013427735,8|8,0:0|0:0,0:0:0:0:
439,2,305348,2,0,P|441:23|446:45,1,44.0000013427735,8|8,0:3|0:3,0:0:0:0:
474,290,305529,2,0,P|426:256|342:276,1,132.00000402832,8|0,0:3|0:0,0:0:0:0:
303,322,305893,5,8,0:3:0:0:
292,323,305984,1,8,0:3:0:0:
281,325,306075,1,8,0:3:0:0:
270,327,306166,1,8,0:3:0:0:
259,329,306257,1,14,0:0:0:0:
256,192,306348,12,0,308802,1:2:0:0:
