osu file format v14

[General]
AudioFilename: audio.mp3
AudioLeadIn: 0
PreviewTime: 101612
Countdown: 0
SampleSet: None
StackLeniency: 0.5
Mode: 0
LetterboxInBreaks: 0
WidescreenStoryboard: 1

[Editor]
Bookmarks: 11612,22775,33851,45101,56263,78589,102310,113473,124636,146961,158124,170682,193008
DistanceSpacing: 1
BeatDivisor: 4
GridSize: 32
TimelineZoom: 2.3

[Metadata]
Title:Army Of The Night
TitleUnicode:Army Of The Night
Artist:POWERWOLF
ArtistUnicode:POWERWOLF
Creator:Amberessence
Version:Airin's Normal
Source:
Tags:Powermetal, metal, german, english, jumps, AirinCat, -Hyde, dahammer88, Kooleyy
BeatmapID:1746952
BeatmapSetID:764649

[Difficulty]
HPDrainRate:2
CircleSize:3
OverallDifficulty:3
ApproachRate:5
SliderMultiplier:1.1
SliderTickRate:1

[Events]
//Background and Video events
0,0,"EtOOKmp.jpg",0,0
//Break Periods
2,147160,156924
//Storyboard Layer 0 (Background)
//Storyboard Layer 1 (Fail)
//Storyboard Layer 2 (Pass)
//Storyboard Layer 3 (Foreground)
//Storyboard Layer 4 (Overlay)
//Storyboard Sound Samples

[TimingPoints]
450,348.837209302326,4,3,1,70,1,0
56263,-100,4,3,1,75,0,1
78589,-100,4,3,1,50,0,0
89752,-100,4,3,1,60,0,0
102310,-100,4,3,1,75,0,1
124636,-100,4,3,1,60,0,0
158124,-100,4,3,1,75,0,0
159868,-100,4,3,1,40,0,0
160915,-100,4,3,1,75,0,0
162659,-100,4,3,1,40,0,0
163705,-100,4,3,1,75,0,0
165450,-100,4,3,1,40,0,0
166496,-100,4,3,1,75,0,0
167891,-100,4,3,1,60,0,0
168589,-100,4,3,1,70,0,0
169287,-100,4,3,1,75,0,0
180450,-100,4,3,1,85,0,1
182194,-100,4,3,1,75,0,1
191612,-100,4,3,1,85,0,1
193008,-100,4,3,1,85,0,0

[Colours]
Combo1 : 255,128,0
Combo2 : 255,0,0
Combo3 : 128,0,0
Combo4 : 128,64,0

[HitObjects]
87,122,450,5,8,0:1:0:0:
382,69,1496,6,0,L|446:81,1,55,8|8,0:1|0:1,0:0:0:0:
349,317,2891,6,0,L|281:333,1,55,8|0,0:1|0:0,0:0:0:0:
241,343,3240,1,8,0:1:0:0:
141,62,4287,6,0,L|210:73,1,55,8|8,0:1|0:1,0:0:0:0:
240,255,5682,6,0,L|171:266,1,55,8|0,0:1|0:0,0:0:0:0:
131,272,6031,1,8,0:1:0:0:
341,74,7077,6,0,L|412:90,1,55,8|8,0:1|0:1,0:0:0:0:
478,310,8822,6,0,P|425:325|355:305,1,110,4|0,0:0|0:0,0:0:0:0:
325,285,9345,2,0,P|269:271|212:288,1,110,4|0,0:0|0:0,0:0:0:0:
173,314,9868,1,4,0:0:0:0:
84,247,10217,6,0,P|65:149|138:177,1,220,4|4,0:0|0:0,0:0:0:0:
137,175,11612,6,0,L|262:151,1,110,8|8,0:2|0:0,0:0:0:0:
314,68,12310,2,0,P|371:64|422:90,1,110,8|8,0:2|0:0,0:0:0:0:
460,121,12833,1,0,0:0:0:0:
460,121,13008,6,0,P|445:166|458:241,1,110,8|8,0:2|0:0,0:0:0:0:
475,277,13531,1,0,0:0:0:0:
475,277,13705,2,0,L|347:268,1,110,8|8,0:2|0:0,0:0:0:0:
281,340,14403,5,8,0:2:0:0:
172,357,14752,1,8,0:0:0:0:
81,295,15101,2,0,P|80:233|63:175,1,110,8|8,0:2|0:2,0:0:0:0:
54,133,15624,1,8,0:0:0:0:
54,133,15798,6,0,P|111:137|173:114,1,110,8|8,0:2|0:0,0:0:0:0:
205,88,16322,1,0,0:0:0:0:
205,88,16496,2,0,B|315:94,1,110,8|8,0:2|0:0,0:0:0:0:
424,105,17194,5,4,0:0:0:0:
384,207,17543,1,8,0:0:0:0:
409,313,17891,2,0,P|346:314|299:341,1,110,8|8,0:2|0:0,0:0:0:0:
257,364,18415,1,0,0:0:0:0:
257,364,18589,6,0,P|173:336|142:342,1,110,8|8,0:2|0:0,0:0:0:0:
100,350,19112,1,0,0:0:0:0:
100,350,19287,2,0,L|87:220,1,110,8|8,0:2|0:0,0:0:0:0:
25,150,19984,6,0,P|114:133|150:150,1,110,10|8,0:0|0:2,0:0:0:0:
178,163,20508,2,0,L|291:146,1,110,10|8,0:0|0:2,0:0:0:0:
339,131,21031,1,10,0:0:0:0:
308,23,21380,6,0,P|375:26|446:105,1,165,8|8,0:1|0:1,0:0:0:0:
437,143,22077,2,0,B|419:191|419:191|437:272,1,110,8|8,0:0|0:0,0:0:0:0:
369,339,22775,6,0,P|315:311|256:315,1,110,4|8,0:0|0:0,0:0:0:0:
163,351,23473,2,0,P|102:358|49:334,1,110,8|8,0:2|0:0,0:0:0:0:
23,297,23996,1,0,0:0:0:0:
23,297,24170,6,0,L|32:179,1,110,8|8,0:2|0:0,0:0:0:0:
43,133,24694,1,0,0:0:0:0:
43,133,24868,2,0,P|89:92|109:34,1,110,8|8,0:2|0:0,0:0:0:0:
215,27,25566,5,4,0:2:0:0:
308,85,25915,1,8,0:0:0:0:
414,56,26263,2,0,P|460:97|480:155,1,110,8|8,0:2|0:2,0:0:0:0:
465,194,26787,1,8,0:0:0:0:
465,194,26961,6,0,P|445:250|451:313,1,110,8|8,0:2|0:0,0:0:0:0:
456,354,27484,1,0,0:0:0:0:
456,354,27659,2,0,P|384:340|330:353,1,110,8|8,0:2|0:0,0:0:0:0:
242,373,28356,5,4,0:0:0:0:
134,348,28705,1,8,0:0:0:0:
63,263,29054,2,0,P|61:201|32:136,1,110,8|8,0:2|0:0,0:0:0:0:
20,106,29577,1,0,0:0:0:0:
20,106,29752,6,0,P|78:103|135:75,1,110,8|8,0:2|0:0,0:0:0:0:
173,56,30275,1,0,0:0:0:0:
173,56,30450,2,0,L|191:187,1,110,8|8,0:2|0:0,0:0:0:0:
212,272,31147,6,0,P|260:244|332:257,1,110,8|8,0:0|0:2,0:0:0:0:
366,261,31670,2,0,P|358:206|393:143,1,110,8|8,0:0|0:2,0:0:0:0:
417,117,32194,1,8,0:0:0:0:
324,56,32543,6,0,B|226:30|208:107|87:57,1,220,8|0,0:0|0:0,0:0:0:0:
108,64,33938,6,0,P|84:118|95:180,1,110,4|8,0:0|0:2,0:0:0:0:
180,229,34636,2,0,P|235:209|294:214,1,110,8|8,0:2|0:2,0:0:0:0:
393,233,35333,1,8,0:2:0:0:
458,144,35682,1,8,0:2:0:0:
385,61,36031,1,8,0:2:0:0:
289,114,36380,1,8,0:2:0:0:
196,55,36729,6,0,P|135:52|75:81,1,110,8|8,0:2|0:2,0:0:0:0:
27,160,37426,2,0,P|57:210|58:269,1,110,8|8,0:2|0:2,0:0:0:0:
149,325,38124,2,0,P|152:270|181:224,2,110,8|8|8,0:2|0:2|0:2,0:0:0:0:
257,306,39170,1,8,0:2:0:0:
325,220,39519,6,0,P|365:217|444:241,1,110,8|8,0:2|0:2,0:0:0:0:
509,156,40217,2,0,P|492:103|494:48,1,110,8|8,0:2|0:2,0:0:0:0:
387,21,40915,1,8,0:2:0:0:
323,110,41263,1,8,0:2:0:0:
255,23,41612,1,8,0:2:0:0:
204,120,41961,1,8,0:2:0:0:
128,40,42310,6,0,P|56:39|9:62,1,110,8|8,0:2|0:2,0:0:0:0:
83,145,43008,2,0,P|96:195|91:263,1,110,8|8,0:2|0:2,0:0:0:0:
159,340,43705,2,0,B|216:336|216:336|225:330|225:330|287:324,1,110,8|8,0:2|0:2,0:0:0:0:
373,356,44403,2,0,P|429:344|477:297,1,110,8|8,0:2|0:2,0:0:0:0:
380,244,45101,6,0,B|361:194|361:194|370:128,2,110,4|8|8,0:0|0:2|0:2,0:0:0:0:
468,178,46147,1,8,0:2:0:0:
440,71,46496,2,0,B|393:42|393:42|325:46,2,110,4|8|8,0:0|0:2|0:2,0:0:0:0:
365,152,47543,1,8,0:2:0:0:
265,106,47891,2,0,B|243:50|243:50|257:-3,2,110,4|8|8,0:0|0:2|0:2,0:0:0:0:
200,195,48938,1,8,0:2:0:0:
110,130,49287,6,0,B|85:158|85:158|97:241,1,110,10|10,0:2|0:2,0:0:0:0:
173,307,49984,2,0,B|201:285|201:285|278:293,1,110,10|10,0:2|0:2,0:0:0:0:
387,297,50682,6,0,B|401:242|401:242|375:184,2,110,4|8|8,0:0|0:2|0:2,0:0:0:0:
290,244,51729,1,8,0:2:0:0:
308,135,52077,2,0,B|358:106|358:106|412:108,2,110,4|8|8,0:0|0:2|0:2,0:0:0:0:
385,213,53124,1,8,0:2:0:0:
313,296,53473,6,0,B|272:302|272:302|245:296|245:296|180:302,1,110,10|8,0:0|0:2,0:0:0:0:
149,302,53996,2,0,B|161:263|161:263|129:194,1,110,10|8,0:0|0:2,0:0:0:0:
105,151,54519,1,10,0:0:0:0:
116,40,54868,6,0,B|175:41|205:97|205:97|233:38|311:42,1,220,8|8,0:1|0:0,0:0:0:0:
291,42,56263,6,0,P|360:57|395:43,1,110,4|8,0:0|0:0,0:0:0:0:
494,93,56961,2,0,L|482:209,1,110,8|8,0:2|0:0,0:0:0:0:
472,256,57484,1,0,0:0:0:0:
472,256,57659,6,0,P|405:246|349:268,1,110,8|8,0:2|0:0,0:0:0:0:
318,287,58182,1,0,0:0:0:0:
318,287,58356,2,0,P|252:302|200:287,1,110,8|8,0:2|0:0,0:0:0:0:
121,230,59054,5,4,0:0:0:0:
137,121,59403,1,8,0:0:0:0:
30,148,59752,2,0,P|3:195|2:251,1,110,8|8,0:2|0:2,0:0:0:0:
32,295,60275,1,8,0:0:0:0:
32,295,60450,6,0,P|80:288|148:315,1,110,8|8,0:2|0:0,0:0:0:0:
186,333,60973,1,0,0:0:0:0:
186,333,61147,2,0,L|310:321,1,110,8|8,0:2|0:0,0:0:0:0:
398,361,61845,5,4,0:0:0:0:
481,292,62194,1,8,0:0:0:0:
403,214,62543,2,0,P|393:153|407:95,1,110,8|8,0:2|0:0,0:0:0:0:
420,54,63066,1,0,0:0:0:0:
420,54,63240,6,0,P|354:59|307:45,1,110,8|8,0:2|0:0,0:0:0:0:
258,34,63763,1,0,0:0:0:0:
258,34,63938,2,0,L|144:48,1,110,8|8,0:2|0:0,0:0:0:0:
65,120,64636,6,0,B|75:164|75:164|67:191|67:191|78:235|78:235,1,110,10|8,0:0|0:2,0:0:0:0:
98,277,65159,2,0,P|134:246|206:251,1,110,10|8,0:0|0:2,0:0:0:0:
243,270,65682,1,10,0:0:0:0:
353,267,66031,6,0,B|371:198|342:152|288:133|288:133|274:164|244:190,1,220,8|8,0:1|0:0,0:0:0:0:
185,94,67077,1,8,0:0:0:0:
282,42,67426,6,0,P|339:59|393:98,1,110,4|8,0:0|0:0,0:0:0:0:
450,171,68124,2,0,P|430:227|440:287,1,110,8|8,0:2|0:0,0:0:0:0:
451,329,68647,1,0,0:0:0:0:
451,329,68822,6,0,P|393:314|332:329,1,110,8|8,0:2|0:0,0:0:0:0:
295,348,69345,1,0,0:0:0:0:
295,348,69519,2,0,L|167:330,1,110,8|8,0:2|0:0,0:0:0:0:
79,359,70217,5,4,0:0:0:0:
74,249,70566,1,8,0:0:0:0:
18,153,70915,2,0,P|11:97|46:39,1,110,8|8,0:2|0:2,0:0:0:0:
80,20,71438,1,8,0:0:0:0:
80,20,71612,6,0,P|134:43|192:38,1,110,8|8,0:2|0:0,0:0:0:0:
237,23,72136,1,0,0:0:0:0:
237,23,72310,2,0,L|365:32,1,110,8|8,0:2|0:0,0:0:0:0:
453,59,73008,5,4,0:0:0:0:
393,151,73356,1,8,0:0:0:0:
467,231,73705,2,0,P|476:277|463:341,1,110,8|8,0:2|0:0,0:0:0:0:
419,370,74229,1,0,0:0:0:0:
419,370,74403,6,0,P|364:348|310:355,1,110,8|8,0:2|0:0,0:0:0:0:
260,362,74926,1,0,0:0:0:0:
260,362,75101,2,0,L|141:335,1,110,8|8,0:2|0:0,0:0:0:0:
70,264,75798,6,0,B|67:226|67:226|75:206|75:206|66:148,1,110,10|8,0:0|0:2,0:0:0:0:
69,100,76322,2,0,P|136:111|188:83,1,110,10|8,0:0|0:2,0:0:0:0:
214,58,76845,1,10,0:0:0:0:
302,123,77194,6,0,P|388:138|470:42,1,220,8|8,0:1|0:0,0:0:0:0:
361,23,78240,1,8,0:0:0:0:
302,123,78589,6,0,L|319:242,1,110,4|8,0:0|0:0,0:0:0:0:
242,312,79287,2,0,L|178:301,1,55,8|8,0:2|0:2,0:0:0:0:
133,293,79636,1,8,0:0:0:0:
48,222,79984,6,0,P|47:156|27:107,1,110,8|8,0:2|0:0,0:0:0:0:
85,18,80682,1,8,0:2:0:0:
177,77,81031,1,8,0:0:0:0:
278,35,81380,6,0,P|330:18|384:27,1,110,4|8,0:0|0:0,0:0:0:0:
468,96,82077,2,0,L|459:168,1,55,8|8,0:2|0:2,0:0:0:0:
452,205,82426,1,8,0:0:0:0:
394,298,82775,6,0,P|347:316|286:307,1,110,4|8,0:0|0:0,0:0:0:0:
196,248,83473,2,0,L|139:258,1,55,8|8,0:2|0:2,0:0:0:0:
88,271,83822,1,8,0:0:0:0:
62,164,84170,6,0,P|67:95|54:47,1,110,4|8,0:0|0:0,0:0:0:0:
167,47,84868,2,0,L|231:27,1,55,8|8,0:2|0:2,0:0:0:0:
271,12,85217,1,8,0:0:0:0:
370,60,85566,6,0,P|348:106|359:173,1,110,8|8,0:2|0:0,0:0:0:0:
412,256,86263,1,8,0:2:0:0:
342,341,86612,1,8,0:0:0:0:
242,294,86961,6,0,P|186:289|115:291,1,110,4|8,0:0|0:0,0:0:0:0:
38,231,87659,2,0,L|29:168,1,55,8|8,0:2|0:2,0:0:0:0:
25,121,88008,1,8,0:0:0:0:
74,23,88356,6,0,B|118:23|118:23|136:30|136:30|186:32,1,110,4|8,0:0|0:0,0:0:0:0:
278,86,89054,2,0,L|347:73,1,55,8|8,0:2|0:2,0:0:0:0:
385,61,89403,1,8,0:0:0:0:
455,145,89752,6,0,B|471:203|471:203|450:254,2,110,4|8|8,0:0|0:0|0:0,0:0:0:0:
361,202,90798,1,8,0:0:0:0:
376,310,91147,2,0,B|419:343|419:343|485:341,2,110,4|8|8,0:0|0:0|0:0,0:0:0:0:
281,252,92194,1,8,0:0:0:0:
193,318,92543,2,0,B|150:351|150:351|84:349,2,110,4|8|8,0:0|0:0|0:0,0:0:0:0:
112,243,93589,1,0,0:0:0:0:
34,165,93938,6,0,B|27:126|27:126|42:95|42:95|33:52,1,110,14|10,0:0|0:0,0:0:0:0:
143,42,94636,2,0,B|184:66|212:30|274:54,1,110,10|10,0:0|0:0,0:0:0:0:
309,140,95333,6,0,B|288:196|288:196|306:245,2,110,4|8|8,0:0|0:0|0:0,0:0:0:0:
405,193,96380,1,8,0:0:0:0:
387,301,96729,2,0,B|345:333|345:333|282:334,2,110,4|8|8,0:0|0:0|0:0,0:0:0:0:
305,226,97775,1,8,0:0:0:0:
204,270,98124,6,0,P|150:269|91:233,1,110,6|8,0:0|0:2,0:0:0:0:
69,198,98647,2,0,B|74:149|74:149|68:133|68:133|74:79,1,110,10|8,0:0|0:2,0:0:0:0:
82,35,99170,1,10,0:0:0:0:
185,73,99519,6,0,B|266:105|266:105|332:58|412:92,1,220,8|8,0:1|0:0,0:0:0:0:
392,84,102310,6,0,P|417:149|416:210,1,110,4|8,0:0|0:0,0:0:0:0:
361,282,103008,2,0,P|301:268|252:274,1,110,8|8,0:2|0:0,0:0:0:0:
209,306,103531,1,0,0:0:0:0:
209,306,103705,6,0,P|143:313|83:299,1,110,8|8,0:2|0:0,0:0:0:0:
53,275,104229,1,0,0:0:0:0:
53,275,104403,2,0,L|44:147,1,110,8|8,0:2|0:0,0:0:0:0:
96,67,105101,5,4,0:0:0:0:
185,131,105450,1,8,0:0:0:0:
269,60,105798,2,0,P|322:45|393:67,1,110,8|8,0:2|0:2,0:0:0:0:
422,84,106322,1,8,0:0:0:0:
422,84,106496,6,0,P|412:142|430:207,1,110,8|8,0:2|0:0,0:0:0:0:
438,247,107019,1,0,0:0:0:0:
438,247,107194,2,0,L|331:271,1,110,8|8,0:2|0:0,0:0:0:0:
220,264,107891,5,4,0:0:0:0:
159,355,108240,1,8,0:0:0:0:
64,298,108589,2,0,P|50:231|24:183,1,110,8|8,0:2|0:0,0:0:0:0:
6,145,109112,1,0,0:0:0:0:
6,145,109287,6,0,P|55:101|76:53,1,110,8|8,0:2|0:0,0:0:0:0:
105,16,109810,1,0,0:0:0:0:
105,16,109984,2,0,L|220:28,1,110,8|8,0:2|0:0,0:0:0:0:
297,100,110682,6,0,B|364:107|364:107|415:85,1,110,10|8,0:0|0:2,0:0:0:0:
456,75,111205,2,0,P|439:120|459:186,1,110,10|8,0:0|0:2,0:0:0:0:
482,226,111729,1,10,0:0:0:0:
387,281,112077,6,0,B|325:281|325:281|285:255|285:255|239:282|239:282|168:281,1,220,8|8,0:1|0:0,0:0:0:0:
204,173,113124,1,8,0:0:0:0:
152,75,113473,6,0,P|103:68|36:89,1,110,4|8,0:0|0:0,0:0:0:0:
11,188,114170,2,0,P|32:235|33:303,1,110,8|8,0:2|0:0,0:0:0:0:
37,348,114694,1,0,0:0:0:0:
37,348,114868,6,0,P|95:338|158:358,1,110,8|8,0:2|0:0,0:0:0:0:
192,375,115391,1,0,0:0:0:0:
192,375,115566,2,0,L|308:367,1,110,8|8,0:2|0:0,0:0:0:0:
411,357,116263,5,4,0:0:0:0:
472,266,116612,1,8,0:0:0:0:
387,195,116961,2,0,P|377:137|387:84,1,110,8|8,0:2|0:2,0:0:0:0:
400,33,117484,1,8,0:0:0:0:
400,33,117659,6,0,P|343:15|282:24,1,110,8|8,0:2|0:0,0:0:0:0:
243,44,118182,1,0,0:0:0:0:
243,44,118356,2,0,L|116:38,1,110,8|8,0:2|0:0,0:0:0:0:
22,45,119054,5,4,0:0:0:0:
82,137,119403,1,8,0:0:0:0:
15,224,119752,2,0,P|9:287|32:340,1,110,8|8,0:2|0:0,0:0:0:0:
73,357,120275,1,0,0:0:0:0:
73,357,120450,6,0,P|129:341|198:353,1,110,8|8,0:2|0:0,0:0:0:0:
230,373,120973,1,0,0:0:0:0:
230,373,121147,2,0,L|342:359,1,110,8|8,0:2|0:0,0:0:0:0:
433,302,121845,6,0,B|429:260|429:260|439:238|439:238|436:173,1,110,10|8,0:0|0:2,0:0:0:0:
427,140,122368,2,0,P|357:138|311:114,1,110,10|8,0:0|0:2,0:0:0:0:
280,84,122891,1,10,0:0:0:0:
185,28,123240,6,0,B|145:55|115:105|143:181|143:181|211:167,1,220,8|8,0:1|0:0,0:0:0:0:
199,281,124287,1,8,0:0:0:0:
89,269,124636,6,0,P|58:220|47:148,1,110,4|8,0:0|0:1,0:0:0:0:
40,59,125333,1,8,0:2:0:0:
148,39,125682,1,8,0:1:0:0:
148,39,125856,2,0,L|215:44,1,55,0|8,0:0|0:2,0:0:0:0:
307,77,126380,1,8,0:1:0:0:
410,38,126729,2,0,L|423:107,1,55,8|0,0:2|0:0,0:0:0:0:
467,120,127077,2,0,L|456:183,1,55,8|0,0:1|0:0,0:0:0:0:
445,228,127426,6,0,P|383:212|321:230,1,110,4|8,0:0|0:1,0:0:0:0:
260,304,128124,1,8,0:2:0:0:
150,319,128473,1,8,0:1:0:0:
150,319,128647,2,0,L|141:256,1,55,0|8,0:0|0:2,0:0:0:0:
48,206,129170,1,8,0:1:0:0:
87,103,129519,2,0,P|121:95|155:95,1,55,8|0,0:2|0:0,0:0:0:0:
182,121,129868,2,0,P|218:126|257:129,1,55,8|0,0:1|0:0,0:0:0:0:
291,132,130217,6,0,P|272:178|277:247,1,110,4|8,0:0|0:1,0:0:0:0:
320,337,130915,1,8,0:2:0:0:
429,324,131263,1,8,0:1:0:0:
429,324,131438,2,0,L|437:258,1,55,0|8,0:0|0:2,0:0:0:0:
494,176,131961,1,8,0:1:0:0:
466,69,132310,2,0,L|403:58,1,55,8|0,0:2|0:0,0:0:0:0:
359,41,132659,2,0,L|291:49,1,55,8|0,0:1|0:0,0:0:0:0:
269,89,133008,6,0,P|226:102|152:88,1,110,12|8,0:0|0:0,0:0:0:0:
76,24,133705,1,8,0:0:0:0:
0,100,134054,1,8,0:0:0:0:
80,174,134403,2,0,L|85:239,1,55,10|8,0:0|0:1,0:0:0:0:
131,270,134752,2,0,L|134:333,1,55,8|8,0:1|0:1,0:0:0:0:
144,379,135101,2,0,B|186:343|186:343|311:374,1,165,10|8,0:0|0:0,0:0:0:0:
346,380,135798,6,0,P|331:315|340:257,1,110,4|8,0:0|0:0,0:0:0:0:
387,175,136496,2,0,P|396:112|384:53,1,110,8|8,0:2|0:0,0:0:0:0:
294,8,137194,1,8,0:2:0:0:
209,78,137543,1,8,0:0:0:0:
105,41,137891,1,8,0:2:0:0:
30,122,138240,1,8,0:0:0:0:
89,214,138589,6,0,P|108:252|112:337,1,110,4|8,0:0|0:0,0:0:0:0:
215,363,139287,2,0,P|262:349|327:343,1,110,8|8,0:2|0:0,0:0:0:0:
432,340,139984,2,0,B|443:296|443:296|429:272|429:272|438:222,1,110,8|8,0:2|0:0,0:0:0:0:
490,139,140682,1,8,0:2:0:0:
418,55,141031,1,8,0:0:0:0:
315,95,141380,6,0,P|256:102|200:75,1,110,4|8,0:0|0:0,0:0:0:0:
107,44,142077,2,0,P|114:94|104:160,1,110,8|8,0:2|0:0,0:0:0:0:
68,256,142775,6,0,B|117:239|117:239|187:265,1,110,4|8,0:0|0:0,0:0:0:0:
264,318,143473,1,8,0:2:0:0:
371,295,143822,2,0,L|438:269,1,55,8|0,0:0|0:0,0:0:0:0:
469,247,144170,6,0,B|436:207|436:207|454:132,1,110,12|8,0:0|0:1,0:0:0:0:
451,94,144694,1,8,0:2:0:0:
451,94,144868,2,0,P|396:78|324:87,1,110,8|8,0:0|0:1,0:0:0:0:
295,107,145391,1,8,0:2:0:0:
295,107,145566,6,0,B|247:105|247:105|235:109|235:109|175:107,1,110,8|8,0:0|0:1,0:0:0:0:
130,107,146089,1,8,0:2:0:0:
130,107,146263,6,0,B|83:225|156:205|135:328,1,220,10|0,0:0|0:0,0:0:0:0:
75,100,158124,5,8,0:1:0:0:
178,62,158473,1,8,0:1:0:0:
218,164,158822,1,8,0:1:0:0:
314,112,159170,1,8,0:1:0:0:
314,112,159345,1,8,0:1:0:0:
349,216,159694,1,0,0:0:0:0:
349,216,159868,2,0,P|407:197|468:200,2,110,8|8|8,0:2|0:2|0:2,0:0:0:0:
284,305,160915,5,8,0:1:0:0:
185,257,161263,1,8,0:1:0:0:
115,342,161612,1,8,0:1:0:0:
35,265,161961,1,8,0:1:0:0:
35,265,162136,1,8,0:1:0:0:
100,176,162484,1,0,0:0:0:0:
100,176,162659,2,0,P|93:120|64:70,2,110,8|8|8,0:2|0:2|0:2,0:0:0:0:
179,252,163705,5,8,0:1:0:0:
263,181,164054,1,8,0:1:0:0:
235,74,164403,1,8,0:1:0:0:
338,35,164752,1,8,0:1:0:0:
338,35,164926,1,8,0:1:0:0:
428,96,165275,1,0,0:0:0:0:
428,96,165450,2,0,P|409:146|407:212,2,110,8|8|8,0:2|0:2|0:2,0:0:0:0:
338,35,166496,6,0,B|275:20|275:20|233:37|233:37|159:24,2,165,4|0|0,0:0|0:0|0:0,0:0:0:0:
286,132,167891,6,0,B|247:183|247:183|268:301,1,165,4|8,0:0|0:1,0:0:0:0:
275,336,168589,2,0,P|213:321|109:350,1,165,8|8,0:1|0:1,0:0:0:0:
61,351,169287,2,0,B|94:285|35:264|66:180,1,165,8|8,0:1|0:1,0:0:0:0:
84,139,169984,1,8,0:0:0:0:
84,139,170682,6,0,P|141:153|208:137,1,110,4|8,0:0|0:0,0:0:0:0:
278,77,171380,2,0,P|340:71|398:95,1,110,8|8,0:2|0:0,0:0:0:0:
427,121,171903,1,0,0:0:0:0:
427,121,172077,6,0,P|399:178|402:233,1,110,8|8,0:2|0:0,0:0:0:0:
408,278,172601,1,0,0:0:0:0:
408,278,172775,2,0,L|293:302,1,110,8|8,0:2|0:0,0:0:0:0:
200,252,173473,5,4,0:0:0:0:
107,311,173822,1,8,0:0:0:0:
29,232,174170,2,0,P|22:172|37:113,1,110,8|8,0:2|0:2,0:0:0:0:
66,80,174694,1,8,0:0:0:0:
66,80,174868,6,0,P|111:93|185:73,1,110,8|8,0:2|0:0,0:0:0:0:
220,54,175391,1,0,0:0:0:0:
220,54,175566,2,0,L|332:55,1,110,8|8,0:2|0:0,0:0:0:0:
435,23,176263,5,4,0:0:0:0:
510,102,176612,1,8,0:0:0:0:
448,193,176961,2,0,P|427:252|435:313,1,110,8|8,0:2|0:0,0:0:0:0:
433,353,177484,1,0,0:0:0:0:
433,353,177659,6,0,P|363:334|307:346,1,110,8|8,0:2|0:0,0:0:0:0:
272,349,178182,1,0,0:0:0:0:
272,349,178356,2,0,L|258:228,1,110,8|8,0:2|0:0,0:0:0:0:
324,150,179054,6,0,B|272:122|272:122|199:139,1,110,8|8,0:0|0:2,0:0:0:0:
178,166,179577,2,0,P|128:187|66:175,1,110,8|8,0:0|0:2,0:0:0:0:
19,171,180101,1,8,0:0:0:0:
55,274,180450,6,0,B|138:295|215:254|215:254|260:293,1,220,8|8,0:1|0:0,0:0:0:0:
343,358,181496,1,8,0:0:0:0:
439,304,181845,6,0,B|423:260|423:260|438:178,1,110,4|8,0:0|0:0,0:0:0:0:
512,124,182543,2,0,B|509:49|509:49|467:8,1,110,8|8,0:2|0:0,0:0:0:0:
428,25,183066,1,0,0:0:0:0:
428,25,183240,6,0,P|384:43|308:31,1,110,8|8,0:2|0:0,0:0:0:0:
267,35,183763,1,0,0:0:0:0:
267,35,183938,2,0,B|281:91|281:91|267:146,1,110,8|8,0:2|0:0,0:0:0:0:
159,162,184636,5,4,0:0:0:0:
50,176,184984,1,8,0:0:0:0:
46,285,185333,2,0,B|86:325|86:325|151:319,1,110,8|8,0:2|0:2,0:0:0:0:
188,301,185856,1,8,0:0:0:0:
188,301,186031,6,0,P|237:287|306:301,1,110,8|8,0:2|0:0,0:0:0:0:
348,315,186554,1,0,0:0:0:0:
348,315,186729,2,0,B|343:253|343:253|381:204,1,110,8|8,0:2|0:0,0:0:0:0:
453,140,187426,5,4,0:0:0:0:
416,36,187775,1,8,0:0:0:0:
331,106,188124,2,0,B|290:121|290:121|218:87,1,110,8|8,0:2|0:0,0:0:0:0:
182,64,188647,1,0,0:0:0:0:
182,64,188822,6,0,P|136:49|69:63,1,110,8|8,0:2|0:0,0:0:0:0:
33,93,189345,1,0,0:0:0:0:
33,93,189519,2,0,B|56:130|56:130|55:213,1,110,8|8,0:2|0:0,0:0:0:0:
59,308,190217,6,0,B|103:301|103:301|121:311|121:311|179:301,1,110,8|8,0:0|0:2,0:0:0:0:
210,270,190740,2,0,B|253:251|253:251|317:281,1,110,8|8,0:0|0:2,0:0:0:0:
354,310,191263,1,8,0:0:0:0:
430,231,191612,6,0,P|384:139|355:215,1,220,8|8,0:1|0:0,0:0:0:0:
255,139,192659,1,8,0:0:0:0:
176,215,193008,5,8,0:1:0:0:
101,134,193356,1,8,0:1:0:0:
28,216,193705,2,0,B|63:245|63:245|70:320,1,110,8|8,0:1|0:0,0:0:0:0:
74,364,194229,1,4,0:0:0:0:
183,361,194577,1,8,0:1:0:0:
269,293,194926,2,0,L|327:316,1,55,8|4,0:1|0:0,0:0:0:0:
