osu file format v14

[General]
AudioFilename: audio.mp3
AudioLeadIn: 0
PreviewTime: 26449
Countdown: 0
SampleSet: Normal
StackLeniency: 0.7
Mode: 2
LetterboxInBreaks: 0
WidescreenStoryboard: 0

[Editor]
DistanceSpacing: 1
BeatDivisor: 4
GridSize: 32
TimelineZoom: 1

[Metadata]
Title:Samyy luchshiy emo punk
TitleUnicode:Самый лучший эмо панк
Artist:POSHLAYA MOLLY
ArtistUnicode:ПОШЛАЯ МОЛЛИ
Creator:Lacrima
Version:PAYCHECK
Source:
Tags:pank pop myle Pop-Rock Alternative Rock Pop-Punk russian русский рок поп панк Кирилл Бледный PAYCHECK
BeatmapID:3361516
BeatmapSetID:1646873

[Difficulty]
HPDrainRate:6
CircleSize:4
OverallDifficulty:8.3
ApproachRate:8.3
SliderMultiplier:2.4
SliderTickRate:2

[Events]
//Background and Video events
0,0,"59919008_p0.png",0,0
//Break Periods
2,153702,159156
//Storyboard Layer 0 (Background)
//Storyboard Layer 1 (Fail)
//Storyboard Layer 2 (Pass)
//Storyboard Layer 3 (Foreground)
//Storyboard Layer 4 (Overlay)
//Storyboard Sound Samples

[TimingPoints]
920,397.350993377483,4,1,0,70,1,0
27939,-100,4,1,0,70,0,1
53370,-100,4,1,0,70,0,0
78800,-100,4,1,0,70,0,1
102443,-100,4,1,0,70,0,0
104231,-100,4,1,0,70,0,1
126482,-100,4,1,0,70,0,0
159860,-100,4,1,0,50,0,0
177343,-100,4,1,0,70,0,0
178933,-100,4,1,0,70,0,1
204363,-100,4,1,0,40,0,0

[Colours]
Combo1 : 72,160,183
Combo2 : 51,79,108
Combo3 : 53,95,52
Combo4 : 116,116,116

[HitObjects]
331,140,921,6,0,L|193:140,2,120,0|0|8,0:0|0:0|0:0,0:0:0:0:
176,138,1516,1,0,0:0:0:0:
331,140,1714,2,0,L|81:140,1,240,0|8,0:0|0:0,0:0:0:0:
331,140,2509,6,0,L|338:276,1,120
168,62,2906,2,0,L|175:198,1,120,8|0,0:0|0:0,0:0:0:0:
345,331,3304,2,0,L|101:328,1,240,0|8,0:0|0:0,0:0:0:0:
345,331,4098,6,0,L|514:316,2,120,0|0|8,0:0|0:0|0:0,0:0:0:0:
171,227,4694,1,0,0:0:0:0:
345,331,4893,2,0,L|92:338,1,240,0|8,0:0|0:0,0:0:0:0:
268,167,5489,1,0,0:0:0:0:
105,337,5688,6,0,L|226:329,1,120
494,203,6085,2,0,L|373:195,1,120,8|0,0:0|0:0,0:0:0:0:
105,337,6482,2,0,L|226:329,1,120,8|0,0:0|0:0,0:0:0:0:
494,203,6880,2,0,L|373:195,1,120,8|8,0:0|0:0,0:0:0:0:
92,225,7277,6,0,L|230:213,2,120,0|0|8,0:0|0:0|0:0,0:0:0:0:
270,305,7873,1,0,0:0:0:0:
92,225,8072,2,0,L|343:210,1,240,0|8,0:0|0:0,0:0:0:0:
94,154,8867,5,0,0:0:0:0:
213,161,9065,2,0,L|223:289,1,120,0|8,0:0|0:0,0:0:0:0:
401,280,9463,1,0,0:0:0:0:
240,368,9661,2,0,L|-17:380,1,240,0|8,0:0|0:0,0:0:0:0:
243,219,10456,6,0,L|253:93,1,120
84,101,10853,2,0,L|221:100,1,120,8|0,0:0|0:0,0:0:0:0:
386,315,11251,2,0,L|248:313,3,120,0|0|8|0,0:0|0:0|0:0|0:0,0:0:0:0:
91,235,12045,6,0,L|89:114,1,120
358,283,12443,2,0,L|484:284,1,120,8|0,0:0|0:0,0:0:0:0:
154,283,12840,2,0,L|28:284,1,120,8|0,0:0|0:0,0:0:0:0:
345,178,13237,2,8,L|363:94,3,60
155,268,13635,6,0,P|23:261|11:264,1,120,6|0,0:0|0:0,0:0:0:0:
218,230,14032,2,0,L|224:105,1,120,10|0,0:0|0:0,0:0:0:0:
404,200,14429,2,0,L|410:75,1,120,2|0,0:0|0:0,0:0:0:0:
236,376,14827,2,0,L|242:251,1,120,10|0,0:0|0:0,0:0:0:0:
424,248,15224,5,2,0:0:0:0:
240,147,15621,2,0,L|232:13,1,120,10|0,0:0|0:0,0:0:0:0:
495,70,16019,1,2,0:0:0:0:
133,178,16814,5,0,0:0:0:0:
307,283,17012,2,0,L|426:280,2,120,0|8|0,0:0|0:0|0:0,0:0:0:0:
136,135,17608,2,0,L|291:132,1,120
432,273,18006,2,0,L|277:270,1,120,8|0,0:0|0:0,0:0:0:0:
25,332,18403,6,0,L|298:329,1,240,0|8,0:0|0:0,0:0:0:0:
106,262,18999,1,0,0:0:0:0:
383,169,19198,2,0,L|399:41,1,120,8|0,0:0|0:0,0:0:0:0:
106,262,19595,2,8,L|90:134,1,120
397,49,19992,6,0,L|261:47,3,120,0|0|8|0,0:0|0:0|0:0|0:0,0:0:0:0:
109,179,20787,2,0,L|245:177,3,120,0|0|8|0,0:0|0:0|0:0|0:0,0:0:0:0:
408,353,21582,6,0,L|140:346,1,240,0|8,0:0|0:0,0:0:0:0:
344,212,22178,1,0,0:0:0:0:
174,50,22376,2,0,P|114:73|186:187,1,240,0|8,0:0|0:0,0:0:0:0:
352,186,22972,1,0,0:0:0:0:
176,198,23171,6,0,L|32:197,1,120
234,284,23569,2,0,L|378:283,1,120,8|0,0:0|0:0,0:0:0:0:
176,173,23966,2,0,L|460:167,1,240,0|8,0:0|0:0,0:0:0:0:
241,95,24562,1,0,0:0:0:0:
414,105,24761,2,0,L|427:240,1,120
135,272,25158,6,0,L|-5:276,1,120,8|0,0:0|0:0,0:0:0:0:
305,272,25555,2,0,L|445:276,1,120,8|0,0:0|0:0,0:0:0:0:
135,272,25953,2,0,L|-5:276,2,120,8|0|0,0:0|0:0|0:0,0:0:0:0:
394,228,26549,5,8,0:0:0:0:
135,272,26747,2,0,L|133:143,1,120,8|0,0:0|0:0,0:0:0:0:
390,230,27145,2,0,L|519:224,1,120,8|0,0:0|0:0,0:0:0:0:
135,272,27542,1,8,0:0:0:0:
396,322,27939,6,0,L|99:323,1,240,4|8,0:0|0:0,0:0:0:0:
318,198,28535,1,0,0:0:0:0:
145,153,28734,2,0,L|130:31,1,120,2|0,0:0|0:0,0:0:0:0:
397,310,29131,2,0,L|412:188,1,120,8|0,0:0|0:0,0:0:0:0:
147,238,29529,5,2,0:0:0:0:
308,113,29727,1,0,0:0:0:0:
147,238,29926,2,0,L|142:105,1,120,8|0,0:0|0:0,0:0:0:0:
319,262,30323,2,0,L|460:257,1,120,2|0,0:0|0:0,0:0:0:0:
160,320,30721,2,8,L|19:315,1,120
329,348,31118,6,0,P|405:301|296:222,1,240,2|8,0:0|0:0,0:0:0:0:
151,184,31714,1,0,0:0:0:0:
328,208,31913,2,0,L|321:339,1,120,2|0,0:0|0:0,0:0:0:0:
140,176,32310,2,0,L|133:45,1,120,8|0,0:0|0:0,0:0:0:0:
393,253,32708,6,0,L|538:249,1,120,2|0,0:0|0:0,0:0:0:0:
256,224,33105,2,0,L|401:220,1,120,8|0,0:0|0:0,0:0:0:0:
119,253,33502,2,0,L|-26:249,1,120,10|0,0:0|0:0,0:0:0:0:
267,187,33900,2,8,L|360:187,1,60
119,132,34098,2,8,L|26:132,1,60
333,133,34297,6,0,P|410:222|289:263,1,240,2|8,0:0|0:0,0:0:0:0:
157,280,34893,1,0,0:0:0:0:
328,287,35092,2,0,L|191:287,1,120,2|0,0:0|0:0,0:0:0:0:
481,176,35489,2,0,L|341:175,1,120,8|0,0:0|0:0,0:0:0:0:
41,294,35886,6,0,L|175:293,1,120,2|0,0:0|0:0,0:0:0:0:
337,185,36284,2,0,L|176:185,3,120,8|0|2|0,0:0|0:0|0:0|0:0,0:0:0:0:
388,283,37078,2,8,L|536:284,1,120
92,245,37476,6,0,L|339:243,1,240,2|8,0:0|0:0,0:0:0:0:
157,150,38072,2,0,L|29:149,2,120,0|2|0,0:0|0:0|0:0,0:0:0:0:
334,148,38668,2,0,L|340:8,1,120,8|0,0:0|0:0,0:0:0:0:
16,309,39065,6,0,L|188:301,1,120,10|0,0:0|0:0,0:0:0:0:
393,325,39463,2,0,L|565:317,1,120,8|0,0:0|0:0,0:0:0:0:
200,207,39860,2,0,L|28:199,1,120,10|0,0:0|0:0,0:0:0:0:
412,110,40257,2,8,L|330:104,1,60
152,254,40456,2,8,L|70:248,1,60
353,336,40655,6,0,P|425:288|316:197,1,240,2|8,0:0|0:0,0:0:0:0:
174,187,41251,1,0,0:0:0:0:
356,182,41449,1,2,0:0:0:0:
174,187,41648,1,0,0:0:0:0:
356,182,41847,2,0,L|368:326,1,120,8|0,0:0|0:0,0:0:0:0:
56,323,42244,6,0,L|295:322,1,240,2|8,0:0|0:0,0:0:0:0:
121,192,42840,1,0,0:0:0:0:
295,321,43039,2,0,L|304:163,1,120,2|0,0:0|0:0,0:0:0:0:
117,186,43436,2,0,L|126:28,1,120,8|0,0:0|0:0,0:0:0:0:
457,155,43833,6,0,L|203:165,2,240,2|8|2,0:0|0:0|0:0,0:0:0:0:
290,265,44827,1,0,0:0:0:0:
457,155,45025,2,0,L|327:140,1,120,8|0,0:0|0:0,0:0:0:0:
68,196,45423,5,2,0:0:0:0:
338,314,45820,2,0,L|213:309,3,120,8|0|2|0,0:0|0:0|0:0|0:0,0:0:0:0:
387,358,46615,2,0,L|523:354,1,120,8|0,0:0|0:0,0:0:0:0:
161,287,47012,6,0,L|159:152,1,120,2|0,0:0|0:0,0:0:0:0:
339,320,47410,1,8,0:0:0:0:
161,287,47608,1,0,0:0:0:0:
339,320,47807,1,2,0:0:0:0:
161,287,48006,1,0,0:0:0:0:
339,320,48204,2,0,L|347:183,1,120,8|0,0:0|0:0,0:0:0:0:
56,203,48602,6,0,L|218:203,1,120,2|0,0:0|0:0,0:0:0:0:
453,296,48999,2,0,L|310:294,1,120,8|0,0:0|0:0,0:0:0:0:
163,349,49396,2,0,L|306:347,1,120,2|0,0:0|0:0,0:0:0:0:
453,296,49794,2,0,L|468:154,1,120,8|0,0:0|0:0,0:0:0:0:
182,196,50191,6,0,L|323:196,2,120,2|0|8,0:0|0:0|0:0,0:0:0:0:
365,301,50787,2,0,P|439:253|333:162,1,240
196,149,51383,1,8,0:0:0:0:
367,152,51582,2,0,L|371:274,1,120,0|2,0:0|0:0,0:0:0:0:
96,288,51979,5,8,0:0:0:0:
373,273,52178,2,0,L|509:275,1,120,8|0,0:0|0:0,0:0:0:0:
139,273,52575,2,0,L|3:275,1,120,10|0,0:0|0:0,0:0:0:0:
373,273,52972,2,0,L|509:275,1,120,8|0,0:0|0:0,0:0:0:0:
198,115,53370,5,0,0:0:0:0:
83,152,53569,1,0,0:0:0:0:
31,260,53767,1,8,0:0:0:0:
83,152,53966,1,0,0:0:0:0:
198,115,54165,2,0,L|339:114,1,120
149,180,54562,2,0,L|8:179,1,120,8|0,0:0|0:0,0:0:0:0:
203,236,54959,6,0,L|207:383,1,120
379,100,55357,2,0,L|383:247,1,120,8|0,0:0|0:0,0:0:0:0:
209,181,55754,2,0,L|60:178,1,120
89,178,56350,1,0,0:0:0:0:
264,31,56549,5,0,0:0:0:0:
372,73,56747,1,0,0:0:0:0:
418,181,56946,1,8,0:0:0:0:
374,289,57145,1,0,0:0:0:0:
266,333,57343,2,0,L|123:335,2,120,0|0|8,0:0|0:0|0:0,0:0:0:0:
436,242,57939,1,0,0:0:0:0:
259,212,58138,6,0,L|120:212,1,120
319,306,58535,2,0,L|175:306,1,120,8|0,0:0|0:0,0:0:0:0:
18,358,58933,2,0,L|162:358,1,120,8|0,0:0|0:0,0:0:0:0:
315,365,59330,1,8,0:0:0:0:
138,358,59529,1,8,0:0:0:0:
446,284,59727,6,0,L|443:141,1,120
273,116,60125,1,8,0:0:0:0:
440,74,60323,1,0,0:0:0:0:
273,116,60522,2,0,L|116:117,1,120
331,270,60919,2,0,L|488:271,1,120,8|0,0:0|0:0,0:0:0:0:
275,356,61317,6,0,L|271:229,1,120
99,216,61714,2,0,L|95:89,1,120,8|0,0:0|0:0,0:0:0:0:
270,77,62112,1,0,0:0:0:0:
95,96,62310,1,0,0:0:0:0:
95,96,62708,1,0,0:0:0:0:
273,279,62906,6,0,L|395:278,2,120,0|0|8,0:0|0:0|0:0,0:0:0:0:
95,96,63502,1,0,0:0:0:0:
273,279,63701,2,0,L|276:142,1,120
98,178,64098,2,0,L|101:41,1,120,8|0,0:0|0:0,0:0:0:0:
276,208,64496,6,0,L|425:207,1,120
56,316,64893,2,0,L|226:310,1,120,8|0,0:0|0:0,0:0:0:0:
436,276,65290,2,0,L|440:135,1,120,8|0,0:0|0:0,0:0:0:0:
166,128,65688,2,8,L|163:46,3,60
424,304,66085,6,0,L|423:169,1,120,2|0,0:0|0:0,0:0:0:0:
238,288,66482,2,0,L|237:153,1,120,10|0,0:0|0:0,0:0:0:0:
418,75,66880,2,0,L|260:71,1,120,2|0,0:0|0:0,0:0:0:0:
122,217,67277,2,0,L|280:213,1,120,10|0,0:0|0:0,0:0:0:0:
418,75,67674,6,0,L|260:71,1,120,2|0,0:0|0:0,0:0:0:0:
111,57,68072,2,0,L|111:207,1,120,10|0,0:0|0:0,0:0:0:0:
415,221,68469,1,2,0:0:0:0:
84,248,69264,5,0,0:0:0:0:
257,156,69463,2,0,L|384:162,2,120,0|8|0,0:0|0:0|0:0,0:0:0:0:
84,62,70059,2,0,L|216:56,1,120
367,217,70456,2,0,L|499:211,1,120,8|0,0:0|0:0,0:0:0:0:
166,89,70853,6,0,P|109:112|200:223,1,240,0|8,0:0|0:0,0:0:0:0:
341,228,71449,1,0,0:0:0:0:
170,233,71648,2,0,L|431:229,1,240,0|8,0:0|0:0,0:0:0:0:
232,147,72244,1,0,0:0:0:0:
411,268,72443,6,0,L|416:136,1,120
238,362,72840,2,0,L|233:230,1,120,8|0,0:0|0:0,0:0:0:0:
409,319,73237,2,0,L|118:303,1,240,0|8,0:0|0:0,0:0:0:0:
345,222,73833,1,0,0:0:0:0:
172,167,74032,6,0,L|163:35,1,120
340,167,74429,2,0,L|349:35,1,120,8|0,0:0|0:0,0:0:0:0:
169,296,74827,2,0,L|437:297,1,240,0|8,0:0|0:0,0:0:0:0:
236,210,75423,1,0,0:0:0:0:
411,185,75621,6,0,L|418:49,1,120
242,329,76019,2,0,L|235:193,1,120,8|0,0:0|0:0,0:0:0:0:
53,212,76416,2,0,L|60:76,1,120
232,50,76814,1,8,0:0:0:0:
59,92,77012,2,0,L|53:212,1,120,8|0,0:0|0:0,0:0:0:0:
323,251,77410,5,8,0:0:0:0:
49,208,77608,2,0,L|182:208,1,120,8|0,0:0|0:0,0:0:0:0:
463,208,78006,2,0,L|330:208,1,120,8|0,0:0|0:0,0:0:0:0:
49,208,78403,2,0,L|182:208,1,120,8|0,0:0|0:0,0:0:0:0:
486,338,78800,6,0,L|192:344,1,240,6|8,0:0|0:0,0:0:0:0:
71,159,79396,2,0,L|228:159,2,120,0|2|0,0:0|0:0|0:0,0:0:0:0:
247,264,79992,2,0,L|255:125,1,120,8|0,0:0|0:0,0:0:0:0:
512,247,80390,6,0,L|504:108,1,120,2|0,0:0|0:0,0:0:0:0:
332,338,80787,2,0,L|324:199,1,120,8|0,0:0|0:0,0:0:0:0:
154,195,81184,2,0,L|146:56,1,120,2|0,0:0|0:0,0:0:0:0:
462,288,81582,2,0,L|454:149,1,120,8|8,0:0|0:0,0:0:0:0:
94,313,81979,6,0,L|367:303,1,240,2|8,0:0|0:0,0:0:0:0:
161,195,82575,1,0,0:0:0:0:
333,304,82774,2,0,L|344:179,1,120,2|0,0:0|0:0,0:0:0:0:
165,128,83171,2,0,L|11:119,1,120,8|0,0:0|0:0,0:0:0:0:
223,255,83569,6,0,L|377:246,1,120,2|0,0:0|0:0,0:0:0:0:
35,303,83966,2,0,L|23:165,1,120,8|0,0:0|0:0,0:0:0:0:
332,168,84363,2,0,L|348:31,1,120,10|0,0:0|0:0,0:0:0:0:
57,180,84761,2,8,L|161:179,1,60
339,296,84959,2,8,L|412:294,1,60
131,79,85158,6,0,P|66:110|166:207,1,240,2|8,0:0|0:0,0:0:0:0:
315,223,85754,1,0,0:0:0:0:
142,222,85953,2,0,L|9:221,1,120,2|0,0:0|0:0,0:0:0:0:
197,327,86350,2,0,L|330:326,1,120,8|0,0:0|0:0,0:0:0:0:
15,301,86747,6,0,L|11:151,1,120,2|0,0:0|0:0,0:0:0:0:
196,283,87145,2,0,L|322:277,2,120,8|0|2,0:0|0:0|0:0,0:0:0:0:
19,152,87741,1,0,0:0:0:0:
312,276,87939,2,0,L|433:273,1,120,8|0,0:0|0:0,0:0:0:0:
140,50,88337,6,0,P|71:69|149:160,1,240,2|8,0:0|0:0,0:0:0:0:
318,222,88933,2,0,L|190:219,2,120,0|2|0,0:0|0:0|0:0,0:0:0:0:
142,323,89529,2,0,L|5:315,1,120,8|0,0:0|0:0,0:0:0:0:
347,328,89926,6,0,L|484:320,1,120,10|0,0:0|0:0,0:0:0:0:
142,323,90323,2,0,L|5:315,1,120,8|0,0:0|0:0,0:0:0:0:
347,328,90721,2,0,L|484:320,1,120,10|0,0:0|0:0,0:0:0:0:
143,178,91118,2,8,L|72:174,1,60
351,80,91317,2,8,L|422:76,1,60
140,92,91516,6,0,P|61:138|178:197,1,240,2|8,0:0|0:0,0:0:0:0:
309,272,92112,1,0,0:0:0:0:
140,221,92310,1,2,0:0:0:0:
309,272,92509,1,0,0:0:0:0:
140,221,92708,2,0,L|132:84,1,120,8|0,0:0|0:0,0:0:0:0:
412,328,93105,6,0,L|153:325,1,240,2|8,0:0|0:0,0:0:0:0:
345,183,93701,2,0,L|478:182,2,120,0|2|0,0:0|0:0|0:0,0:0:0:0:
174,181,94297,2,0,L|159:47,1,120,8|0,0:0|0:0,0:0:0:0:
444,291,94694,6,0,L|166:269,2,240,2|8|2,0:0|0:0|0:0,0:0:0:0:
266,350,95688,1,0,0:0:0:0:
441,249,95886,2,0,L|446:113,1,120,8|0,0:0|0:0,0:0:0:0:
162,117,96284,1,2,0:0:0:0:
421,239,96681,6,0,L|279:237,3,120,8|0|2|0,0:0|0:0|0:0|0:0,0:0:0:0:
124,259,97476,2,0,L|121:118,1,120,8|0,0:0|0:0,0:0:0:0:
408,290,97873,6,0,P|476:237|387:127,1,240,2|8,0:0|0:0,0:0:0:0:
240,114,98469,1,0,0:0:0:0:
408,126,98668,1,2,0:0:0:0:
240,114,98867,1,0,0:0:0:0:
408,126,99065,2,0,L|407:256,1,120,8|0,0:0|0:0,0:0:0:0:
123,275,99463,6,0,L|-13:278,1,120,2|0,0:0|0:0,0:0:0:0:
286,343,99860,2,0,L|421:348,1,120,8|0,0:0|0:0,0:0:0:0:
238,348,100257,2,0,L|103:353,1,120,2|0,0:0|0:0,0:0:0:0:
286,343,100655,2,0,L|421:348,1,120,8|0,0:0|0:0,0:0:0:0:
119,171,101052,6,0,L|-16:184,2,120,2|0|8,0:0|0:0|0:0,0:0:0:0:
291,274,101648,2,0,L|302:27,1,240
22,180,102244,1,8,0:0:0:0:
305,348,102443,1,8,0:0:0:0:
305,348,102840,5,0,0:0:0:0:
140,227,103039,2,0,L|121:74,1,120
287,345,103436,2,0,L|306:192,1,120
466,186,103833,2,0,L|447:33,1,120
145,198,104231,6,0,L|12:200,1,120,6|0,0:0|0:0,0:0:0:0:
204,303,104628,2,0,L|341:303,1,120,8|0,0:0|0:0,0:0:0:0:
146,29,105025,2,0,P|79:62|177:160,1,240,2|8,0:0|0:0,0:0:0:0:
327,177,105621,1,0,0:0:0:0:
31,306,105820,6,0,L|189:301,1,120,2|0,0:0|0:0,0:0:0:0:
319,271,106218,2,0,L|329:128,1,120,8|0,0:0|0:0,0:0:0:0:
148,50,106615,2,0,L|391:56,1,240,2|8,0:0|0:0,0:0:0:0:
218,202,107211,1,0,0:0:0:0:
485,286,107410,6,0,L|490:155,1,120,2|0,0:0|0:0,0:0:0:0:
311,333,107807,2,0,L|191:331,1,120,8|0,0:0|0:0,0:0:0:0:
372,364,108204,2,0,P|448:315|345:227,1,240,2|8,0:0|0:0,0:0:0:0:
200,186,108800,1,0,0:0:0:0:
481,115,108999,6,0,L|334:115,3,120,2|0|8|0,0:0|0:0|0:0|0:0,0:0:0:0:
182,115,109794,2,0,P|98:189|218:238,1,240,2|8,0:0|0:0,0:0:0:0:
348,250,110390,1,0,0:0:0:0:
72,320,110588,6,0,L|56:186,1,120,2|0,0:0|0:0,0:0:0:0:
236,177,110986,2,0,L|251:23,1,120,8|0,0:0|0:0,0:0:0:0:
427,152,111383,2,0,L|150:181,1,240,2|8,0:0|0:0,0:0:0:0:
364,220,111979,1,0,0:0:0:0:
72,320,112178,6,0,L|56:186,1,120,2|0,0:0|0:0,0:0:0:0:
236,177,112576,2,0,L|251:23,1,120,8|0,0:0|0:0,0:0:0:0:
66,111,112973,2,0,L|343:140,1,240,2|8,0:0|0:0,0:0:0:0:
129,179,113569,1,0,0:0:0:0:
440,320,113767,6,0,L|456:186,1,120,2|0,0:0|0:0,0:0:0:0:
276,177,114165,2,0,L|261:23,1,120,8|0,0:0|0:0,0:0:0:0:
85,152,114562,2,0,L|362:181,1,240,2|8,0:0|0:0,0:0:0:0:
148,220,115158,1,0,0:0:0:0:
465,314,115357,5,2,0:0:0:0:
297,231,115555,1,0,0:0:0:0:
293,110,115754,1,8,0:0:0:0:
121,339,115953,1,0,0:0:0:0:
125,218,116152,1,2,0:0:0:0:
297,231,116350,1,0,0:0:0:0:
125,218,116549,2,0,L|-7:216,1,120,8|0,0:0|0:0,0:0:0:0:
312,308,116946,6,0,L|452:306,2,120,2|0|8,0:0|0:0|0:0,0:0:0:0:
137,140,117542,1,0,0:0:0:0:
326,318,117741,2,0,P|291:254|125:173,1,240,2|8,0:0|0:0,0:0:0:0:
323,101,118337,1,0,0:0:0:0:
49,304,118535,6,0,L|189:302,2,120,2|0|8,0:0|0:0|0:0,0:0:0:0:
229,301,119131,1,0,0:0:0:0:
49,304,119330,2,0,P|84:240|250:159,1,240,2|8,0:0|0:0,0:0:0:0:
406,147,119926,1,0,0:0:0:0:
91,134,120125,6,0,L|215:134,1,120,2|0,0:0|0:0,0:0:0:0:
384,308,120522,2,0,L|378:176,1,120,8|0,0:0|0:0,0:0:0:0:
210,68,120919,2,0,P|142:99|224:208,1,240,2|8,0:0|0:0,0:0:0:0:
392,213,121516,1,0,0:0:0:0:
77,250,121714,6,0,L|216:245,3,120,2|0|8|0,0:0|0:0|0:0|0:0,0:0:0:0:
379,157,122509,2,0,L|129:154,1,240,2|8,0:0|0:0,0:0:0:0:
315,79,123105,1,0,0:0:0:0:
26,318,123304,6,0,L|17:175,1,120,2|0,0:0|0:0,0:0:0:0:
197,186,123701,2,0,L|209:52,1,120,8|0,0:0|0:0,0:0:0:0:
385,299,124098,2,0,L|373:165,1,120,2|0,0:0|0:0,0:0:0:0:
189,102,124496,2,0,L|322:109,2,120,8|0|2,0:0|0:0|0:0,0:0:0:0:
467,287,125092,5,8,0:0:0:0:
189,102,125290,2,0,L|63:104,1,120,8|0,0:0|0:0,0:0:0:0:
376,180,125688,2,0,L|502:182,1,120,10|0,0:0|0:0,0:0:0:0:
189,102,126085,2,0,L|63:104,1,120,8|0,0:0|0:0,0:0:0:0:
480,224,126482,5,0,0:0:0:0:
256,192,128072,1,0,0:0:0:0:
32,224,129661,1,0,0:0:0:0:
480,224,131251,5,0,0:0:0:0:
256,224,131648,1,0,0:0:0:0:
32,224,132045,1,0,0:0:0:0:
256,224,132443,1,0,0:0:0:0:
480,224,132840,5,0,0:0:0:0:
32,224,134429,1,0,0:0:0:0:
480,224,136019,1,0,0:0:0:0:
32,224,137608,5,0,0:0:0:0:
352,224,138006,1,0,0:0:0:0:
64,192,138403,1,2,0:0:0:0:
32,128,138535,1,2,0:0:0:0:
64,192,138668,1,2,0:0:0:0:
320,224,138800,1,2,0:0:0:0:
352,160,138933,1,2,0:0:0:0:
320,224,139065,1,2,0:0:0:0:
64,192,139198,6,0,L|53:257,2,60,4|0|0,0:0|0:0|0:0,0:0:0:0:
237,292,139595,2,0,L|248:357,2,60
416,183,139992,1,8,0:0:0:0:
237,290,140191,2,0,P|130:253|264:124,1,360
421,139,140986,5,0,0:0:0:0:
257,129,141184,2,0,L|226:212,2,60
421,139,141582,1,8,0:0:0:0:
256,126,141780,1,0,0:0:0:0:
256,126,142178,1,0,0:0:0:0:
79,279,142376,6,0,L|66:208,2,60
256,126,142774,2,0,L|269:55,2,60
83,127,143171,1,8,0:0:0:0:
254,124,143370,2,0,L|262:378,1,240
445,150,143966,6,0,L|236:143,2,180
272,292,144761,2,0,L|63:285,2,180,8|0|0,0:0|0:0|0:0,0:0:0:0:
455,338,145555,6,0,L|459:259,2,60
274,188,145953,2,0,L|270:109,2,60
90,77,146350,1,8,0:0:0:0:
272,62,146549,2,0,P|316:137|140:311,1,360
344,311,147343,5,0,0:0:0:0:
163,314,147542,2,0,L|158:232,2,60
344,311,147939,1,8,0:0:0:0:
163,314,148138,1,0,0:0:0:0:
163,314,148535,1,0,0:0:0:0:
344,311,148734,6,0,L|351:237,2,60
160,153,149131,2,0,L|153:79,2,60
343,166,149529,1,8,0:0:0:0:
166,113,149727,2,0,P|90:161|168:253,1,240
341,304,150323,6,0,L|151:307,2,180
168,179,151118,2,0,L|358:182,2,180,8|0|0,0:0|0:0|0:0,0:0:0:0:
168,179,151913,5,0,0:0:0:0:
343,187,152112,1,8,0:0:0:0:
17,142,152310,2,0,L|8:285,1,120,8|0,0:0|0:0,0:0:0:0:
332,319,152708,2,0,L|339:191,1,120,8|0,0:0|0:0,0:0:0:0:
160,192,153105,2,0,L|153:64,1,120,8|0,0:0|0:0,0:0:0:0:
483,70,153502,1,0,0:0:0:0:
343,216,159860,5,0,0:0:0:0:
141,206,160257,2,0,L|139:77,1,120,8|0,0:0|0:0,0:0:0:0:
344,335,160853,2,0,L|342:206,1,120,0|8,0:0|0:0,0:0:0:0:
127,170,161449,5,0,0:0:0:0:
329,160,161846,2,0,L|331:31,1,120,8|0,0:0|0:0,0:0:0:0:
126,289,162442,2,0,L|128:160,1,120,0|8,0:0|0:0,0:0:0:0:
373,326,163039,6,0,L|120:323,1,240,0|8,0:0|0:0,0:0:0:0:
252,314,163635,1,0,0:0:0:0:
39,203,164032,2,0,L|33:65,1,120,0|8,0:0|0:0,0:0:0:0:
274,75,164628,5,0,0:0:0:0:
91,76,165025,2,0,L|81:207,1,120,8|0,0:0|0:0,0:0:0:0:
209,232,165423,2,0,L|219:363,1,120
344,133,165820,2,0,L|334:264,1,120,8|0,0:0|0:0,0:0:0:0:
169,321,166218,5,0,0:0:0:0:
421,76,166615,2,0,L|431:207,1,120,8|0,0:0|0:0,0:0:0:0:
303,232,167013,2,0,L|293:363,1,120
168,133,167410,2,0,L|178:264,1,120,8|0,0:0|0:0,0:0:0:0:
343,321,167808,5,0,0:0:0:0:
174,3,168204,1,8,0:0:0:0:
288,34,168402,1,0,0:0:0:0:
360,128,168601,1,0,0:0:0:0:
361,246,168800,1,0,0:0:0:0:
292,341,168998,1,8,0:0:0:0:
180,376,169197,1,0,0:0:0:0:
321,203,169396,6,0,L|110:58,2,240,0|8|0,0:0|0:0|0:0,0:0:0:0:
200,206,170390,1,0,0:0:0:0:
439,191,170787,1,0,0:0:0:0:
146,285,171383,6,0,L|135:156,1,120,8|0,0:0|0:0,0:0:0:0:
261,352,171780,2,0,L|272:223,1,120
397,215,172178,2,0,L|386:86,1,120,8|0,0:0|0:0,0:0:0:0:
230,72,172575,5,0,0:0:0:0:
366,285,172972,2,0,L|377:156,1,120,8|0,0:0|0:0,0:0:0:0:
251,352,173370,2,0,L|240:224,1,120
115,215,173767,2,0,L|126:86,1,120,8|0,0:0|0:0,0:0:0:0:
282,72,174164,5,0,0:0:0:0:
78,308,174562,2,0,L|67:185,1,120,8|0,0:0|0:0,0:0:0:0:
198,245,174959,2,0,L|209:122,1,120
337,239,175357,2,0,L|326:116,1,120,8|0,0:0|0:0,0:0:0:0:
490,64,175754,5,0,0:0:0:0:
120,240,177343,5,0,0:0:0:0:
388,243,177542,1,8,0:0:0:0:
120,240,177741,2,0,L|115:105,1,120,8|0,0:0|0:0,0:0:0:0:
377,339,178138,2,0,L|382:210,1,120,8|0,0:0|0:0,0:0:0:0:
119,277,178535,2,0,L|-13:275,1,120,8|0,0:0|0:0,0:0:0:0:
336,329,178933,5,6,0:0:0:0:
388,303,179032,1,0,0:0:0:0:
409,248,179131,1,0,0:0:0:0:
386,194,179231,1,0,0:0:0:0:
332,171,179330,1,8,0:0:0:0:
162,171,179529,1,0,0:0:0:0:
332,171,179727,2,0,L|420:171,2,60,2|0|0,0:0|0:0|0:0,0:0:0:0:
69,167,180125,1,8,0:0:0:0:
69,167,180522,5,2,0:0:0:0:
128,167,180621,1,0,0:0:0:0:
188,168,180721,1,0,0:0:0:0:
444,251,180919,2,0,L|517:253,2,60,10|0|0,0:0|0:0|0:0,0:0:0:0:
275,296,181317,1,2,0:0:0:0:
215,296,181416,1,0,0:0:0:0:
154,296,181516,1,0,0:0:0:0:
428,316,181714,1,8,0:0:0:0:
428,316,182112,5,2,0:0:0:0:
401,262,182211,1,0,0:0:0:0:
359,219,182310,1,0,0:0:0:0:
306,192,182410,1,0,0:0:0:0:
247,183,182509,1,8,0:0:0:0:
421,162,182708,1,0,0:0:0:0:
247,183,182906,2,0,L|153:184,2,60,2|0|0,0:0|0:0|0:0,0:0:0:0:
512,186,183304,1,8,0:0:0:0:
512,186,183701,5,2,0:0:0:0:
452,182,183800,1,0,0:0:0:0:
391,177,183900,1,0,0:0:0:0:
129,279,184098,1,10,0:0:0:0:
69,275,184197,1,0,0:0:0:0:
8,270,184297,1,0,0:0:0:0:
166,342,184496,1,2,0:0:0:0:
226,338,184595,1,0,0:0:0:0:
287,333,184695,1,0,0:0:0:0:
19,188,184893,1,10,0:0:0:0:
19,188,185290,5,2,0:0:0:0:
49,136,185389,1,0,0:0:0:0:
93,95,185488,1,0,0:0:0:0:
145,67,185588,1,0,0:0:0:0:
204,54,185687,1,8,0:0:0:0:
380,56,185886,1,0,0:0:0:0:
204,54,186085,2,0,L|132:51,2,60,2|0|0,0:0|0:0|0:0,0:0:0:0:
476,211,186482,1,8,0:0:0:0:
476,211,186880,5,2,0:0:0:0:
416,209,186979,1,0,0:0:0:0:
356,208,187078,1,0,0:0:0:0:
68,121,187277,2,0,L|-19:118,2,60,10|0|0,0:0|0:0|0:0,0:0:0:0:
344,309,187674,1,2,0:0:0:0:
348,248,187774,1,0,0:0:0:0:
352,188,187873,1,0,0:0:0:0:
177,121,188072,1,8,0:0:0:0:
177,121,188469,5,2,0:0:0:0:
230,144,188568,1,0,0:0:0:0:
253,198,188667,1,0,0:0:0:0:
231,252,188767,1,0,0:0:0:0:
177,276,188866,1,8,0:0:0:0:
9,282,189065,1,0,0:0:0:0:
177,276,189264,1,2,0:0:0:0:
182,216,189363,1,0,0:0:0:0:
187,155,189463,1,0,0:0:0:0:
467,78,189661,1,8,0:0:0:0:
467,78,190059,5,2,0:0:0:0:
294,78,190257,1,0,0:0:0:0:
467,78,190456,2,0,L|493:227,1,120,8|0,0:0|0:0,0:0:0:0:
225,209,190853,2,0,L|207:340,1,120,2|0,0:0|0:0,0:0:0:0:
467,78,191251,2,0,L|493:227,1,120,8|0,0:0|0:0,0:0:0:0:
182,93,191648,6,0,P|125:118|219:229,1,240,2|8,0:0|0:0,0:0:0:0:
359,243,192244,1,0,0:0:0:0:
187,239,192443,1,2,0:0:0:0:
359,243,192641,1,0,0:0:0:0:
51,291,192840,2,0,L|44:123,1,120,8|0,0:0|0:0,0:0:0:0:
358,315,193237,6,0,P|297:244|158:176,1,240,2|8,0:0|0:0,0:0:0:0:
347,123,193833,2,0,L|470:120,2,120,0|2|0,0:0|0:0|0:0,0:0:0:0:
54,271,194429,2,0,L|215:276,1,120,8|0,0:0|0:0,0:0:0:0:
443,170,194827,6,0,L|175:177,2,240,2|8|2,0:0|0:0|0:0,0:0:0:0:
284,177,195820,2,0,L|276:51,1,120,0|8,0:0|0:0,0:0:0:0:
116,20,196218,1,0,0:0:0:0:
442,300,196416,5,2,0:0:0:0:
192,223,196814,2,0,L|330:217,3,120,8|0|2|0,0:0|0:0|0:0|0:0,0:0:0:0:
41,136,197608,2,0,L|198:121,1,120,8|0,0:0|0:0,0:0:0:0:
467,347,198006,6,0,L|218:326,1,240,2|8,0:0|0:0,0:0:0:0:
396,157,198602,1,0,0:0:0:0:
228,323,198800,1,2,0:0:0:0:
396,157,198999,1,0,0:0:0:0:
228,323,199198,2,8,L|58:320,1,120,8|0,0:0|0:0,0:0:0:0:
407,352,199595,6,0,P|481:308|372:228,1,240,2|8,0:0|0:0,0:0:0:0:
233,190,200191,2,0,L|354:187,2,120,0|2|0,0:0|0:0|0:0,0:0:0:0:
498,137,200787,2,0,P|506:203|503:287,1,120,8|0,0:0|0:0,0:0:0:0:
199,276,201184,5,2,0:0:0:0:
199,276,201582,1,8,0:0:0:0:
366,276,201780,1,0,0:0:0:0:
366,276,202178,1,0,0:0:0:0:
63,278,202376,1,8,0:0:0:0:
63,278,202774,5,2,0:0:0:0:
366,276,202972,1,8,0:0:0:0:
63,278,203171,2,0,L|62:128,1,120,8|0,0:0|0:0,0:0:0:0:
349,234,203569,2,0,L|483:238,1,120,10|0,0:0|0:0,0:0:0:0:
187,307,203966,2,0,L|53:311,1,120,8|0,0:0|0:0,0:0:0:0:
235,240,204363,6,0,L|240:105,3,120
462,161,205357,2,0,L|457:26,2,120
293,323,205953,6,0,L|298:188,3,120
