osu file format v14

[General]
AudioFilename: audio.mp3
AudioLeadIn: 0
PreviewTime: 48807
Countdown: 0
SampleSet: Soft
StackLeniency: 0.7
Mode: 0
LetterboxInBreaks: 0
WidescreenStoryboard: 0

[Editor]
Bookmarks: 44463,50012,66659,69434,94405
DistanceSpacing: 1
BeatDivisor: 4
GridSize: 32
TimelineZoom: 1.9

[Metadata]
Title:SHKOLA NE NUZHNA
TitleUnicode:ШКОЛА НЕ НУЖНА
Artist:POSHLAYA MOLLY
ArtistUnicode:ПОШЛАЯ МОЛЛИ
Creator:Alumetri
Version:Shmik's Grammar School
Source:
Tags:russian synthpunk pop-punk punk rock Кирилл Бледный Kirill Blednyy EijiKuinbii shmiklak m_a_r_v_o_l_l_o derandom otaku ren djulus zhu School Isn't Needed
BeatmapID:1669644
BeatmapSetID:776187

[Difficulty]
HPDrainRate:5.9
CircleSize:4
OverallDifficulty:7
ApproachRate:8.5
SliderMultiplier:1.6
SliderTickRate:1

[Events]
//Background and Video events
0,0,"bg.jpg",0,0
//Break Periods
2,44697,49031
//Storyboard Layer 0 (Background)
//Storyboard Layer 1 (Fail)
//Storyboard Layer 2 (Pass)
//Storyboard Layer 3 (Foreground)
//Storyboard Sound Samples

[TimingPoints]
105,346.820809248555,4,2,1,50,1,0
49706,346.820809248555,4,2,1,50,1,0
50056,346.820809248555,4,2,1,50,1,0
50056,-76.9230769230769,4,2,1,50,0,0
54911,-153.846153846153,4,2,1,50,0,0
55258,-76.9230769230769,4,2,1,50,0,0
61154,-333.333333333333,4,2,1,35,0,0
62541,-76.9230769230769,4,2,1,50,0,0
68524,-76.9230769230769,4,2,1,25,0,0
69477,-76.9230769230769,4,2,1,50,0,0
71558,-80,4,2,1,50,0,0
72252,-76.9230769230769,4,2,1,50,0,0
79188,-333.333333333333,4,2,1,35,0,0
80576,-76.9230769230769,4,2,1,50,0,0

[Colours]
Combo1 : 126,169,211
Combo2 : 244,136,182
Combo3 : 183,150,243
Combo4 : 141,71,71

[HitObjects]
322,23,105,6,0,L|317:123,1,80,10|0,0:0|0:0,0:0:0:0:
216,182,451,2,0,L|212:102,1,80,10|0,0:0|0:0,0:0:0:0:
290,216,798,1,2,0:0:0:0:
167,305,972,1,2,0:0:0:0:
282,354,1145,2,0,P|322:353|361:342,1,80,10|2,0:0|0:0,0:0:0:0:
167,305,1492,6,0,P|127:304|88:293,1,80,2|0,0:0|0:0,0:0:0:0:
253,233,1839,1,10,0:0:0:0:
149,130,2012,1,2,0:0:0:0:
149,130,2099,1,10,0:0:0:0:
149,130,2185,2,0,L|137:236,1,80,2|0,0:0|0:0,0:0:0:0:
271,137,2532,2,0,L|262:57,1,80,10|2,0:0|0:0,0:0:0:0:
378,192,2879,5,2,0:0:0:0:
445,121,3052,1,0,0:0:0:0:
512,256,3226,2,0,L|427:260,1,80,10|0,0:0|0:0,0:0:0:0:
337,340,3573,1,2,0:0:0:0:
263,205,3746,1,0,0:0:0:0:
185,365,3920,2,0,P|179:317|172:282,1,80,10|2,0:0|0:0,0:0:0:0:
80,125,4266,6,0,P|132:132|167:135,1,80,2|0,0:0|0:0,0:0:0:0:
312,74,4613,1,10,0:0:0:0:
232,224,4787,1,2,0:0:0:0:
232,224,4873,1,10,0:0:0:0:
232,224,4960,2,0,P|236:188|236:131,1,80,2|2,0:0|0:0,0:0:0:0:
324,50,5307,2,0,P|324:89|328:129,1,80,10|2,0:0|0:0,0:0:0:0:
424,279,5654,6,0,P|425:240|429:189,1,80,2|0,0:0|0:0,0:0:0:0:
492,347,6000,1,10,0:0:0:0:
391,342,6174,1,2,0:0:0:0:
509,263,6347,1,2,0:0:0:0:
348,207,6521,1,2,0:0:0:0:
472,71,6694,2,0,L|481:166,1,80,10|2,0:0|0:0,0:0:0:0:
321,297,7041,6,0,L|328:217,1,80,2|0,0:0|0:0,0:0:0:0:
238,88,7388,1,10,0:0:0:0:
392,125,7561,1,2,0:0:0:0:
392,125,7648,1,10,0:0:0:0:
392,125,7735,2,0,P|357:139|299:136,1,80,2|2,0:0|0:0,0:0:0:0:
161,162,8081,2,0,P|200:162|237:176,1,80,10|0,0:0|0:0,0:0:0:0:
164,314,8428,6,0,B|79:331,1,80,2|0,0:0|0:0,0:0:0:0:
1,271,8775,1,10,0:0:0:0:
87,214,8948,1,2,0:0:0:0:
0,145,9122,1,2,0:0:0:0:
163,191,9295,1,2,0:0:0:0:
77,42,9469,2,0,L|83:142,1,80,10|2,0:0|0:0,0:0:0:0:
245,206,9815,6,0,L|249:126,1,80,2|0,0:0|0:0,0:0:0:0:
357,15,10162,1,10,0:0:0:0:
416,160,10336,1,2,0:0:0:0:
416,160,10422,1,10,0:0:0:0:
416,160,10509,2,0,P|354:155|330:146,1,80,2|2,0:0|0:0,0:0:0:0:
227,236,10856,2,0,P|265:225|305:225,1,80,10|2,0:0|0:0,0:0:0:0:
445,365,11203,6,0,L|455:303,3,40,2|0|0|0,0:0|0:0|0:0|0:0,0:0:0:0:
509,248,11550,2,0,P|458:284|357:279,1,160,10|2,0:0|0:0,0:0:0:0:
404,125,12070,1,2,0:0:0:0:
296,198,12243,1,10,0:0:0:0:
449,203,12417,1,2,0:0:0:0:
265,303,12590,6,0,L|176:292,1,80,2|0,0:0|0:0,0:0:0:0:
47,226,12937,2,0,L|136:215,1,80,10|2,0:0|0:0,0:0:0:0:
163,145,13197,2,0,L|114:139,1,40,10|2,0:0|0:0,0:0:0:0:
282,90,13457,1,0,0:0:0:0:
208,234,13631,2,0,P|212:286|217:335,1,80,10|0,0:0|0:0,0:0:0:0:
382,208,13977,6,0,L|329:203,3,40,2|0|2|0,0:0|0:0|0:0|0:0,0:0:0:0:
447,266,14324,1,10,0:0:0:0:
431,134,14498,1,2,0:0:0:0:
375,298,14671,1,2,0:0:0:0:
512,179,14844,1,2,0:0:0:0:
323,94,15018,2,0,L|328:181,1,80,10|2,0:0|0:0,0:0:0:0:
172,50,15365,6,0,P|225:39|266:47,1,80,2|0,0:0|0:0,0:0:0:0:
220,192,15711,2,0,L|134:182,1,80,10|2,0:0|0:0,0:0:0:0:
106,258,15972,2,0,L|160:253,1,40,10|2,0:0|0:0,0:0:0:0:
274,352,16232,1,2,0:0:0:0:
86,335,16405,1,10,0:0:0:0:
206,304,16578,1,2,0:0:0:0:
96,177,16752,6,0,L|92:218,3,40,2|0|0|0,0:0|0:0|0:0|0:0,0:0:0:0:
70,103,17099,2,0,P|126:144|230:120,1,160,10|2,0:0|0:0,0:0:0:0:
297,9,17619,1,0,0:0:0:0:
156,40,17792,1,10,0:0:0:0:
316,92,17966,1,0,0:0:0:0:
204,213,18139,6,0,L|213:123,1,80,2|2,0:0|0:0,0:0:0:0:
69,103,18486,2,0,L|76:182,1,80,10|2,0:0|0:0,0:0:0:0:
0,211,18746,2,0,L|5:155,1,40,10|2,0:0|0:0,0:0:0:0:
76,310,19006,1,2,0:0:0:0:
204,213,19180,2,0,P|253:202|300:210,1,80,10|2,0:0|0:0,0:0:0:0:
350,339,19526,6,0,L|279:334,3,40,2|0|0|0,0:0|0:0|0:0|0:0,0:0:0:0:
402,276,19873,2,0,L|492:271,2,80,10|0|2,0:0|0:0|0:0,0:0:0:0:
281,184,20394,1,2,0:0:0:0:
419,50,20567,2,0,P|432:79|434:137,1,80,10|2,0:0|0:0,0:0:0:0:
225,88,20914,6,0,P|248:44|290:19,1,80,2|0,0:0|0:0,0:0:0:0:
279,194,21261,2,0,L|181:185,1,80,10|2,0:0|0:0,0:0:0:0:
158,265,21521,2,0,L|206:256,1,40,10|2,0:0|0:0,0:0:0:0:
83,354,21781,1,2,0:0:0:0:
84,201,21954,1,10,0:0:0:0:
23,277,22128,1,2,0:0:0:0:
193,331,22301,6,0,L|298:323,1,80,2|0,0:0|0:0,0:0:0:0:
407,236,22648,1,10,0:0:0:0:
379,330,22821,1,0,0:0:0:0:
317,222,22995,1,2,0:0:0:0:
470,308,23168,1,2,0:0:0:0:
445,148,23341,2,0,P|411:181|403:214,1,80,10|0,0:0|0:0,0:0:0:0:
281,85,23688,6,0,L|448:76,1,160,2|10,0:0|0:0,0:0:0:0:
330,171,24209,1,2,0:0:0:0:
330,171,24295,1,10,0:0:0:0:
330,171,24382,2,0,L|235:158,1,80,2|0,0:0|0:0,0:0:0:0:
170,262,24729,2,0,L|265:249,1,80,10|0,0:0|0:0,0:0:0:0:
109,191,25076,6,0,P|79:241|81:288,1,80,2|0,0:0|0:0,0:0:0:0:
181,362,25422,1,10,0:0:0:0:
241,280,25596,1,2,0:0:0:0:
120,323,25769,1,2,0:0:0:0:
264,357,25943,1,0,0:0:0:0:
372,232,26116,2,0,P|374:272|380:322,1,80,10|2,0:0|0:0,0:0:0:0:
413,138,26463,6,0,B|309:112|349:168|253:138,1,160,2|10,0:0|0:0,0:0:0:0:
180,43,26983,1,2,0:0:0:0:
180,43,27070,1,10,0:0:0:0:
180,43,27157,2,0,L|262:48,1,80,2|2,0:0|0:0,0:0:0:0:
137,135,27503,2,0,L|55:140,1,80,10|2,0:0|0:0,0:0:0:0:
214,275,27850,6,0,P|205:217|185:185,1,80,2|0,0:0|0:0,0:0:0:0:
154,365,28197,1,10,0:0:0:0:
261,338,28370,1,2,0:0:0:0:
128,286,28544,1,2,0:0:0:0:
295,257,28717,1,2,0:0:0:0:
171,137,28891,2,0,L|178:223,1,80,10|2,0:0|0:0,0:0:0:0:
281,34,29237,6,0,B|221:64|221:64|121:43,1,160,2|10,0:0|0:0,0:0:0:0:
52,159,29758,1,0,0:0:0:0:
52,159,29844,1,10,0:0:0:0:
52,159,29931,2,0,B|86:135|86:135|97:175,1,80,2|0,0:0|0:0,0:0:0:0:
189,276,30278,2,0,B|164:242|164:242|142:274,1,80,10|2,0:0|0:0,0:0:0:0:
287,351,30625,6,0,L|393:342,1,80,2|0,0:0|0:0,0:0:0:0:
485,237,30972,1,10,0:0:0:0:
389,266,31145,1,0,0:0:0:0:
505,320,31318,1,2,0:0:0:0:
405,184,31492,1,0,0:0:0:0:
280,318,31665,2,0,P|329:329|362:330,1,80,10|0,0:0|0:0,0:0:0:0:
189,358,32012,6,0,L|196:187,1,160,2|10,0:0|0:0,0:0:0:0:
289,126,32532,1,2,0:0:0:0:
289,126,32619,1,10,0:0:0:0:
289,126,32706,2,0,L|299:219,1,80,2|2,0:0|0:0,0:0:0:0:
163,114,33052,2,0,L|171:34,1,80,10|0,0:0|0:0,0:0:0:0:
57,187,33399,6,0,L|-5:177,3,40,2|0|0|0,0:0|0:0|0:0|0:0,0:0:0:0:
113,236,33746,2,0,P|157:237|196:259,1,80,10|2,0:0|0:0,0:0:0:0:
261,351,34093,1,0,0:0:0:0:
323,224,34266,1,2,0:0:0:0:
384,360,34439,1,10,0:0:0:0:
231,273,34613,1,2,0:0:0:0:
415,234,34786,6,0,L|419:138,1,80,2|0,0:0|0:0,0:0:0:0:
321,27,35133,2,0,L|324:106,1,80,10|2,0:0|0:0,0:0:0:0:
248,157,35393,2,0,L|254:108,1,40,10|2,0:0|0:0,0:0:0:0:
135,35,35653,1,2,0:0:0:0:
91,185,35827,2,0,P|94:224|97:264,1,80,10|2,0:0|0:0,0:0:0:0:
211,325,36173,6,0,L|264:330,3,40,2|0|0|0,0:0|0:0|0:0|0:0,0:0:0:0:
176,251,36520,1,10,0:0:0:0:
118,357,36694,1,0,0:0:0:0:
110,199,36867,1,2,0:0:0:0:
211,325,37040,1,0,0:0:0:0:
26,277,37214,2,0,P|72:275|113:272,1,80,10|0,0:0|0:0,0:0:0:0:
259,162,37561,6,0,P|256:117|248:63,1,80,2|2,0:0|0:0,0:0:0:0:
371,18,37908,2,0,P|365:57|363:97,1,80,10|2,0:0|0:0,0:0:0:0:
404,206,38168,2,0,L|401:167,1,40,10|2,0:0|0:0,0:0:0:0:
325,330,38428,1,2,0:0:0:0:
453,280,38601,1,10,0:0:0:0:
349,258,38774,1,2,0:0:0:0:
230,350,38948,6,0,L|169:353,3,40,2|0|0|0,0:0|0:0|0:0|0:0,0:0:0:0:
325,330,39295,2,0,P|245:327|183:272,1,160,10|2,0:0|0:0,0:0:0:0:
305,190,39815,1,2,0:0:0:0:
138,145,39988,1,10,0:0:0:0:
235,106,40162,1,2,0:0:0:0:
115,230,40335,6,0,L|25:221,1,80,2|0,0:0|0:0,0:0:0:0:
124,329,40682,2,0,L|203:322,1,80,10|0,0:0|0:0,0:0:0:0:
303,376,40942,2,0,L|247:371,1,40,10|2,0:0|0:0,0:0:0:0:
404,317,41203,1,0,0:0:0:0:
282,192,41376,2,0,P|293:241|296:289,1,80,10|0,0:0|0:0,0:0:0:0:
393,113,41722,6,0,L|388:184,3,40,2|0|0|0,0:0|0:0|0:0|0:0,0:0:0:0:
350,49,42070,2,0,L|260:54,2,80,10|2|2,0:0|0:0|0:0,0:0:0:0:
234,143,42590,1,2,0:0:0:0:
329,273,42763,2,0,P|342:244|344:186,1,80,10|2,0:0|0:0,0:0:0:0:
203,62,43110,6,0,P|204:101|219:138,1,80,2|0,0:0|0:0,0:0:0:0:
372,198,43457,1,10,0:0:0:0:
249,256,43631,1,2,0:0:0:0:
238,266,43717,1,10,0:0:0:0:
227,276,43804,1,2,0:0:0:0:
306,160,43977,1,2,0:0:0:0:
273,342,44151,1,10,0:0:0:0:
312,337,44237,1,10,0:0:0:0:
352,332,44324,1,10,0:0:0:0:
392,327,44411,2,0,L|448:320,1,40,10|0,0:0|0:0,0:0:0:0:
146,39,49706,5,10,0:0:0:0:
143,90,49792,1,10,0:0:0:0:
140,142,49879,1,10,0:0:0:0:
137,194,49966,1,10,0:0:0:0:
126,244,50056,6,0,B|205:229|205:229|235:255|235:255|336:234,1,207.999990478516,2|10,0:0|0:0,0:0:0:0:
410,174,50576,2,0,L|400:292,1,103.999995239258,0|2,0:0|0:0,0:0:0:0:
500,184,50923,1,0,0:0:0:0:
327,128,51096,1,10,0:0:0:0:
464,101,51270,1,0,0:0:0:0:
303,229,51443,5,2,0:0:0:0:
278,236,51529,1,2,0:0:0:0:
252,237,51616,1,2,0:0:0:0:
227,231,51703,1,2,0:0:0:0:
204,219,51790,2,0,L|199:165,2,51.999997619629,10|0|2,0:0|0:0|0:0,0:0:0:0:
156,282,52050,2,0,L|151:336,1,51.999997619629,10|2,0:0|0:0,0:0:0:0:
394,160,52830,6,0,B|315:175|315:175|285:149|285:149|184:170,1,207.999990478516,2|10,0:0|0:0,0:0:0:0:
110,230,53350,2,0,L|120:112,1,103.999995239258,2|2,0:0|0:0,0:0:0:0:
20,220,53697,1,2,0:0:0:0:
193,276,53870,1,8,0:0:0:0:
56,303,54044,1,2,0:0:0:0:
198,166,54218,6,0,L|203:102,1,51.999997619629,2|0,0:0|0:0,0:0:0:0:
311,52,54391,2,0,L|315:103,1,51.999997619629,10|0,0:0|0:0,0:0:0:0:
215,153,54564,6,0,L|220:89,1,51.999997619629,2|0,0:0|0:0,0:0:0:0:
328,39,54737,2,0,L|332:90,1,51.999997619629
456,145,54911,6,0,B|417:142|417:142|431:180,1,77.9999964294435,10|0,0:0|0:0,0:0:0:0:
394,246,55258,5,10,0:0:0:0:
342,241,55344,1,10,0:0:0:0:
290,237,55431,1,10,0:0:0:0:
238,233,55518,1,10,0:0:0:0:
198,228,55605,6,0,L|209:301,3,51.999997619629,2|0|0|0,0:0|0:0|0:0|0:0,0:0:0:0:
237,151,55952,2,0,P|186:187|116:75,1,207.999990478516,10|2,0:0|0:0,0:0:0:0:
256,26,56472,1,2,0:0:0:0:
347,186,56645,1,10,0:0:0:0:
380,61,56819,1,2,0:0:0:0:
248,167,56992,6,0,L|258:291,1,103.999995239258,2|0,0:0|0:0,0:0:0:0:
137,366,57339,2,0,L|147:242,1,103.999995239258,10|0,0:0|0:0,0:0:0:0:
61,224,57599,2,0,L|67:287,1,51.999997619629,10|2,0:0|0:0,0:0:0:0:
141,121,57859,1,0,0:0:0:0:
249,268,58033,2,0,L|138:261,1,103.999995239258,10|0,0:0|0:0,0:0:0:0:
333,189,58379,6,0,L|268:192,3,51.999997619629,2|0|2|0,0:0|0:0|0:0|0:0,0:0:0:0:
400,138,58726,1,10,0:0:0:0:
437,254,58900,1,2,0:0:0:0:
386,111,59073,1,2,0:0:0:0:
512,227,59246,1,2,0:0:0:0:
316,281,59420,2,0,L|196:270,1,103.999995239258,10|2,0:0|0:0,0:0:0:0:
62,176,59767,6,0,P|115:187|163:168,1,103.999995239258,2|0,0:0|0:0,0:0:0:0:
318,67,60113,2,0,L|307:185,1,103.999995239258,10|2,0:0|0:0,0:0:0:0:
387,241,60374,2,0,L|382:177,1,51.999997619629,10|2,0:0|0:0,0:0:0:0:
342,336,60634,1,2,0:0:0:0:
473,267,60807,1,10,0:0:0:0:
301,250,60980,1,0,0:0:0:0:
159,347,61154,6,0,B|274:318|230:380|337:347,1,179.999994506836,2|0,0:0|0:0,0:0:0:0:
355,333,62541,6,0,L|348:268,3,51.999997619629,2|0|0|0,0:0|0:0|0:0|0:0,0:0:0:0:
276,238,62888,2,0,L|281:174,1,51.999997619629,10|0,0:0|0:0,0:0:0:0:
339,128,63061,1,0,0:0:0:0:
339,128,63148,1,10,0:0:0:0:
339,128,63235,2,0,L|334:64,1,51.999997619629,2|0,0:0|0:0,0:0:0:0:
259,20,63408,2,0,L|254:71,1,51.999997619629,0|0,0:0|0:0,0:0:0:0:
178,118,63582,2,0,L|171:53,3,51.999997619629,10|0|0|0,0:0|0:0|0:0|0:0,0:0:0:0:
149,203,63929,5,2,0:0:0:0:
190,198,64015,1,2,0:0:0:0:
231,205,64102,1,2,0:0:0:0:
268,222,64189,1,2,0:0:0:0:
288,256,64275,2,0,L|400:245,2,103.999995239258,10|2|2,0:0|0:0|0:0,0:0:0:0:
158,352,64796,1,2,0:0:0:0:
43,229,64969,2,0,P|46:283|51:354,1,103.999995239258,10|2,0:0|0:0,0:0:0:0:
180,229,65316,6,0,P|183:178|186:125,1,103.999995239258,2|0,0:0|0:0,0:0:0:0:
298,27,65662,2,0,P|300:78|304:130,1,103.999995239258,10|2,0:0|0:0,0:0:0:0:
374,189,65922,2,0,L|382:134,1,51.999997619629,10|2,0:0|0:0,0:0:0:0:
300,260,66182,1,2,0:0:0:0:
468,190,66355,1,10,0:0:0:0:
304,130,66529,2,0,P|263:126|193:140,1,103.999995239258,0|2,0:0|0:0,0:0:0:0:
229,116,69477,6,0,P|282:125|225:53,1,207.999990478516,2|10,0:0|0:0,0:0:0:0:
139,129,69997,1,0,0:0:0:0:
249,204,70170,1,2,0:0:0:0:
101,254,70344,1,2,0:0:0:0:
264,294,70517,2,0,L|376:282,1,103.999995239258,10|2,0:0|0:0,0:0:0:0:
450,178,70864,5,0,0:0:0:0:
311,120,71037,1,0,0:0:0:0:
387,297,71211,1,10,0:0:0:0:
247,232,71385,1,2,0:0:0:0:
247,232,71471,1,10,0:0:0:0:
247,232,71558,6,0,L|198:226,1,50,2|0,0:0|0:0,0:0:0:0:
36,232,71732,2,0,L|85:226,1,50,2|0,0:0|0:0,0:0:0:0:
254,150,71905,6,0,L|205:144,1,50,10|0,0:0|0:0,0:0:0:0:
24,150,72079,2,0,L|73:144,1,50,2|0,0:0|0:0,0:0:0:0:
199,41,72252,6,0,B|255:55|255:55|301:49|301:49|362:67,1,155.999992858887,2|0,0:0|0:0,0:0:0:0:
391,130,72599,2,0,L|370:236,1,103.999995239258,8|0,0:0|0:0,0:0:0:0:
167,295,72945,1,2,0:0:0:0:
253,162,73118,1,0,0:0:0:0:
332,344,73292,2,0,L|219:342,1,103.999995239258,10|0,0:0|0:0,0:0:0:0:
371,233,73639,5,2,0:0:0:0:
427,370,73812,1,2,0:0:0:0:
512,222,73985,1,10,0:0:0:0:
424,289,74159,1,2,0:0:0:0:
433,153,74332,1,2,0:0:0:0:
505,300,74506,1,0,0:0:0:0:
340,354,74679,2,0,P|281:353|227:329,1,103.999995239258,8|0,0:0|0:0,0:0:0:0:
156,211,75026,6,0,L|148:280,3,51.999997619629,2|0|0|0,0:0|0:0|0:0|0:0,0:0:0:0:
99,142,75373,2,0,P|185:180|189:92,1,207.999990478516,10|2,0:0|0:0,0:0:0:0:
95,32,75893,1,2,0:0:0:0:
265,79,76066,1,10,0:0:0:0:
154,135,76240,1,2,0:0:0:0:
241,0,76413,5,2,0:0:0:0:
285,153,76586,1,2,0:0:0:0:
411,23,76760,1,10,0:0:0:0:
262,83,76933,1,2,0:0:0:0:
262,83,77020,1,10,0:0:0:0:
262,83,77107,1,2,0:0:0:0:
437,155,77280,1,0,0:0:0:0:
295,267,77454,2,0,L|299:158,1,103.999995239258,10|0,0:0|0:0,0:0:0:0:
162,65,77800,6,0,L|167:129,3,51.999997619629,2|0|0|0,0:0|0:0|0:0|0:0,0:0:0:0:
84,157,78148,2,0,P|134:144|158:275,1,207.999990478516,10|2,0:0|0:0,0:0:0:0:
41,332,78667,1,2,0:0:0:0:
221,320,78841,1,10,0:0:0:0:
125,214,79014,1,2,0:0:0:0:
43,349,79188,6,0,B|158:378|114:316|221:349,1,179.999994506836,2|0,0:0|0:0,0:0:0:0:
262,364,80576,6,0,L|254:312,3,51.999997619629,2|0|0|0,0:0|0:0|0:0|0:0,0:0:0:0:
310,251,80922,2,0,B|254:292|254:292|116:231,1,207.999990478516,10|2,0:0|0:0,0:0:0:0:
267,169,81442,1,2,0:0:0:0:
127,121,81615,1,10,0:0:0:0:
257,81,81789,1,2,0:0:0:0:
139,217,81962,6,0,P|81:215|13:206,1,103.999995239258,2|0,0:0|0:0,0:0:0:0:
227,255,82309,2,0,P|278:249|330:247,1,103.999995239258,10|0,0:0|0:0,0:0:0:0:
371,323,82570,2,0,P|341:331|314:329,1,51.999997619629,10|2,0:0|0:0,0:0:0:0:
447,240,82830,1,2,0:0:0:0:
336,128,83003,2,0,L|329:239,1,103.999995239258,10|2,0:0|0:0,0:0:0:0:
184,37,83350,6,0,B|312:76|260:-9|409:37,1,207.999990478516,2|10,0:0|0:0,0:0:0:0:
248,126,83870,1,2,0:0:0:0:
412,167,84043,1,2,0:0:0:0:
198,207,84217,1,2,0:0:0:0:
340,330,84390,2,0,P|337:273|333:221,1,103.999995239258,10|2,0:0|0:0,0:0:0:0:
209,117,84737,6,0,P|242:31|271:98,1,207.999990478516,2|10,0:0|0:0,0:0:0:0:
151,202,85257,1,2,0:0:0:0:
151,202,85344,1,10,0:0:0:0:
151,202,85430,1,2,0:0:0:0:
296,260,85604,1,2,0:0:0:0:
135,332,85777,2,0,L|142:221,1,103.999995239258,10|2,0:0|0:0,0:0:0:0:
274,78,86124,6,0,L|281:129,3,51.999997619629,2|0|0|0,0:0|0:0|0:0|0:0,0:0:0:0:
260,220,86472,2,0,B|279:124|279:124|363:197,1,207.999990478516,10|2,0:0|0:0,0:0:0:0:
487,318,86992,1,0,0:0:0:0:
448,160,87165,1,10,0:0:0:0:
379,319,87339,1,2,0:0:0:0:
290,145,87512,6,0,P|291:88|301:19,1,103.999995239258,2|2,0:0|0:0,0:0:0:0:
206,183,87859,2,0,P|212:234|212:286,1,103.999995239258,10|2,0:0|0:0,0:0:0:0:
126,305,88119,2,0,P|120:282|132:242,1,51.999997619629,10|2,0:0|0:0,0:0:0:0:
81,136,88379,1,2,0:0:0:0:
212,79,88553,2,0,L|205:190,1,103.999995239258,10|2,0:0|0:0,0:0:0:0:
342,346,88899,6,0,B|327:267|327:267|353:237|353:237|332:136,1,207.999990478516,2|10,0:0|0:0,0:0:0:0:
408,77,89419,1,0,0:0:0:0:
275,46,89592,1,2,0:0:0:0:
410,149,89766,1,0,0:0:0:0:
250,222,89939,2,0,B|199:232|199:232|142:212,1,103.999995239258,10|0,0:0|0:0,0:0:0:0:
31,340,90287,6,0,B|110:325|110:325|140:351|140:351|241:330,1,207.999990478516,2|10,0:0|0:0,0:0:0:0:
354,239,90806,1,2,0:0:0:0:
354,239,90893,1,10,0:0:0:0:
354,239,90980,1,2,0:0:0:0:
307,384,91153,1,0,0:0:0:0:
227,219,91327,2,0,B|219:168|219:168|236:105,1,103.999995239258,10|0,0:0|0:0,0:0:0:0:
135,34,91673,6,0,P|139:85|144:147,1,103.999995239258,2|2,0:0|0:0,0:0:0:0:
315,160,92020,2,0,P|318:108|323:56,1,103.999995239258,10|2,0:0|0:0,0:0:0:0:
422,169,92367,1,2,0:0:0:0:
307,306,92540,1,2,0:0:0:0:
477,356,92714,2,0,P|475:297|458:240,1,103.999995239258,10|2,0:0|0:0,0:0:0:0:
308,133,93060,5,2,0:0:0:0:
387,279,93234,1,2,0:0:0:0:
422,68,93407,1,10,0:0:0:0:
285,207,93581,1,2,0:0:0:0:
285,207,93667,1,10,0:0:0:0:
285,207,93754,1,2,0:0:0:0:
475,169,93928,1,2,0:0:0:0:
339,45,94101,2,0,L|353:166,1,103.999995239258,10|2,0:0|0:0,0:0:0:0:
377,361,94449,5,2,0:0:0:0:
