osu file format v14

[General]
AudioFilename: audio.mp3
AudioLeadIn: 0
PreviewTime: 48807
Countdown: 0
SampleSet: Soft
StackLeniency: 0.7
Mode: 0
LetterboxInBreaks: 0
WidescreenStoryboard: 0

[Editor]
DistanceSpacing: 1.1
BeatDivisor: 4
GridSize: 32
TimelineZoom: 1.9

[Metadata]
Title:SHKOLA NE NUZHNA
TitleUnicode:ШКОЛА НЕ НУЖНА
Artist:POSHLAYA MOLLY
ArtistUnicode:ПОШЛАЯ МОЛЛИ
Creator:Alumetri
Version:Last Lesson of Your Life
Source:
Tags:russian synthpunk pop-punk punk rock Кирилл Бледный Kirill Blednyy EijiKuinbii shmiklak m_a_r_v_o_l_l_o derandom otaku ren djulus zhu School Isn't Needed
BeatmapID:1630904
BeatmapSetID:776187

[Difficulty]
HPDrainRate:6.2
CircleSize:3.8
OverallDifficulty:8.8
ApproachRate:9.3
SliderMultiplier:1.85
SliderTickRate:1

[Events]
//Background and Video events
0,0,"bg.jpg",0,0
//Break Periods
2,44611,49152
//Storyboard Layer 0 (Background)
//Storyboard Layer 1 (Fail)
//Storyboard Layer 2 (Pass)
//Storyboard Layer 3 (Foreground)
//Storyboard Sound Samples

[TimingPoints]
105,346.820809248555,4,2,1,50,1,0
105,-73.5294117647059,4,2,1,50,0,0
11203,-65.7894736842105,4,2,1,50,0,1
22301,-73.5294117647059,4,2,1,50,0,0
33399,-65.7894736842105,4,2,1,50,0,1
44498,-200,4,2,1,5,0,0
48659,-200,4,2,1,25,0,0
49706,346.820809248555,4,2,1,50,1,0
50056,346.820809248555,4,2,1,50,1,1
50056,-65.7894736842105,4,2,1,50,0,1
52136,-133.333333333333,4,2,1,50,0,0
52830,-65.7894736842105,4,2,1,50,0,1
54911,-65.7894736842105,4,2,1,50,0,0
55605,-65.7894736842105,4,2,1,50,0,1
61154,-133.333333333333,4,2,1,35,0,0
62541,-65.7894736842105,4,2,1,50,0,1
66703,-65.7894736842105,4,2,1,50,0,0
68524,-133.333333333333,4,2,1,25,0,0
68784,-100,4,2,1,25,0,0
69477,-65.7894736842105,4,2,1,50,0,1
72599,-50,4,2,1,50,0,1
72946,-65.7894736842105,4,2,1,50,0,1
79188,-133.333333333333,4,2,1,35,0,0
80576,-65.7894736842105,4,2,1,50,0,1
94449,-65.7894736842105,4,2,1,50,0,0

[Colours]
Combo1 : 126,169,211
Combo2 : 244,136,182
Combo3 : 183,150,243
Combo4 : 141,71,71

[HitObjects]
92,319,105,6,0,L|110:169,1,125.800000767822,10|0,0:0|0:0,0:0:0:0:
203,83,451,2,0,P|239:98|360:83,1,125.800000767822,10|0,0:0|0:0,0:0:0:0:
457,37,798,1,2,0:0:0:0:
348,214,972,1,2,0:0:0:0:
274,16,1145,1,10,0:0:0:0:
452,161,1318,1,2,0:0:0:0:
232,185,1492,6,0,L|88:195,1,125.800000767822,2|0,0:0|0:0,0:0:0:0:
31,304,1839,1,10,0:0:0:0:
199,288,2012,1,2,0:0:0:0:
199,288,2099,1,10,0:0:0:0:
199,288,2185,2,0,L|349:278,1,125.800000767822,2|0,0:0|0:0,0:0:0:0:
377,187,2532,1,10,0:0:0:0:
323,378,2706,1,2,0:0:0:0:
295,197,2879,6,0,P|305:142|385:103,1,125.800000767822,2|0,0:0|0:0,0:0:0:0:
454,260,3226,2,0,L|435:392,1,125.800000767822,10|0,0:0|0:0,0:0:0:0:
261,285,3573,2,0,P|221:253|209:170,1,125.800000767822,2|0,0:0|0:0,0:0:0:0:
233,60,3920,1,10,0:0:0:0:
295,197,4093,1,2,0:0:0:0:
74,207,4266,6,0,L|59:60,1,125.800000767822,2|0,0:0|0:0,0:0:0:0:
159,158,4613,1,10,0:0:0:0:
72,308,4787,1,2,0:0:0:0:
72,308,4873,1,10,0:0:0:0:
72,308,4960,1,2,0:0:0:0:
261,285,5133,1,2,0:0:0:0:
74,207,5307,1,10,0:0:0:0:
163,384,5480,1,2,0:0:0:0:
247,182,5654,6,0,L|260:39,1,125.800000767822,2|0,0:0|0:0,0:0:0:0:
353,127,6000,1,10,0:0:0:0:
175,33,6174,1,2,0:0:0:0:
183,235,6347,1,2,0:0:0:0:
340,38,6521,1,2,0:0:0:0:
102,166,6694,1,10,0:0:0:0:
353,127,6868,1,2,0:0:0:0:
89,84,7041,6,0,P|35:117|22:181,1,125.800000767822,2|0,0:0|0:0,0:0:0:0:
69,312,7388,1,10,0:0:0:0:
193,149,7561,1,2,0:0:0:0:
193,149,7648,1,10,0:0:0:0:
193,149,7735,2,0,L|350:164,1,125.800000767822,2|2,0:0|0:0,0:0:0:0:
459,270,8081,2,0,L|315:297,1,125.800000767822,10|0,0:0|0:0,0:0:0:0:
147,370,8428,6,0,P|151:334|139:236,1,125.800000767822,2|0,0:0|0:0,0:0:0:0:
18,163,8775,1,10,0:0:0:0:
69,312,8948,1,2,0:0:0:0:
119,149,9122,2,0,L|140:13,1,125.800000767822,2|2,0:0|0:0,0:0:0:0:
11,33,9469,1,10,0:0:0:0:
18,163,9642,1,2,0:0:0:0:
213,124,9815,6,0,L|392:114,1,125.800000767822,2|0,0:0|0:0,0:0:0:0:
416,63,10162,1,10,0:0:0:0:
251,47,10336,1,2,0:0:0:0:
251,47,10422,1,10,0:0:0:0:
251,47,10509,1,2,0:0:0:0:
426,147,10683,1,2,0:0:0:0:
213,124,10856,1,10,0:0:0:0:
487,102,11029,1,2,0:0:0:0:
257,210,11203,6,0,L|80:201,1,140.599998283691,2|0,0:0|0:0,0:0:0:0:
0,309,11550,2,0,L|140:316,1,140.599998283691,10|0,0:0|0:0,0:0:0:0:
343,286,11896,5,2,0:0:0:0:
116,202,12069,1,2,0:0:0:0:
331,169,12243,5,10,0:0:0:0:
140,316,12417,1,2,0:0:0:0:
343,286,12590,6,0,L|501:254,1,140.599998283691,2|0,0:0|0:0,0:0:0:0:
410,132,12937,1,10,0:0:0:0:
407,354,13110,1,2,0:0:0:0:
407,354,13197,1,10,0:0:0:0:
407,354,13284,6,0,P|326:367|270:336,1,140.599998283691,2|0,0:0|0:0,0:0:0:0:
277,128,13631,2,0,P|354:111|418:138,1,140.599998283691,10|0,0:0|0:0,0:0:0:0:
512,299,13977,5,2,0:0:0:0:
343,196,14151,1,2,0:0:0:0:
479,220,14324,5,10,0:0:0:0:
261,233,14498,1,2,0:0:0:0:
406,70,14671,5,2,0:0:0:0:
403,274,14844,1,2,0:0:0:0:
266,72,15018,5,10,0:0:0:0:
512,141,15191,1,2,0:0:0:0:
234,153,15365,6,0,L|78:156,1,140.599998283691,2|0,0:0|0:0,0:0:0:0:
161,257,15711,1,10,0:0:0:0:
74,64,15885,1,2,0:0:0:0:
74,64,15972,1,10,0:0:0:0:
74,64,16058,1,2,0:0:0:0:
314,115,16232,1,2,0:0:0:0:
93,155,16405,1,10,0:0:0:0:
297,8,16578,1,2,0:0:0:0:
257,257,16752,6,0,B|220:318|220:318|151:363,1,140.599998283691,2|0,0:0|0:0,0:0:0:0:
201,106,17099,2,0,B|238:45|238:45|307:0,1,140.599998283691,10|0,0:0|0:0,0:0:0:0:
426,154,17446,5,2,0:0:0:0:
246,178,17619,1,0,0:0:0:0:
461,69,17792,1,10,0:0:0:0:
296,7,17966,1,0,0:0:0:0:
385,241,18139,5,2,0:0:0:0:
201,106,18313,1,2,0:0:0:0:
451,111,18486,5,10,0:0:0:0:
271,284,18659,1,2,0:0:0:0:
271,284,18746,1,10,0:0:0:0:
271,284,18833,5,2,0:0:0:0:
385,49,19006,1,2,0:0:0:0:
452,294,19180,5,10,0:0:0:0:
202,199,19353,1,2,0:0:0:0:
489,190,19526,6,0,L|502:42,1,140.599998283691,2|0,0:0|0:0,0:0:0:0:
283,143,19873,2,0,L|270:283,1,140.599998283691,10|0,0:0|0:0,0:0:0:0:
373,190,20220,5,2,0:0:0:0:
155,132,20394,1,2,0:0:0:0:
415,110,20567,5,10,0:0:0:0:
270,283,20741,1,2,0:0:0:0:
196,60,20914,6,0,P|130:53|74:121,1,140.599998283691,2|0,0:0|0:0,0:0:0:0:
83,273,21261,1,10,0:0:0:0:
3,61,21434,1,2,0:0:0:0:
3,61,21521,1,10,0:0:0:0:
3,61,21607,1,2,0:0:0:0:
251,119,21781,1,2,0:0:0:0:
0,201,21954,1,10,0:0:0:0:
196,60,22128,1,2,0:0:0:0:
172,233,22301,6,0,L|151:361,1,125.800000767822,2|0,0:0|0:0,0:0:0:0:
100,197,22648,2,0,P|141:159|219:167,1,125.800000767822,10|0,0:0|0:0,0:0:0:0:
277,293,22995,1,2,0:0:0:0:
80,292,23168,1,2,0:0:0:0:
289,201,23341,2,0,L|435:208,1,125.800000767822,10|0,0:0|0:0,0:0:0:0:
453,377,23688,6,0,P|454:335|495:250,1,125.800000767822,2|0,0:0|0:0,0:0:0:0:
500,127,24035,1,10,0:0:0:0:
379,304,24209,1,2,0:0:0:0:
379,304,24295,1,10,0:0:0:0:
379,304,24382,2,0,L|239:323,1,125.800000767822,2|0,0:0|0:0,0:0:0:0:
241,84,24729,2,0,L|288:200,1,125.800000767822,10|0,0:0|0:0,0:0:0:0:
147,356,25076,6,0,L|194:240,1,125.800000767822,2|0,0:0|0:0,0:0:0:0:
363,175,25422,1,10,0:0:0:0:
254,320,25596,1,2,0:0:0:0:
138,156,25769,2,0,L|91:272,1,125.800000767822,2|0,0:0|0:0,0:0:0:0:
60,101,26116,1,10,0:0:0:0:
288,200,26289,1,2,0:0:0:0:
44,348,26463,6,0,P|10:284|21:230,1,125.800000767822,2|0,0:0|0:0,0:0:0:0:
134,75,26810,5,10,0:0:0:0:
90,272,26983,1,2,0:0:0:0:
226,105,27157,5,2,0:0:0:0:
19,234,27330,1,2,0:0:0:0:
199,25,27503,5,10,0:0:0:0:
161,310,27677,1,2,0:0:0:0:
9,89,27850,6,0,L|159:72,1,125.800000767822,2|0,0:0|0:0,0:0:0:0:
314,75,28197,5,10,0:0:0:0:
100,165,28370,1,2,0:0:0:0:
370,172,28544,5,2,0:0:0:0:
133,74,28717,1,2,0:0:0:0:
396,91,28891,5,10,0:0:0:0:
238,305,29064,1,2,0:0:0:0:
330,44,29237,6,0,L|490:47,1,125.800000767822,2|0,0:0|0:0,0:0:0:0:
370,172,29584,2,0,L|244:174,1,125.800000767822,10|0,0:0|0:0,0:0:0:0:
149,152,29844,1,10,0:0:0:0:
149,152,29931,2,0,L|9:158,1,125.800000767822,2|0,0:0|0:0,0:0:0:0:
149,257,30278,1,10,0:0:0:0:
75,80,30451,1,2,0:0:0:0:
58,286,30625,6,0,P|88:331|168:353,1,125.800000767822,2|0,0:0|0:0,0:0:0:0:
244,173,30972,2,0,P|245:246|230:322,1,125.800000767822,10|0,0:0|0:0,0:0:0:0:
68,206,31318,2,0,P|67:133|82:57,1,125.800000767822,2|0,0:0|0:0,0:0:0:0:
247,83,31665,2,0,L|423:95,1,125.800000767822,10|0,0:0|0:0,0:0:0:0:
482,163,32012,5,2,0:0:0:0:
292,171,32185,1,2,0:0:0:0:
452,65,32359,1,10,0:0:0:0:
407,252,32532,1,2,0:0:0:0:
407,252,32619,1,10,0:0:0:0:
407,252,32706,1,2,0:0:0:0:
387,19,32879,1,2,0:0:0:0:
282,266,33052,2,0,L|425:249,1,125.800000767822,10|0,0:0|0:0,0:0:0:0:
197,356,33399,6,0,P|196:288|180:195,1,140.599998283691,2|0,0:0|0:0,0:0:0:0:
46,123,33746,5,10,0:0:0:0:
101,299,33920,1,2,0:0:0:0:
241,41,34093,5,2,0:0:0:0:
185,216,34267,1,2,0:0:0:0:
92,47,34440,5,10,0:0:0:0:
185,306,34613,1,2,0:0:0:0:
241,41,34787,6,0,L|417:43,1,140.599998283691,2|0,0:0|0:0,0:0:0:0:
502,124,35133,5,10,0:0:0:0:
313,132,35307,1,2,0:0:0:0:
313,132,35394,1,10,0:0:0:0:
313,132,35480,5,2,0:0:0:0:
473,0,35654,1,2,0:0:0:0:
386,225,35827,5,10,0:0:0:0:
241,41,36000,1,2,0:0:0:0:
322,275,36174,6,0,L|168:309,1,140.599998283691,2|0,0:0|0:0,0:0:0:0:
175,101,36521,2,0,L|312:131,1,140.599998283691,10|0,0:0|0:0,0:0:0:0:
386,225,36868,6,0,P|401:291|345:355,1,140.599998283691,2|0,0:0|0:0,0:0:0:0:
111,152,37214,2,0,P|96:86|152:22,1,140.599998283691,10|0,0:0|0:0,0:0:0:0:
303,34,37561,5,2,0:0:0:0:
221,220,37735,1,2,0:0:0:0:
175,101,37908,5,10,0:0:0:0:
217,319,38082,1,2,0:0:0:0:
217,319,38168,1,10,0:0:0:0:
217,319,38255,5,2,0:0:0:0:
31,198,38429,1,2,0:0:0:0:
253,68,38602,5,10,0:0:0:0:
152,365,38775,1,2,0:0:0:0:
312,131,38948,6,0,L|470:126,1,140.599998283691,2|0,0:0|0:0,0:0:0:0:
372,251,39295,5,10,0:0:0:0:
462,43,39469,1,2,0:0:0:0:
235,184,39642,5,2,0:0:0:0:
452,126,39815,1,2,0:0:0:0:
278,284,39989,5,10,0:0:0:0:
350,38,40162,1,2,0:0:0:0:
169,271,40336,6,0,P|132:217|135:141,1,140.599998283691,2|0,0:0|0:0,0:0:0:0:
232,21,40683,2,0,P|237:90|252:173,1,140.599998283691,10|0,0:0|0:0,0:0:0:0:
270,258,40943,1,10,0:0:0:0:
270,258,41029,2,0,P|340:267|414:232,1,140.599998283691,2|0,0:0|0:0,0:0:0:0:
462,41,41376,2,0,P|467:110|482:193,1,140.599998283691,10|0,0:0|0:0,0:0:0:0:
448,353,41723,6,0,L|295:370,1,140.599998283691,2|0,0:0|0:0,0:0:0:0:
169,271,42070,5,10,0:0:0:0:
413,176,42243,1,2,0:0:0:0:
163,192,42417,5,2,0:0:0:0:
418,254,42590,1,2,0:0:0:0:
197,121,42763,5,10,0:0:0:0:
308,368,42937,1,2,0:0:0:0:
79,219,43110,6,0,L|81:65,1,140.599998283691,2|0,0:0|0:0,0:0:0:0:
221,25,43457,1,10,0:0:0:0:
199,256,43631,1,2,0:0:0:0:
199,256,43717,1,10,0:0:0:0:
199,256,43804,1,2,0:0:0:0:
197,121,43977,1,2,0:0:0:0:
79,219,44151,1,10,0:0:0:0:
79,253,44237,1,10,0:0:0:0:
79,288,44324,1,10,0:0:0:0:
79,323,44411,1,10,0:0:0:0:
251,360,49706,5,10,0:0:0:0:
251,360,49792,1,10,0:0:0:0:
251,360,49879,1,10,0:0:0:0:
251,360,49966,1,10,0:0:0:0:
251,360,50056,6,0,L|295:217,1,140.599998283691,2|0,0:0|0:0,0:0:0:0:
163,46,50403,2,0,L|207:189,1,140.599998283691,10|0,0:0|0:0,0:0:0:0:
373,292,50749,2,0,P|432:284|512:233,1,140.599998283691,2|0,0:0|0:0,0:0:0:0:
452,48,51096,2,0,L|410:182,1,140.599998283691,10|0,0:0|0:0,0:0:0:0:
309,365,51443,5,2,0:0:0:0:
318,131,51616,1,2,0:0:0:0:
373,292,51790,1,10,0:0:0:0:
182,268,51963,1,2,0:0:0:0:
182,268,52050,1,10,0:0:0:0:
182,268,52137,1,2,0:0:0:0:
274,225,52397,5,0,0:0:0:0:
274,225,52483,2,0,L|278:190,1,34.6875013232232,2|0,0:0|0:0,0:0:0:0:
216,77,52657,2,0,L|211:111,1,34.6875013232232,2|0,0:0|0:0,0:0:0:0:
182,268,52830,6,0,L|122:98,1,140.599998283691,2|0,0:0|0:0,0:0:0:0:
128,30,53177,1,10,0:0:0:0:
61,225,53350,1,2,0:0:0:0:
274,225,53524,2,0,L|439:211,2,140.599998283691,2|2|8,0:0|0:0|0:0,0:0:0:0:
216,77,54044,1,2,0:0:0:0:
183,267,54217,6,0,B|235:304|235:304|318:323,1,140.599998283691,2|10,0:0|0:0,0:0:0:0:
341,133,54564,2,0,B|284:92|284:92|194:71,1,140.599998283691
73,141,54911,1,10,0:0:0:0:
73,141,55258,1,10,0:0:0:0:
69,175,55344,1,10,0:0:0:0:
65,209,55431,1,10,0:0:0:0:
61,244,55518,1,10,0:0:0:0:
57,278,55605,6,0,L|240:304,1,140.599998283691,2|0,0:0|0:0,0:0:0:0:
336,219,55952,5,10,0:0:0:0:
257,381,56125,1,2,0:0:0:0:
270,132,56298,5,2,0:0:0:0:
331,325,56472,1,2,0:0:0:0:
351,125,56645,5,10,0:0:0:0:
196,298,56819,1,2,0:0:0:0:
421,166,56992,6,0,P|430:123|369:44,1,140.599998283691,2|0,0:0|0:0,0:0:0:0:
153,179,57339,2,0,P|144:222|205:301,1,140.599998283691,10|0,0:0|0:0,0:0:0:0:
293,338,57599,1,10,0:0:0:0:
293,338,57686,2,0,L|440:311,1,140.599998283691,2|0,0:0|0:0,0:0:0:0:
427,165,58032,2,0,P|437:120|373:37,1,140.599998283691,10|0,0:0|0:0,0:0:0:0:
216,77,58379,5,2,0:0:0:0:
345,269,58553,1,2,0:0:0:0:
359,121,58726,5,10,0:0:0:0:
270,333,58900,1,2,0:0:0:0:
297,52,59073,5,2,0:0:0:0:
353,353,59246,1,2,0:0:0:0:
138,142,59420,5,10,0:0:0:0:
460,224,59593,1,2,0:0:0:0:
184,300,59766,6,0,L|-9:318,1,140.599998283691,2|0,0:0|0:0,0:0:0:0:
0,164,60113,1,10,0:0:0:0:
201,216,60287,1,2,0:0:0:0:
201,216,60373,1,10,0:0:0:0:
201,216,60460,1,2,0:0:0:0:
5,245,60634,1,2,0:0:0:0:
218,129,60807,2,0,L|399:118,1,140.599998283691,10|0,0:0|0:0,0:0:0:0:
427,236,61154,6,0,L|417:316,3,69.3750026464463,2|2|2|0,0:0|0:0|0:0|0:0,0:0:0:0:
358,120,61848,2,0,L|348:40,3,69.3750026464463,2|2|2|0,0:0|0:0|0:0|0:0,0:0:0:0:
349,275,62541,6,0,L|177:305,1,140.599998283691,2|0,0:0|0:0,0:0:0:0:
74,368,62888,2,0,P|97:287|76:218,1,140.599998283691,10|0,0:0|0:0,0:0:0:0:
69,143,63148,1,10,0:0:0:0:
69,143,63235,2,0,P|65:72|113:13,1,140.599998283691,2|0,0:0|0:0,0:0:0:0:
217,158,63581,2,0,L|209:321,1,140.599998283691,10|0,0:0|0:0,0:0:0:0:
307,149,63929,6,0,P|283:97|196:68,1,140.599998283691,2|0,0:0|0:0,0:0:0:0:
75,229,64275,5,10,0:0:0:0:
217,158,64449,1,2,0:0:0:0:
142,344,64622,5,2,0:0:0:0:
114,106,64796,1,2,0:0:0:0:
10,352,64969,5,10,0:0:0:0:
209,66,65142,1,2,0:0:0:0:
142,337,65316,6,0,L|302:338,1,140.599998283691,2|0,0:0|0:0,0:0:0:0:
298,191,65663,1,10,0:0:0:0:
375,365,65836,1,2,0:0:0:0:
375,365,65923,1,10,0:0:0:0:
375,365,66009,1,2,0:0:0:0:
193,257,66183,1,2,0:0:0:0:
423,248,66356,2,0,L|467:91,1,140.599998283691,10|0,0:0|0:0,0:0:0:0:
375,31,66703,5,2,0:0:0:0:
390,17,68524,6,0,P|370:46|364:88,1,69.3750026464463,2|0,0:0|0:0,0:0:0:0:
360,103,68784,6,0,L|233:108,1,92.5,2|0,0:0|0:0,0:0:0:0:
126,201,69131,2,0,L|253:196,1,92.5,2|0,0:0|0:0,0:0:0:0:
408,199,69478,6,0,P|370:247|329:317,1,140.599998283691,2|0,0:0|0:0,0:0:0:0:
200,351,69824,2,0,P|123:355|54:349,1,140.599998283691,10|0,0:0|0:0,0:0:0:0:
60,163,70171,1,2,0:0:0:0:
143,265,70345,1,2,0:0:0:0:
0,284,70518,1,10,0:0:0:0:
218,197,70692,1,2,0:0:0:0:
99,49,70865,6,2,P|87:119|86:234,1,140.599998283691,0|0,0:0|0:0,0:0:0:0:
251,111,71212,1,10,0:0:0:0:
222,298,71385,1,2,0:0:0:0:
222,298,71472,6,0,L|231:212,1,70.2999991418457,8|2,0:0|0:0,0:0:0:0:
327,133,71645,2,0,L|318:219,1,70.2999991418457,0|2,0:0|0:0,0:0:0:0:
383,335,71819,2,0,L|392:249,1,70.2999991418457,0|10,0:0|0:0,0:0:0:0:
488,170,71992,2,0,L|479:256,1,70.2999991418457,0|2,0:0|0:0,0:0:0:0:
422,69,72166,1,0,0:0:0:0:
422,69,72252,6,0,L|252:73,1,140.599998283691,2|0,0:0|0:0,0:0:0:0:
187,236,72599,6,0,B|171:184|196:138|196:138|213:87|189:52|189:52|181:106|142:131,1,277.5,10|0,0:0|0:0,0:0:0:0:
85,186,72946,6,0,L|107:48,1,140.599998283691,2|0,0:0|0:0,0:0:0:0:
281,72,73293,2,0,L|259:210,1,140.599998283691,10|0,0:0|0:0,0:0:0:0:
125,312,73640,5,2,0:0:0:0:
321,253,73813,1,2,0:0:0:0:
148,126,73986,5,10,0:0:0:0:
362,182,74160,1,2,0:0:0:0:
362,182,74246,1,10,0:0:0:0:
362,182,74333,2,0,L|523:174,1,140.599998283691,2|0,0:0|0:0,0:0:0:0:
298,53,74680,2,0,P|293:111|252:191,1,140.599998283691,8|0,0:0|0:0,0:0:0:0:
117,329,75027,6,0,P|114:275|93:181,1,140.599998283691,2|0,0:0|0:0,0:0:0:0:
0,38,75374,2,0,P|68:53|138:58,1,140.599998283691,10|0,0:0|0:0,0:0:0:0:
337,46,75720,5,2,0:0:0:0:
172,161,75894,1,2,0:0:0:0:
228,0,76067,5,10,0:0:0:0:
297,160,76241,1,2,0:0:0:0:
138,58,76414,5,2,0:0:0:0:
337,46,76587,1,2,0:0:0:0:
209,226,76761,5,10,0:0:0:0:
417,108,76934,1,2,0:0:0:0:
417,108,77021,1,10,0:0:0:0:
417,108,77108,6,0,P|393:192|484:270,1,210.899997425537,2|0,0:0|0:0,0:0:0:0:
496,290,77455,2,0,L|282:305,1,210.899997425537,10|0,0:0|0:0,0:0:0:0:
204,366,77801,6,0,P|210:321|204:198,1,140.599998283691,2|0,0:0|0:0,0:0:0:0:
332,38,78148,2,2,P|326:83|332:206,1,140.599998283691,10|2,0:0|0:0,0:0:0:0:
285,304,78495,5,2,0:0:0:0:
235,97,78668,1,2,0:0:0:0:
203,355,78842,5,10,0:0:0:0:
327,178,79015,1,2,0:0:0:0:
113,232,79189,6,0,L|38:241,3,69.3750026464463,2|2|2|0,0:0|0:0|0:0|0:0,0:0:0:0:
258,186,79882,2,0,L|333:177,3,69.3750026464463,2|2|2|0,0:0|0:0|0:0|0:0,0:0:0:0:
99,92,80576,6,0,P|106:158|113:248,1,140.599998283691,2|0,0:0|0:0,0:0:0:0:
271,325,80923,2,0,P|263:258|257:169,1,140.599998283691,10|0,0:0|0:0,0:0:0:0:
248,18,81270,1,2,0:0:0:0:
161,185,81443,1,2,0:0:0:0:
343,135,81616,1,10,0:0:0:0:
99,92,81790,1,2,0:0:0:0:
257,185,81962,6,0,P|309:223|396:209,1,140.599998283691,2|0,0:0|0:0,0:0:0:0:
379,0,82310,2,0,P|357:64|343:142,1,140.599998283691,10|0,0:0|0:0,0:0:0:0:
370,348,82657,1,2,0:0:0:0:
420,142,82830,1,2,0:0:0:0:
285,316,83004,1,10,0:0:0:0:
467,248,83177,1,2,0:0:0:0:
248,244,83350,6,0,L|91:275,1,140.599998283691,2|0,0:0|0:0,0:0:0:0:
179,368,83697,5,10,0:0:0:0:
15,258,83871,1,2,0:0:0:0:
94,381,84044,5,2,0:0:0:0:
108,181,84218,1,2,0:0:0:0:
179,368,84391,5,10,0:0:0:0:
227,157,84565,1,2,0:0:0:0:
286,316,84738,5,2,0:0:0:0:
22,188,84911,1,2,0:0:0:0:
321,220,85085,5,10,0:0:0:0:
29,266,85258,1,2,0:0:0:0:
344,138,85431,5,2,0:0:0:0:
22,188,85604,1,2,0:0:0:0:
367,56,85778,5,10,0:0:0:0:
286,316,85952,1,2,0:0:0:0:
160,75,86125,5,2,0:0:0:0:
160,75,86472,2,0,P|159:144|167:237,1,140.599998283691,10|0,0:0|0:0,0:0:0:0:
348,278,86819,2,0,P|349:209|341:116,1,140.599998283691,2|0,0:0|0:0,0:0:0:0:
271,63,87166,1,10,0:0:0:0:
454,180,87339,1,2,0:0:0:0:
250,260,87512,5,2,0:0:0:0:
391,62,87686,1,2,0:0:0:0:
476,281,87859,5,8,0:0:0:0:
247,175,88032,1,2,0:0:0:0:
247,175,88119,1,8,0:0:0:0:
247,175,88206,5,2,0:0:0:0:
481,80,88379,1,2,0:0:0:0:
381,303,88553,5,10,0:0:0:0:
391,62,88726,1,2,0:0:0:0:
250,260,88900,6,0,L|90:254,1,140.599998283691,2|0,0:0|0:0,0:0:0:0:
83,59,89246,1,10,0:0:0:0:
83,59,89593,2,0,P|77:122|52:212,1,140.599998283691,2|0,0:0|0:0,0:0:0:0:
8,379,89940,1,10,0:0:0:0:
8,379,90287,6,0,P|69:383|177:368,1,140.599998283691,2|0,0:0|0:0,0:0:0:0:
348,278,90634,1,10,0:0:0:0:
348,278,90894,1,10,0:0:0:0:
348,278,90981,2,0,P|345:207|359:117,1,140.599998283691,2|0,0:0|0:0,0:0:0:0:
447,0,91327,1,10,0:0:0:0:
447,0,91674,5,2,0:0:0:0:
485,161,91848,1,2,0:0:0:0:
353,138,92021,5,10,0:0:0:0:
504,67,92194,1,2,0:0:0:0:
308,60,92368,5,2,0:0:0:0:
417,235,92541,1,2,0:0:0:0:
235,198,92715,5,10,0:0:0:0:
424,85,92888,1,2,0:0:0:0:
201,82,93061,5,2,0:0:0:0:
335,311,93235,1,2,0:0:0:0:
308,60,93408,5,10,0:0:0:0:
416,319,93582,1,2,0:0:0:0:
416,319,93668,1,10,0:0:0:0:
416,319,93755,5,2,0:0:0:0:
154,251,93929,1,2,0:0:0:0:
238,18,94102,5,10,0:0:0:0:
217,308,94275,1,2,0:0:0:0:
68,59,94449,5,2,0:0:0:0:
68,59,94795,2,0,L|56:234,1,140.599998283691,10|0,0:0|0:0,0:0:0:0:
64,352,95316,1,2,0:0:0:0:
139,282,95489,2,0,L|306:278,1,140.599998283691,10|0,0:0|0:0,0:0:0:0:
407,351,95836,5,2,0:0:0:0:
407,351,96183,2,0,L|440:133,2,210.899997425537,10|10|2,0:0|0:0|0:0,0:0:0:0:
279,278,96877,2,0,L|305:102,1,140.599998283691,10|0,0:0|0:0,0:0:0:0:
413,19,97223,5,2,0:0:0:0:
138,104,97570,5,10,0:0:0:0:
