osu file format v14

[General]
AudioFilename: audio.mp3
AudioLeadIn: 0
PreviewTime: 48746
Countdown: 0
SampleSet: Soft
StackLeniency: 0.7
Mode: 0
LetterboxInBreaks: 0
WidescreenStoryboard: 0

[Editor]
Bookmarks: 746,14246,26246,38246,50246,62246,72746,86246,98246,110246,122246,134246,149246,158246
DistanceSpacing: 1
BeatDivisor: 4
GridSize: 4
TimelineZoom: 1.5

[Metadata]
Title:LOL
TitleUnicode:ЛОЛ
Artist:POSHLAYA MOLLY
ArtistUnicode:ПОШЛАЯ МОЛЛИ
Creator:Alumetri
Version:Skubi's Normal
Source:
Tags:russian synthpunk pop-punk punk rock Кирилл Бледный Kirill Blednyy Очень Страшная Молли 3 Daycore Djulus CptSqBany Skubi
BeatmapID:1855088
BeatmapSetID:883276

[Difficulty]
HPDrainRate:3.5
CircleSize:3
OverallDifficulty:4
ApproachRate:5
SliderMultiplier:1.2
SliderTickRate:1

[Events]
//Background and Video events
0,0,"bg.jpg",0,0
//Break Periods
2,86446,97046
2,146821,147671
//Storyboard Layer 0 (Background)
//Storyboard Layer 1 (Fail)
//Storyboard Layer 2 (Pass)
//Storyboard Layer 3 (Foreground)
//Storyboard Sound Samples

[TimingPoints]
746,375,4,2,1,30,1,0
746,-133.333333333333,4,2,1,30,0,0
2246,-133.333333333333,4,2,0,40,0,0
11246,-100,4,2,1,65,0,0
14246,-100,4,2,1,70,0,1
26246,-100,4,2,1,60,0,0
47246,-100,4,2,1,45,0,0
48746,-100,4,2,1,65,0,0
50246,-100,4,2,1,70,0,1
51746,-100,4,2,10,80,0,1
51933,-100,4,2,1,70,0,1
52121,-100,4,2,10,80,0,1
52308,-100,4,2,1,70,0,1
52496,-100,4,2,1,70,0,1
71058,-100,4,2,1,45,0,1
71246,-100,4,2,1,45,0,0
72746,-100,4,2,1,65,0,0
74246,-100,4,2,1,70,0,1
86246,-100,4,2,1,60,0,0
98246,-100,4,2,1,50,0,0
108746,-100,4,2,1,40,0,0
109121,-100,4,2,1,50,0,0
109496,-100,4,2,1,55,0,0
109871,-100,4,2,1,60,0,0
110246,-100,4,2,1,75,0,1
134246,-100,4,2,1,50,0,0
136871,-100,4,2,1,60,0,0
137246,-100,4,2,1,75,0,1
146621,-100,4,2,1,75,0,0
146996,-100,4,2,1,50,0,0
148871,-100,4,2,1,60,0,0
149246,-100,4,2,1,75,0,1
155058,-100,4,2,1,30,0,1
155246,-100,4,2,1,30,0,0
156933,-100,4,2,1,15,0,0

[Colours]
Combo1 : 159,0,0
Combo2 : 107,0,215
Combo3 : 255,128,64
Combo4 : 0,221,221

[HitObjects]
165,48,2246,6,0,B|434:26|434:26|514:21|523:129|444:134|444:134|264:147,1,630.000024032594,2|2,0:0|0:0,0:0:0:0:
247,235,5246,2,0,B|68:247|68:247|-10:252|-1:360|78:355|78:355|347:333,1,630.000024032594,2|2,0:0|0:0,0:0:0:0:
437,321,8246,2,0,B|388:226|469:148|420:54|420:54|400:151|338:159|219:159|188:47|289:-8|332:51,1,630.000024032594,2|2,0:0|0:0,0:0:0:0:
256,192,11246,12,10,13496,0:0:0:0:
108,264,14246,6,0,L|140:132,1,120,4|2,0:0|0:0,0:0:0:0:
164,32,14996,1,10,0:0:0:0:
256,108,15371,2,0,P|282:62|277:-5,2,120,2|0|2,0:0|0:0|0:0,0:0:0:0:
224,224,16496,1,10,0:0:0:0:
232,236,16683,1,2,0:0:0:0:
240,248,16871,1,0,0:0:0:0:
296,352,17246,6,0,P|336:317|357:241,1,120,2|2,0:0|0:0,0:0:0:0:
356,136,17996,1,10,0:0:0:0:
264,60,18371,2,0,L|136:52,2,120,2|0|2,0:0|0:0|0:0,0:0:0:0:
375,18,19496,1,10,0:0:0:0:
388,16,19683,1,2,0:0:0:0:
401,14,19871,1,2,0:0:0:0:
508,72,20246,6,0,L|500:204,1,120,2|2,0:0|0:0,0:0:0:0:
508,312,20996,1,10,0:0:0:0:
400,260,21371,2,0,P|336:252|272:276,2,120,2|0|2,0:0|0:0|0:0,0:0:0:0:
350,370,22496,1,10,0:0:0:0:
336,368,22683,1,2,0:0:0:0:
322,366,22871,1,0,0:0:0:0:
208,332,23246,6,0,P|183:273|205:205,1,120,2|2,0:0|0:0,0:0:0:0:
256,116,23996,1,10,0:0:0:0:
368,76,24371,2,0,L|492:100,2,120,2|0|2,0:0|0:0|0:0,0:0:0:0:
272,4,25496,2,0,L|154:26,1,120,10|10,0:0|0:0,0:0:0:0:
64,104,26246,6,0,P|58:153|60:224,1,120,2|2,0:0|0:0,0:0:0:0:
72,344,26996,1,10,0:0:0:0:
192,332,27371,2,0,P|249:349|308:359,2,120,2|0|2,0:0|0:0|0:0,0:0:0:0:
184,212,28496,1,0,0:0:0:0:
420,172,29246,5,2,0:0:0:0:
348,76,29621,1,2,0:0:0:0:
232,104,29996,2,0,P|172:94|115:76,1,120,10|2,0:0|0:0,0:0:0:0:
4,32,30746,2,0,P|25:87|38:146,1,120,2|2,0:0|0:0,0:0:0:0:
56,266,31496,1,8,0:0:0:0:
296,244,32246,6,0,P|298:303|291:363,2,120,2|2|10,0:0|0:0|0:0,0:0:0:0:
288,128,33371,1,2,0:0:0:0:
312,12,33746,2,0,P|388:36|440:68,1,120,2|2,0:0|0:0,0:0:0:0:
504,144,34496,1,0,0:0:0:0:
356,300,35246,5,2,0:0:0:0:
270,219,35621,1,2,0:0:0:0:
190,305,35996,2,0,P|126:309|46:301,1,120,10|2,0:0|0:0,0:0:0:0:
29,194,36746,2,0,P|93:198|173:190,1,120,2|2,0:0|0:0,0:0:0:0:
223,102,37496,1,10,0:0:0:0:
0,48,38246,5,2,0:0:0:0:
12,168,38621,1,2,0:0:0:0:
24,288,38996,2,0,P|84:263|126:198,1,120,10|2,0:0|0:0,0:0:0:0:
124,100,39746,1,2,0:0:0:0:
228,159,40121,1,2,0:0:0:0:
332,217,40496,2,0,P|346:143|329:96,1,120,10|0,0:0|0:0,0:0:0:0:
228,40,41246,5,2,0:0:0:0:
228,159,41621,1,2,0:0:0:0:
228,280,41996,2,0,B|304:320|304:320|360:328,2,120,10|2|0,0:0|0:0|0:0,0:0:0:0:
4,376,44246,6,0,L|24:236,1,120,2|2,0:0|0:0,0:0:0:0:
40,140,44996,1,10,0:0:0:0:
60,20,45371,1,2,0:0:0:0:
156,92,45746,2,0,P|216:92|284:136,2,120,2|2|10,0:0|0:0|0:0,0:0:0:0:
188,208,46871,1,0,0:0:0:0:
256,192,47246,12,10,49496,0:0:0:0:
80,62,50246,6,0,P|137:77|197:78,1,120,4|2,0:0|0:0,0:0:0:0:
315,69,50996,2,0,P|375:71|433:86,1,120,10|2,0:0|0:0,0:0:0:0:
438,206,51746,1,0,0:0:0:0:
320,260,52121,1,8,0:0:0:0:
256,160,52496,1,10,0:0:0:0:
242,156,52683,1,2,0:0:0:0:
156,240,53058,1,2,0:0:0:0:
148,227,53246,6,0,P|123:158|144:96,1,120,2|2,0:0|0:0,0:0:0:0:
200,16,53996,1,10,0:0:0:0:
308,72,54371,1,2,0:0:0:0:
309,85,54558,1,2,0:0:0:0:
408,148,54933,1,10,0:0:0:0:
407,161,55121,2,0,P|404:224|424:296,1,120,2|10,0:0|0:0,0:0:0:0:
424,292,55683,1,2,0:0:0:0:
317,341,56058,1,2,0:0:0:0:
303,337,56246,6,0,P|249:333|177:345,1,120,2|2,0:0|0:0,0:0:0:0:
70,374,56996,1,10,0:0:0:0:
92,260,57371,1,2,0:0:0:0:
90,245,57558,1,2,0:0:0:0:
88,230,57746,1,0,0:0:0:0:
16,132,58121,2,0,P|65:109|144:122,1,120,2|10,0:0|0:0,0:0:0:0:
143,120,58683,2,0,P|201:126|256:102,1,120,2|2,0:0|0:0,0:0:0:0:
267,92,59246,5,2,0:0:0:0:
368,24,59621,2,0,P|388:83|371:155,1,120,2|10,0:0|0:0,0:0:0:0:
300,232,60371,1,2,0:0:0:0:
302,247,60558,1,2,0:0:0:0:
304,262,60746,1,0,0:0:0:0:
320,376,61121,1,2,0:0:0:0:
416,300,61496,1,10,0:0:0:0:
414,285,61683,2,0,L|397:132,1,120,2|2,0:0|0:0,0:0:0:0:
400,150,62246,6,0,P|360:96|304:68,1,120,2|0,0:0|0:0,0:0:0:0:
197,71,62996,2,0,P|146:101|112:150,1,120,10|2,0:0|0:0,0:0:0:0:
110,165,63558,1,2,0:0:0:0:
116,284,63933,1,10,0:0:0:0:
128,292,64121,2,0,P|187:307|264:280,1,120,2|10,0:0|0:0,0:0:0:0:
256,286,64683,2,0,P|313:272|371:287,1,120,2|2,0:0|0:0,0:0:0:0:
384,296,65246,5,2,0:0:0:0:
468,212,65621,2,0,L|456:72,1,120,2|10,0:0|0:0,0:0:0:0:
356,28,66371,1,2,0:0:0:0:
342,25,66558,1,2,0:0:0:0:
256,108,66933,1,10,0:0:0:0:
242,111,67121,2,0,P|184:123|112:104,1,120,2|10,0:0|0:0,0:0:0:0:
113,103,67683,1,2,0:0:0:0:
60,212,68058,1,2,0:0:0:0:
58,227,68246,6,0,P|56:312|64:368,1,120,2|2,0:0|0:0,0:0:0:0:
176,376,68996,1,10,0:0:0:0:
292,352,69371,1,2,0:0:0:0:
307,354,69558,1,2,0:0:0:0:
322,356,69746,1,0,0:0:0:0:
440,364,70121,2,0,P|448:292|428:232,1,120,2|10,0:0|0:0,0:0:0:0:
428,234,70683,2,0,P|414:175|423:116,1,120,2|0,0:0|0:0,0:0:0:0:
256,192,71246,12,10,73496,0:0:0:0:
404,120,74246,6,0,L|372:252,1,120,4|2,0:0|0:0,0:0:0:0:
344,352,74996,1,10,0:0:0:0:
269,257,75371,2,0,P|232:305|224:362,2,120,2|0|2,0:0|0:0|0:0,0:0:0:0:
298,140,76496,1,10,0:0:0:0:
290,128,76683,1,2,0:0:0:0:
282,116,76871,1,0,0:0:0:0:
224,10,77246,6,0,P|185:45|161:116,1,120,2|2,0:0|0:0,0:0:0:0:
161,227,77996,1,10,0:0:0:0:
244,312,78371,2,0,L|372:320,2,120,2|0|2,0:0|0:0|0:0,0:0:0:0:
137,366,79496,1,10,0:0:0:0:
124,368,79683,1,2,0:0:0:0:
111,370,79871,1,0,0:0:0:0:
4,312,80246,6,0,L|12:180,1,120,2|2,0:0|0:0,0:0:0:0:
4,72,80996,1,10,0:0:0:0:
112,124,81371,2,0,P|176:132|240:108,2,120,2|0|2,0:0|0:0|0:0,0:0:0:0:
162,14,82496,1,10,0:0:0:0:
176,16,82683,1,2,0:0:0:0:
190,18,82871,1,0,0:0:0:0:
304,52,83246,6,0,P|329:111|307:179,1,120,2|2,0:0|0:0,0:0:0:0:
256,268,83996,1,10,0:0:0:0:
144,308,84371,2,0,L|20:284,2,120,2|0|2,0:0|0:0|0:0,0:0:0:0:
240,380,85496,2,0,L|358:358,1,120,10|0,0:0|0:0,0:0:0:0:
448,280,86246,5,0,0:0:0:0:
72,40,98246,6,0,L|56:184,1,120,2|2,0:0|0:0,0:0:0:0:
44,280,98996,1,10,0:0:0:0:
132,364,99371,1,2,0:0:0:0:
147,366,99558,2,0,B|208:372|208:372|268:368,1,120,2|10,0:0|0:0,0:0:0:0:
281,364,100121,2,0,B|342:358|342:358|400:361,1,120,2|10,0:0|0:0,0:0:0:0:
415,365,100683,1,2,0:0:0:0:
480,264,101058,1,2,0:0:0:0:
475,250,101246,6,0,P|471:180|480:104,1,120,2|2,0:0|0:0,0:0:0:0:
496,12,101996,1,10,0:0:0:0:
380,48,102371,1,2,0:0:0:0:
367,56,102558,2,0,B|309:62|309:62|240:56,1,120,2|10,0:0|0:0,0:0:0:0:
233,52,103121,2,0,B|171:46|171:46|113:52,1,120,2|10,0:0|0:0,0:0:0:0:
99,56,103683,1,2,0:0:0:0:
36,156,104058,1,2,0:0:0:0:
39,171,104246,6,0,L|56:320,1,120,2|2,0:0|0:0,0:0:0:0:
128,384,104996,1,10,0:0:0:0:
200,288,105371,1,2,0:0:0:0:
203,273,105558,2,0,B|212:192|212:192|248:164,1,120,2|10,0:0|0:0,0:0:0:0:
255,160,106121,2,0,B|287:139|287:139|368:130,1,120,2|10,0:0|0:0,0:0:0:0:
383,130,106683,1,2,0:0:0:0:
484,196,107058,1,2,0:0:0:0:
481,211,107246,6,0,P|476:288|496:356,1,120,2|2,0:0|0:0,0:0:0:0:
372,372,107996,1,10,0:0:0:0:
260,328,108371,1,2,0:0:0:0:
245,332,108558,1,2,0:0:0:0:
267,52,110246,6,0,L|392:72,1,120,4|2,0:0|0:0,0:0:0:0:
484,4,110996,1,10,0:0:0:0:
496,124,111371,1,2,0:0:0:0:
498,139,111558,2,0,P|488:208|460:264,1,120,2|10,0:0|0:0,0:0:0:0:
459,266,112121,2,0,P|403:307|343:327,1,120,2|10,0:0|0:0,0:0:0:0:
342,328,112683,1,2,0:0:0:0:
224,328,113058,1,2,0:0:0:0:
209,326,113246,5,2,0:0:0:0:
176,212,113621,1,2,0:0:0:0:
88,292,113996,1,10,0:0:0:0:
52,176,114371,1,2,0:0:0:0:
54,161,114558,2,0,P|80:104|144:60,1,120,2|10,0:0|0:0,0:0:0:0:
137,62,115121,2,0,P|199:56|269:89,1,120,0|10,0:0|0:0,0:0:0:0:
263,86,115683,1,2,0:0:0:0:
374,42,116058,1,2,0:0:0:0:
376,57,116246,6,0,L|386:191,1,120,2|2,0:0|0:0,0:0:0:0:
454,274,116996,1,10,0:0:0:0:
334,281,117371,1,2,0:0:0:0:
319,282,117558,2,0,P|241:303|203:333,1,120,2|10,0:0|0:0,0:0:0:0:
195,325,118121,2,0,P|144:292|86:281,1,120,2|10,0:0|0:0,0:0:0:0:
71,281,118683,1,2,0:0:0:0:
55,161,119058,1,2,0:0:0:0:
58,146,119246,5,2,0:0:0:0:
126,47,119621,1,2,0:0:0:0:
173,157,119996,1,10,0:0:0:0:
243,60,120371,1,2,0:0:0:0:
258,59,120558,2,0,P|318:71|359:109,1,120,2|10,0:0|0:0,0:0:0:0:
367,122,121121,2,0,P|375:183|354:235,1,120,2|10,0:0|0:0,0:0:0:0:
343,246,121683,1,2,0:0:0:0:
260,335,122058,1,2,0:0:0:0:
245,332,122246,6,0,L|120:312,1,120,2|2,0:0|0:0,0:0:0:0:
28,380,122996,1,10,0:0:0:0:
16,260,123371,1,2,0:0:0:0:
14,245,123558,2,0,P|24:176|52:120,1,120,2|10,0:0|0:0,0:0:0:0:
53,118,124121,2,0,P|109:77|169:57,1,120,2|10,0:0|0:0,0:0:0:0:
170,56,124683,1,2,0:0:0:0:
288,56,125058,1,2,0:0:0:0:
303,58,125246,5,2,0:0:0:0:
336,172,125621,1,2,0:0:0:0:
424,92,125996,1,10,0:0:0:0:
460,208,126371,1,2,0:0:0:0:
458,223,126558,2,0,P|432:280|368:324,1,120,2|10,0:0|0:0,0:0:0:0:
375,322,127121,2,0,P|313:328|243:295,1,120,2|10,0:0|0:0,0:0:0:0:
249,298,127683,1,2,0:0:0:0:
138,342,128058,1,2,0:0:0:0:
136,327,128246,6,0,L|126:193,1,120,2|2,0:0|0:0,0:0:0:0:
58,110,128996,1,10,0:0:0:0:
178,103,129371,1,2,0:0:0:0:
193,102,129558,2,0,P|271:81|309:51,1,120,2|10,0:0|0:0,0:0:0:0:
317,59,130121,2,0,P|367:91|425:102,1,120,2|10,0:0|0:0,0:0:0:0:
441,103,130683,1,2,0:0:0:0:
457,223,131058,1,2,0:0:0:0:
454,238,131246,5,2,0:0:0:0:
386,337,131621,1,2,0:0:0:0:
339,227,131996,1,10,0:0:0:0:
269,324,132371,1,2,0:0:0:0:
254,325,132558,2,0,P|193:312|152:274,1,120,2|10,0:0|0:0,0:0:0:0:
145,262,133121,2,0,P|136:200|157:148,1,120,2|10,0:0|0:0,0:0:0:0:
166,137,133683,2,0,P|220:107|276:110,1,120,2|2,0:0|0:0,0:0:0:0:
256,192,134246,12,0,136121,0:0:0:0:
364,157,137246,6,0,P|389:226|368:288,1,120,4|2,0:0|0:0,0:0:0:0:
312,368,137996,1,10,0:0:0:0:
204,312,138371,1,2,0:0:0:0:
203,299,138558,1,2,0:0:0:0:
104,236,138933,1,10,0:0:0:0:
105,223,139121,2,0,P|108:160|88:88,1,120,2|10,0:0|0:0,0:0:0:0:
88,92,139683,1,2,0:0:0:0:
198,51,140058,1,2,0:0:0:0:
212,55,140246,6,0,P|266:59|338:47,1,120,2|2,0:0|0:0,0:0:0:0:
441,8,140996,1,10,0:0:0:0:
420,124,141371,1,2,0:0:0:0:
422,139,141558,1,2,0:0:0:0:
424,154,141746,1,2,0:0:0:0:
496,252,142121,2,0,P|447:275|368:262,1,120,2|10,0:0|0:0,0:0:0:0:
369,264,142683,2,0,P|311:258|256:282,1,120,2|2,0:0|0:0,0:0:0:0:
245,292,143246,5,2,0:0:0:0:
144,360,143621,2,0,P|124:301|141:229,1,120,2|10,0:0|0:0,0:0:0:0:
212,152,144371,1,2,0:0:0:0:
210,137,144558,1,2,0:0:0:0:
208,122,144746,1,0,0:0:0:0:
192,8,145121,1,2,0:0:0:0:
96,84,145496,1,10,0:0:0:0:
98,99,145683,2,0,L|114:251,1,120,2|2,0:0|0:0,0:0:0:0:
112,234,146246,5,2,0:0:0:0:
64,344,146621,1,2,0:0:0:0:
248,80,148871,5,2,0:0:0:0:
128,88,149246,1,4,0:0:0:0:
44,172,149621,2,0,L|56:312,1,120,2|10,0:0|0:0,0:0:0:0:
156,356,150371,1,2,0:0:0:0:
170,359,150558,1,2,0:0:0:0:
256,276,150933,1,10,0:0:0:0:
270,273,151121,2,0,P|328:261|400:280,1,120,2|10,0:0|0:0,0:0:0:0:
399,281,151683,1,2,0:0:0:0:
452,172,152058,1,2,0:0:0:0:
454,157,152246,6,0,P|456:72|448:16,1,120,2|2,0:0|0:0,0:0:0:0:
336,8,152996,1,10,0:0:0:0:
220,32,153371,1,2,0:0:0:0:
205,30,153558,1,2,0:0:0:0:
190,28,153746,1,2,0:0:0:0:
72,20,154121,2,0,P|64:92|84:152,1,120,2|10,0:0|0:0,0:0:0:0:
84,150,154683,2,0,P|97:208|88:267,1,120,2|0,0:0|0:0,0:0:0:0:
256,192,155246,12,0,156933,0:0:0:0:
