osu file format v14

[General]
AudioFilename: audio.mp3
AudioLeadIn: 0
PreviewTime: 48746
Countdown: 0
SampleSet: Soft
StackLeniency: 0.7
Mode: 0
LetterboxInBreaks: 0
WidescreenStoryboard: 0

[Editor]
DistanceSpacing: 5.7
BeatDivisor: 4
GridSize: 32
TimelineZoom: 2.699999

[Metadata]
Title:LOL
TitleUnicode:ЛОЛ
Artist:POSHLAYA MOLLY
ArtistUnicode:ПОШЛАЯ МОЛЛИ
Creator:Alumetri
Version:Djulus' Insane
Source:
Tags:russian synthpunk pop-punk punk rock Кирилл Бледный Kirill Blednyy Очень Страшная Молли 3 Daycore Djulus CptSqBany Skubi
BeatmapID:1848743
BeatmapSetID:883276

[Difficulty]
HPDrainRate:6
CircleSize:4.1
OverallDifficulty:8
ApproachRate:8.7
SliderMultiplier:1.7
SliderTickRate:1

[Events]
//Background and Video events
0,0,"bg.jpg",0,0
//Break Periods
2,86446,97601
2,134446,136226
//Storyboard Layer 0 (Background)
//Storyboard Layer 1 (Fail)
//Storyboard Layer 2 (Pass)
//Storyboard Layer 3 (Foreground)
//Storyboard Sound Samples

[TimingPoints]
746,375,4,2,1,30,1,0
746,-100,4,2,1,30,0,0
2246,-133.333333333333,4,2,0,40,0,0
11246,-133.333333333333,4,2,1,65,0,0
13871,-66.6666666666667,4,2,1,65,0,0
14152,-66.6666666666667,4,2,1,5,0,0
14246,-90.9090909090909,4,2,1,70,0,1
17152,-90.9090909090909,4,2,1,5,0,1
17246,-90.9090909090909,4,2,1,70,0,1
20527,-90.9090909090909,4,2,1,5,0,1
20621,-90.9090909090909,4,2,1,70,0,1
23527,-90.9090909090909,4,2,1,5,0,1
23621,-90.9090909090909,4,2,1,70,0,1
24277,-90.9090909090909,4,2,1,5,0,1
24371,-90.9090909090909,4,2,1,70,0,1
26246,-83.3333333333333,4,2,1,60,0,0
26996,-133.333333333333,4,2,1,60,0,0
37777,-133.333333333333,4,2,1,5,0,0
37871,-133.333333333333,4,2,1,60,0,0
43777,-133.333333333333,4,2,1,5,0,0
43871,-83.3333333333333,4,2,1,60,0,0
44152,-83.3333333333333,4,2,1,5,0,0
44246,-133.333333333333,4,2,1,60,0,0
47246,-133.333333333333,4,2,1,45,0,0
48746,-83.3333333333333,4,2,1,65,0,0
50246,-90.9090909090909,4,2,1,70,0,1
50527,-90.9090909090909,4,2,1,5,0,1
50621,-90.9090909090909,4,2,1,70,0,1
51746,-76.9230769230769,4,2,10,80,0,1
51933,-76.9230769230769,4,2,1,70,0,1
52121,-76.9230769230769,4,2,10,80,0,1
52308,-76.9230769230769,4,2,1,70,0,1
52496,-90.9090909090909,4,2,1,70,0,1
55402,-90.9090909090909,4,2,1,5,0,1
55496,-90.9090909090909,4,2,1,70,0,1
56527,-90.9090909090909,4,2,1,5,0,1
56621,-90.9090909090909,4,2,1,70,0,1
58402,-90.9090909090909,4,2,1,5,0,1
58496,-90.9090909090909,4,2,1,70,0,1
59902,-90.9090909090909,4,2,1,5,0,1
59996,-90.9090909090909,4,2,1,70,0,1
62152,-90.9090909090909,4,2,1,5,0,1
62246,-90.9090909090909,4,2,1,70,0,1
71058,-133.333333333333,4,2,1,45,0,0
72746,-133.333333333333,4,2,1,65,0,0
74246,-90.9090909090909,4,2,1,70,0,1
74527,-90.9090909090909,4,2,1,5,0,1
74621,-90.9090909090909,4,2,1,70,0,1
83527,-90.9090909090909,4,2,1,5,0,1
83621,-90.9090909090909,4,2,1,70,0,1
86246,-78.125,4,2,1,60,0,0
98246,-133.333333333333,4,2,1,50,0,0
108746,-125,4,2,1,40,0,0
109121,-111.111111111111,4,2,1,50,0,0
109496,-100,4,2,1,55,0,0
109871,-90.9090909090909,4,2,1,60,0,0
110246,-90.9090909090909,4,2,1,75,0,1
113527,-90.9090909090909,4,2,1,5,0,1
113621,-90.9090909090909,4,2,1,75,0,1
119527,-90.9090909090909,4,2,1,5,0,1
119621,-90.9090909090909,4,2,1,75,0,1
134246,-111.111111111111,4,2,1,50,0,0
136871,-66.6666666666667,4,2,1,60,0,0
137152,-66.6666666666667,4,2,1,5,0,0
137246,-90.9090909090909,4,2,1,75,0,1
140902,-90.9090909090909,4,2,1,5,0,1
140996,-90.9090909090909,4,2,1,75,0,1
146527,-90.9090909090909,4,2,1,5,0,1
146621,-90.9090909090909,4,2,1,75,0,1
146996,-80,4,2,1,50,0,0
148871,-66.6666666666667,4,2,1,60,0,0
149152,-66.6666666666667,4,2,1,5,0,0
149246,-90.9090909090909,4,2,1,75,0,1
152527,-90.9090909090909,4,2,1,5,0,1
152621,-90.9090909090909,4,2,1,75,0,1
155058,-133.333333333333,4,2,1,30,0,0
156933,-133.333333333333,4,2,1,30,0,0
157308,-133.333333333333,4,2,1,5,0,0

[Colours]
Combo1 : 159,0,0
Combo2 : 107,0,215
Combo3 : 255,128,64
Combo4 : 0,221,221

[HitObjects]
93,135,2246,6,0,B|194:108|194:108|242:128|209:195,1,191.250007295609,2|0,0:0|0:0,0:0:0:0:
278,332,2996,2,0,L|291:204,1,127.500004863739,2|0,0:0|0:0,0:0:0:0:
358,141,3558,1,2,0:0:0:0:
358,141,4121,5,2,0:0:0:0:
428,166,4308,1,0,0:0:0:0:
492,118,4496,1,0,0:0:0:0:
397,6,4683,5,2,0:0:0:0:
330,44,4871,2,0,B|248:42|288:0|190:-1,2,127.500004863739,0|2|2,0:0|0:0|0:0,0:0:0:0:
330,44,5996,1,2,0:0:0:0:
261,158,6183,2,0,P|270:200|274:232,2,63.7500024318696,0|0|2,0:0|0:0|0:0,0:0:0:0:
73,342,7121,6,0,P|114:332|148:326,1,63.7500024318696,2|0,0:0|0:0,0:0:0:0:
272,220,7871,6,0,P|320:225|352:234,1,63.7500024318696,2|0,0:0|0:0,0:0:0:0:
474,137,8621,6,0,P|436:142|394:145,1,63.7500024318696,2|0,0:0|0:0,0:0:0:0:
320,329,9371,6,0,P|272:334|240:343,1,63.7500024318696,2|2,0:0|0:0,0:0:0:0:
88,327,9746,6,0,B|161:368|234:311|170:231|205:156|366:188|367:388|197:447|140:243|173:161,1,510.000019454957,2|10,0:0|0:0,0:0:0:0:
171,164,11621,5,10,0:0:0:0:
171,191,11808,1,10,0:0:0:0:
301,133,11996,5,10,0:0:0:0:
310,156,12183,1,10,0:0:0:0:
117,100,12371,5,10,0:0:0:0:
129,67,12558,1,10,0:0:0:0:
282,267,12746,5,10,0:0:0:0:
245,289,12933,1,10,0:0:0:0:
414,176,13121,5,10,0:0:0:0:
479,203,13308,1,10,0:0:0:0:
339,54,13496,5,10,0:0:0:0:
252,74,13683,1,10,0:0:0:0:
212,169,13871,6,0,B|87:195|165:246|56:266,1,191.250007295609,10|0,0:0|0:0,0:0:0:0:
57,266,14246,6,0,L|163:293,1,93.5000028533936,4|0,0:0|0:0,0:0:0:0:
281,357,14621,2,0,P|343:342|315:266,1,140.25000428009,2|0,0:0|0:0,0:0:0:0:
315,257,14996,1,10,0:0:0:0:
315,257,15371,5,2,0:0:0:0:
417,275,15558,1,2,0:0:0:0:
280,104,15746,5,0,0:0:0:0:
208,140,15933,1,10,0:0:0:0:
50,84,16121,6,0,P|121:66|155:112,1,93.5000028533936,2|0,0:0|0:0,0:0:0:0:
104,174,16496,1,10,0:0:0:0:
91,250,16683,1,2,0:0:0:0:
208,323,16871,2,0,P|263:308|364:309,1,140.25000428009,0|0,0:0|0:0,0:0:0:0:
345,306,17246,6,0,P|354:243|349:184,1,93.5000028533936,2|0,0:0|0:0,0:0:0:0:
337,44,17621,2,0,B|408:81|376:113|433:142,1,140.25000428009,2|0,0:0|0:0,0:0:0:0:
459,149,17996,1,10,0:0:0:0:
459,149,18371,5,2,0:0:0:0:
502,227,18558,1,2,0:0:0:0:
329,364,18746,5,0,0:0:0:0:
363,290,18933,1,10,0:0:0:0:
299,190,19121,6,0,P|235:177|195:285,1,187.000005706787,2|10,0:0|0:0,0:0:0:0:
63,358,19683,1,2,0:0:0:0:
90,282,19871,1,2,0:0:0:0:
24,188,20058,1,2,0:0:0:0:
67,123,20246,6,0,B|139:109|88:49|208:40,1,140.25000428009,2|0,0:0|0:0,0:0:0:0:
176,44,20621,1,2,0:0:0:0:
251,118,20808,1,0,0:0:0:0:
214,185,20996,1,10,0:0:0:0:
214,185,21371,5,2,0:0:0:0:
283,224,21558,1,2,0:0:0:0:
436,93,21746,5,0,0:0:0:0:
363,119,21933,1,10,0:0:0:0:
425,228,22121,6,0,P|483:239|505:306,1,93.5000028533936,2|0,0:0|0:0,0:0:0:0:
408,369,22496,1,10,0:0:0:0:
350,314,22683,1,2,0:0:0:0:
288,358,22871,1,0,0:0:0:0:
139,288,23058,5,0,0:0:0:0:
194,222,23246,2,0,B|276:196|199:149|326:133,1,140.25000428009,2|0,0:0|0:0,0:0:0:0:
296,137,23621,2,0,P|301:68|308:29,1,93.5000028533936,2|0,0:0|0:0,0:0:0:0:
93,22,23996,2,0,P|127:78|79:149,1,140.25000428009,10|0,0:0|0:0,0:0:0:0:
96,140,24371,1,2,0:0:0:0:
160,229,24558,1,2,0:0:0:0:
106,289,24746,5,0,0:0:0:0:
102,313,24933,1,10,0:0:0:0:
280,303,25121,5,2,0:0:0:0:
252,233,25308,1,0,0:0:0:0:
379,62,25496,5,10,0:0:0:0:
350,166,25683,1,10,0:0:0:0:
494,233,25871,6,0,P|507:199|514:165,1,46.7500014266968,10|0,0:0|0:0,0:0:0:0:
508,159,26058,1,10,0:0:0:0:
278,75,26246,5,2,0:0:0:0:
278,75,26621,1,2,0:0:0:0:
278,75,26996,2,0,L|201:64,1,63.7500024318696,10|0,0:0|0:0,0:0:0:0:
86,208,27371,2,0,P|142:191|170:183,1,63.7500024318696,2|2,0:0|0:0,0:0:0:0:
152,18,27746,5,0,0:0:0:0:
123,88,27933,1,10,0:0:0:0:
249,221,28121,2,0,P|250:165|252:133,2,63.7500024318696,2|0|0,0:0|0:0|0:0,0:0:0:0:
323,324,28683,2,0,P|357:310|387:297,1,63.7500024318696,2|0,0:0|0:0,0:0:0:0:
249,221,29058,1,2,0:0:0:0:
365,77,29246,6,0,P|392:131|351:192,2,127.500004863739,2|2|10,0:0|0:0|0:0,0:0:0:0:
365,77,30371,1,2,0:0:0:0:
305,40,30558,1,2,0:0:0:0:
181,89,30746,6,0,B|114:112|155:151|72:178,1,127.500004863739,2|2,0:0|0:0,0:0:0:0:
0,269,31308,2,0,P|63:250|111:298,1,127.500004863739,0|2,0:0|0:0,0:0:0:0:
149,347,31871,1,0,0:0:0:0:
280,326,32058,1,2,0:0:0:0:
190,186,32246,6,0,P|205:248|206:252,1,63.7500024318696,2|0,0:0|0:0,0:0:0:0:
352,368,32621,2,0,P|362:327|370:291,1,63.7500024318696,2|0,0:0|0:0,0:0:0:0:
499,165,32996,1,10,0:0:0:0:
499,165,33371,1,2,0:0:0:0:
403,147,33558,1,2,0:0:0:0:
348,69,33746,6,0,B|285:97|324:128|239:168,2,127.500004863739,2|2|0,0:0|0:0|0:0,0:0:0:0:
348,69,34871,1,0,0:0:0:0:
264,33,35058,1,2,0:0:0:0:
190,88,35246,6,0,P|135:99|112:101,1,63.7500024318696,2|0,0:0|0:0,0:0:0:0:
35,204,35621,2,0,P|81:209|111:216,1,63.7500024318696,2|0,0:0|0:0,0:0:0:0:
186,341,35996,1,10,0:0:0:0:
186,341,36371,1,2,0:0:0:0:
246,288,36558,1,2,0:0:0:0:
350,356,36746,6,0,B|421:326|381:300|455:277,1,127.500004863739,2|2,0:0|0:0,0:0:0:0:
475,289,37308,1,0,0:0:0:0:
383,113,37496,2,0,P|345:160|372:209,1,95.6250036478044,10|0,0:0|0:0,0:0:0:0:
352,189,37871,1,0,0:0:0:0:
254,144,38058,1,2,0:0:0:0:
137,213,38246,6,0,L|121:346,2,127.500004863739,2|2|10,0:0|0:0|0:0,0:0:0:0:
137,213,39371,1,2,0:0:0:0:
94,156,39558,1,2,0:0:0:0:
199,33,39746,2,0,P|192:73|189:104,1,63.7500024318696,2|10,0:0|0:0,0:0:0:0:
360,248,40121,2,0,P|348:196|345:168,1,63.7500024318696,2|0,0:0|0:0,0:0:0:0:
471,73,40496,1,10,0:0:0:0:
471,73,40871,1,0,0:0:0:0:
399,30,41058,1,2,0:0:0:0:
250,139,41246,6,0,L|263:222,1,63.7500024318696,2|0,0:0|0:0,0:0:0:0:
174,353,41621,2,0,L|186:275,1,63.7500024318696,2|0,0:0|0:0,0:0:0:0:
39,188,41996,1,10,0:0:0:0:
39,188,42371,1,2,0:0:0:0:
92,249,42558,1,0,0:0:0:0:
49,355,42746,6,0,P|103:343|200:364,1,127.500004863739,0|0,0:0|0:0,0:0:0:0:
446,220,43496,2,0,L|323:246,1,95.6250036478044,0|0,0:0|0:0,0:0:0:0:
334,246,43871,6,0,B|425:271|371:305|466:342,1,152.999995330811,10|0,0:0|0:0,0:0:0:0:
478,325,44246,5,2,0:0:0:0:
240,190,44621,1,2,0:0:0:0:
368,32,44996,2,0,L|352:113,1,63.7500024318696,10|0,0:0|0:0,0:0:0:0:
240,190,45371,1,2,0:0:0:0:
172,160,45558,1,2,0:0:0:0:
21,273,45746,5,2,0:0:0:0:
99,290,45933,1,10,0:0:0:0:
172,160,46121,2,0,B|122:135|131:99|61:62,1,127.500004863739,2|10,0:0|0:0,0:0:0:0:
80,73,46683,1,2,0:0:0:0:
80,73,47058,1,2,0:0:0:0:
221,61,47246,6,0,B|304:17|377:59|380:250|529:157|551:57|488:2|400:-3|366:62|412:90,1,446.250017023087,0|0,0:0|0:0,0:0:0:0:
340,209,48746,5,10,0:0:0:0:
412,236,48933,1,10,0:0:0:0:
280,298,49121,5,10,0:0:0:0:
117,372,49308,1,10,0:0:0:0:
0,150,49496,5,10,0:0:0:0:
200,226,49683,1,10,0:0:0:0:
72,288,49871,5,0,0:0:0:0:
92,277,50058,1,0,0:0:0:0:
141,22,50246,6,0,P|72:43|72:113,1,140.25000428009,4|0,0:0|0:0,0:0:0:0:
66,102,50621,1,2,0:0:0:0:
141,153,50808,1,0,0:0:0:0:
0,316,50996,2,0,P|-7:260|25:229,1,93.5000028533936,10|0,0:0|0:0,0:0:0:0:
146,351,51371,1,2,0:0:0:0:
321,251,51558,2,0,P|272:260|263:262,1,46.7500014266968,2|0,0:0|0:0,0:0:0:0:
250,279,51746,5,8,0:0:0:0:
379,334,51933,1,10,0:0:0:0:
461,231,52121,1,8,0:0:0:0:
342,163,52308,1,0,0:0:0:0:
460,37,52496,6,0,P|441:92|439:141,1,93.5000028533936,10|2,0:0|0:0,0:0:0:0:
250,279,52871,2,0,P|257:221|254:181,1,93.5000028533936,0|2,0:0|0:0,0:0:0:0:
21,73,53246,6,0,P|104:67|158:150,2,187.000005706787,2|2|10,0:0|0:0|0:0,0:0:0:0:
66,155,54183,1,0,0:0:0:0:
31,282,54371,5,2,0:0:0:0:
109,308,54558,1,2,0:0:0:0:
225,192,54746,5,0,0:0:0:0:
157,145,54933,1,10,0:0:0:0:
270,57,55121,6,0,B|341:80|308:118|388:153,1,140.25000428009,2|0,0:0|0:0,0:0:0:0:
392,162,55496,1,10,0:0:0:0:
457,117,55683,1,2,0:0:0:0:
418,48,55871,1,0,0:0:0:0:
502,216,56058,1,2,0:0:0:0:
431,267,56246,6,0,B|352:272|393:323|290:340,1,140.25000428009,2|0,0:0|0:0,0:0:0:0:
313,334,56621,2,0,P|319:272|323:220,1,93.5000028533936,2|0,0:0|0:0,0:0:0:0:
112,201,56996,1,10,0:0:0:0:
112,201,57371,5,2,0:0:0:0:
189,236,57558,1,2,0:0:0:0:
389,104,57746,5,0,0:0:0:0:
315,136,57933,1,10,0:0:0:0:
261,76,58121,6,0,B|200:64|217:17|122:15,1,140.25000428009,2|0,0:0|0:0,0:0:0:0:
112,39,58496,1,10,0:0:0:0:
112,39,58871,5,0,0:0:0:0:
179,111,59058,1,2,0:0:0:0:
70,189,59246,5,2,0:0:0:0:
39,265,59433,1,0,0:0:0:0:
159,352,59621,6,0,P|215:309|278:341,1,140.25000428009,2|0,0:0|0:0,0:0:0:0:
273,333,59996,2,0,P|332:308|365:300,1,93.5000028533936,10|0,0:0|0:0,0:0:0:0:
456,210,60371,1,2,0:0:0:0:
427,138,60558,1,2,0:0:0:0:
292,44,60746,5,0,0:0:0:0:
299,65,60933,1,10,0:0:0:0:
194,216,61121,1,2,0:0:0:0:
303,170,61308,1,0,0:0:0:0:
180,105,61496,2,0,P|111:91|75:86,1,93.5000028533936,10|2,0:0|0:0,0:0:0:0:
282,19,61871,2,0,B|366:29|320:86|426:102,1,140.25000428009,0|0,0:0|0:0,0:0:0:0:
394,94,62246,6,0,L|300:152,1,93.5000028533936,2|0,0:0|0:0,0:0:0:0:
177,313,62621,2,0,P|248:322|276:329,1,93.5000028533936,0|0,0:0|0:0,0:0:0:0:
453,366,62996,2,0,P|462:305|408:274,1,93.5000028533936,10|0,0:0|0:0,0:0:0:0:
215,100,63371,5,2,0:0:0:0:
230,175,63558,1,2,0:0:0:0:
73,232,63746,5,0,0:0:0:0:
106,128,63933,1,10,0:0:0:0:
0,38,64121,2,0,P|23:97|32:131,1,93.5000028533936,2|0,0:0|0:0,0:0:0:0:
159,256,64496,2,0,P|141:316|139:357,1,93.5000028533936,10|2,0:0|0:0,0:0:0:0:
393,286,64871,1,0,0:0:0:0:
312,223,65058,1,2,0:0:0:0:
244,345,65246,6,0,P|296:336|305:276,1,93.5000028533936,2|0,0:0|0:0,0:0:0:0:
179,132,65621,2,0,P|113:160|119:208,1,93.5000028533936,2|0,0:0|0:0,0:0:0:0:
394,218,65996,5,10,0:0:0:0:
355,153,66183,1,0,0:0:0:0:
475,47,66371,5,2,0:0:0:0:
463,146,66558,1,2,0:0:0:0:
279,230,66746,5,0,0:0:0:0:
259,219,66933,1,10,0:0:0:0:
83,348,67121,2,0,L|176:318,1,93.5000028533936,2|0,0:0|0:0,0:0:0:0:
242,351,67496,5,10,0:0:0:0:
101,237,67683,1,2,0:0:0:0:
177,102,67871,5,0,0:0:0:0:
259,132,68058,1,2,0:0:0:0:
123,19,68246,6,0,P|67:45|75:172,2,187.000005706787,2|2|10,0:0|0:0|0:0,0:0:0:0:
123,19,69371,5,2,0:0:0:0:
259,132,69558,1,2,0:0:0:0:
305,17,69746,5,0,0:0:0:0:
225,57,69933,1,10,0:0:0:0:
173,206,70121,6,0,P|230:224|265:238,1,93.5000028533936,2|0,0:0|0:0,0:0:0:0:
155,230,70496,1,10,0:0:0:0:
446,142,70683,6,0,B|341:185|392:229|319:283,1,187.000005706787,2|0,0:0|0:0,0:0:0:0:
337,285,71621,6,0,P|394:306|418:316,1,63.7500024318696,0|0,0:0|0:0,0:0:0:0:
146,126,72371,6,0,P|96:138|63:145,1,63.7500024318696,0|0,0:0|0:0,0:0:0:0:
16,213,72746,5,10,0:0:0:0:
86,248,72933,1,10,0:0:0:0:
325,69,73121,5,10,0:0:0:0:
146,126,73308,1,10,0:0:0:0:
349,232,73496,5,10,0:0:0:0:
511,315,73683,1,10,0:0:0:0:
454,176,73871,5,10,0:0:0:0:
442,199,74058,1,10,0:0:0:0:
266,345,74246,6,0,P|229:269|266:236,1,140.25000428009,4|0,0:0|0:0,0:0:0:0:
260,238,74621,2,0,P|194:224|165:215,1,93.5000028533936,2|0,0:0|0:0,0:0:0:0:
333,80,74996,2,0,P|390:64|435:55,1,93.5000028533936,10|0,0:0|0:0,0:0:0:0:
283,142,75371,1,2,0:0:0:0:
128,107,75558,1,2,0:0:0:0:
128,107,75933,5,10,0:0:0:0:
117,301,76121,2,0,B|162:269|128:248|197:223,1,93.5000028533936,2|0,0:0|0:0,0:0:0:0:
358,205,76496,1,10,0:0:0:0:
372,217,76683,1,2,0:0:0:0:
310,339,76871,2,0,P|249:319|208:319,1,93.5000028533936,0|0,0:0|0:0,0:0:0:0:
472,161,77246,6,0,L|441:359,2,187.000005706787,2|2|10,0:0|0:0|0:0,0:0:0:0:
472,161,78371,1,2,0:0:0:0:
371,39,78558,1,2,0:0:0:0:
371,39,78933,5,10,0:0:0:0:
230,152,79121,2,0,P|277:160|323:169,1,93.5000028533936,2|0,0:0|0:0,0:0:0:0:
159,270,79496,1,10,0:0:0:0:
141,250,79683,1,2,0:0:0:0:
23,348,79871,1,0,0:0:0:0:
50,274,80058,1,2,0:0:0:0:
64,77,80246,6,0,P|19:116|26:166,1,93.5000028533936,2|0,0:0|0:0,0:0:0:0:
168,102,80621,1,2,0:0:0:0:
224,43,80808,1,0,0:0:0:0:
321,132,80996,1,10,0:0:0:0:
321,132,81371,5,2,0:0:0:0:
204,304,81558,1,2,0:0:0:0:
204,304,81933,5,10,0:0:0:0:
230,208,82121,2,0,L|357:250,1,93.5000028533936,2|0,0:0|0:0,0:0:0:0:
455,181,82496,1,10,0:0:0:0:
424,193,82683,1,2,0:0:0:0:
315,342,82871,1,0,0:0:0:0:
245,311,83058,1,2,0:0:0:0:
166,331,83246,6,0,B|104:309|132:258|66:240,1,140.25000428009,2|0,0:0|0:0,0:0:0:0:
65,240,83621,2,0,P|114:213|165:196,1,93.5000028533936,2|0,0:0|0:0,0:0:0:0:
51,40,83996,2,0,P|19:98|36:126,1,93.5000028533936,10|0,0:0|0:0,0:0:0:0:
229,241,84371,1,2,0:0:0:0:
205,143,84558,1,2,0:0:0:0:
205,143,84933,5,10,0:0:0:0:
327,121,85121,1,2,0:0:0:0:
385,169,85308,1,0,0:0:0:0:
256,40,85496,2,0,P|211:51|155:49,1,93.5000028533936,10|2,0:0|0:0,0:0:0:0:
61,266,85871,1,0,0:0:0:0:
127,225,86058,1,0,0:0:0:0:
28,155,86246,5,0,0:0:0:0:
445,300,98246,6,0,P|452:229|454:144,2,127.500004863739,2|2|10,0:0|0:0|0:0,0:0:0:0:
246,237,99371,1,2,0:0:0:0:
158,278,99558,6,0,P|200:263|233:256,1,63.7500024318696,2|0,0:0|0:0,0:0:0:0:
100,176,99933,1,10,0:0:0:0:
100,176,100121,2,0,P|36:200|22:267,1,127.500004863739,2|10,0:0|0:0,0:0:0:0:
181,167,100683,2,0,P|188:98|201:26,1,127.500004863739,2|2,0:0|0:0,0:0:0:0:
282,25,101246,5,2,0:0:0:0:
282,25,101621,1,2,0:0:0:0:
383,38,101996,2,0,P|351:41|322:53,1,63.7500024318696,10|0,0:0|0:0,0:0:0:0:
465,105,102371,1,2,0:0:0:0:
465,105,102558,1,2,0:0:0:0:
321,218,102933,5,10,0:0:0:0:
392,187,103121,2,0,P|335:179|247:173,1,127.500004863739,2|10,0:0|0:0,0:0:0:0:
156,234,103683,2,0,B|210:254|184:286|253:336,1,127.500004863739,2|2,0:0|0:0,0:0:0:0:
331,321,104246,5,2,0:0:0:0:
331,321,104621,1,2,0:0:0:0:
410,328,104996,2,0,P|370:318|321:304,1,63.7500024318696,10|0,0:0|0:0,0:0:0:0:
479,243,105371,1,2,0:0:0:0:
479,243,105558,1,2,0:0:0:0:
339,124,105933,5,10,0:0:0:0:
395,68,106121,2,0,L|381:222,1,127.500004863739,2|10,0:0|0:0,0:0:0:0:
173,37,106683,2,0,P|220:21|277:66,1,127.500004863739,2|2,0:0|0:0,0:0:0:0:
205,117,107246,5,2,0:0:0:0:
205,117,107621,1,2,0:0:0:0:
122,159,107996,2,0,P|181:142|213:135,1,63.7500024318696,10|0,0:0|0:0,0:0:0:0:
70,235,108371,1,2,0:0:0:0:
70,235,108558,1,2,0:0:0:0:
233,274,108746,6,0,B|307:312|392:261|317:203|465:196|502:209|465:402|315:365|344:205|310:206,1,408,0|0,0:0|0:0,0:0:0:0:
318,212,110058,2,0,L|328:166,1,46.7500014266968,0|0,0:0|0:0,0:0:0:0:
341,130,110246,5,4,0:0:0:0:
232,163,110433,1,0,0:0:0:0:
100,35,110621,1,2,0:0:0:0:
126,148,110808,5,0,0:0:0:0:
214,42,110996,1,10,0:0:0:0:
223,56,111183,1,0,0:0:0:0:
39,271,111371,1,2,0:0:0:0:
50,174,111558,1,2,0:0:0:0:
50,174,111933,5,10,0:0:0:0:
207,310,112121,2,0,P|241:259|193:218,1,93.5000028533936,2|0,0:0|0:0,0:0:0:0:
115,350,112496,1,10,0:0:0:0:
325,334,112683,2,0,P|368:320|427:306,1,93.5000028533936,2|0,0:0|0:0,0:0:0:0:
311,186,113058,1,2,0:0:0:0:
492,106,113246,6,0,B|409:98|448:42|336:52,1,140.25000428009,2|0,0:0|0:0,0:0:0:0:
367,50,113621,2,0,P|391:122|402:158,1,93.5000028533936,2|0,0:0|0:0,0:0:0:0:
187,280,113996,2,0,P|194:207|193:155,1,93.5000028533936,10|0,0:0|0:0,0:0:0:0:
40,66,114371,1,2,0:0:0:0:
103,188,114558,1,2,0:0:0:0:
103,188,114933,5,10,0:0:0:0:
293,132,115121,1,0,0:0:0:0:
293,132,115496,5,10,0:0:0:0:
148,55,115683,1,2,0:0:0:0:
193,147,115871,5,0,0:0:0:0:
257,37,116058,1,2,0:0:0:0:
426,202,116246,5,2,0:0:0:0:
346,215,116433,1,0,0:0:0:0:
439,297,116621,2,0,P|498:315|546:337,1,93.5000028533936,2|0,0:0|0:0,0:0:0:0:
322,353,116996,1,10,0:0:0:0:
322,353,117371,5,2,0:0:0:0:
186,228,117558,2,0,P|190:171|181:116,1,93.5000028533936,2|2,0:0|0:0,0:0:0:0:
161,237,117933,1,10,0:0:0:0:
260,37,118121,2,0,P|299:85|274:134,1,93.5000028533936,2|0,0:0|0:0,0:0:0:0:
64,189,118496,5,10,0:0:0:0:
87,117,118683,1,2,0:0:0:0:
278,211,118871,5,0,0:0:0:0:
237,281,119058,1,2,0:0:0:0:
310,344,119246,6,0,P|365:321|440:380,1,140.25000428009,2|0,0:0|0:0,0:0:0:0:
430,358,119621,2,0,P|420:289|425:242,1,93.5000028533936,2|0,0:0|0:0,0:0:0:0:
498,138,119996,1,10,0:0:0:0:
498,138,120371,5,2,0:0:0:0:
314,54,120558,1,2,0:0:0:0:
314,54,120933,5,10,0:0:0:0:
143,175,121121,2,0,P|191:186|230:144,1,93.5000028533936,2|0,0:0|0:0,0:0:0:0:
134,69,121496,5,10,0:0:0:0:
63,96,121683,1,2,0:0:0:0:
14,235,121871,5,0,0:0:0:0:
86,266,122058,1,2,0:0:0:0:
247,366,122246,5,2,0:0:0:0:
316,335,122433,1,0,0:0:0:0:
214,246,122621,1,2,0:0:0:0:
313,147,122808,1,0,0:0:0:0:
404,246,122996,2,0,P|319:226|286:217,1,93.5000028533936,10|0,0:0|0:0,0:0:0:0:
401,52,123371,5,2,0:0:0:0:
477,169,123558,1,2,0:0:0:0:
477,169,123933,5,10,0:0:0:0:
323,81,124121,1,2,0:0:0:0:
221,157,124308,1,0,0:0:0:0:
142,66,124496,5,10,0:0:0:0:
228,80,124683,1,2,0:0:0:0:
104,198,124871,5,0,0:0:0:0:
17,220,125058,1,2,0:0:0:0:
190,308,125246,6,0,B|291:295|244:227|353:198,2,187.000005706787,2|2|10,0:0|0:0|0:0,0:0:0:0:
190,308,126371,5,2,0:0:0:0:
374,349,126558,1,2,0:0:0:0:
374,349,126933,5,10,0:0:0:0:
459,186,127121,2,0,P|490:243|467:284,1,93.5000028533936,2|0,0:0|0:0,0:0:0:0:
345,212,127496,5,10,0:0:0:0:
359,184,127683,1,2,0:0:0:0:
453,68,127871,1,0,0:0:0:0:
385,35,128058,1,2,0:0:0:0:
210,134,128246,5,2,0:0:0:0:
302,133,128433,1,0,0:0:0:0:
207,42,128621,1,2,0:0:0:0:
126,182,128808,1,0,0:0:0:0:
12,66,128996,2,0,L|111:97,1,93.5000028533936,10|0,0:0|0:0,0:0:0:0:
206,229,129371,5,2,0:0:0:0:
130,269,129558,1,2,0:0:0:0:
130,269,129933,5,10,0:0:0:0:
316,188,130121,1,2,0:0:0:0:
316,188,130496,5,10,0:0:0:0:
385,235,130683,1,2,0:0:0:0:
445,188,130871,1,0,0:0:0:0:
241,335,131058,1,2,0:0:0:0:
222,252,131246,6,0,P|310:268|342:352,2,187.000005706787,2|2|10,0:0|0:0|0:0,0:0:0:0:
96,140,132183,1,0,0:0:0:0:
184,80,132371,5,2,0:0:0:0:
110,251,132558,1,2,0:0:0:0:
110,251,132933,5,10,0:0:0:0:
236,144,133121,1,2,0:0:0:0:
314,160,133308,1,0,0:0:0:0:
461,250,133496,2,0,L|359:272,1,93.5000028533936,10|2,0:0|0:0,0:0:0:0:
414,107,133871,1,0,0:0:0:0:
430,130,134058,1,2,0:0:0:0:
279,271,134246,5,0,0:0:0:0:
64,213,136871,6,0,B|157:176|108:135|230:87,1,191.250007295609,2|0,0:0|0:0,0:0:0:0:
227,97,137246,6,0,B|243:140|243:140|217:221,1,93.5000028533936,4|0,0:0|0:0,0:0:0:0:
335,325,137621,2,0,B|322:279|322:279|358:215,1,93.5000028533936,2|0,0:0|0:0,0:0:0:0:
252,354,137996,1,10,0:0:0:0:
447,237,138183,1,0,0:0:0:0:
326,59,138371,5,2,0:0:0:0:
352,160,138558,1,2,0:0:0:0:
352,160,138933,5,10,0:0:0:0:
186,112,139121,1,2,0:0:0:0:
186,112,139496,5,10,0:0:0:0:
234,213,139683,1,2,0:0:0:0:
50,302,139871,1,0,0:0:0:0:
77,235,140058,1,2,0:0:0:0:
276,289,140246,6,0,P|230:298|185:312,1,93.5000028533936,2|0,0:0|0:0,0:0:0:0:
15,166,140621,2,0,P|72:126|145:159,1,140.25000428009,2|0,0:0|0:0,0:0:0:0:
152,175,140996,1,10,0:0:0:0:
152,175,141371,5,2,0:0:0:0:
219,126,141558,1,2,0:0:0:0:
369,196,141746,5,2,0:0:0:0:
442,172,141933,1,10,0:0:0:0:
286,40,142121,6,0,P|299:104|305:147,1,93.5000028533936,2|0,0:0|0:0,0:0:0:0:
232,264,142496,1,10,0:0:0:0:
312,252,142683,1,2,0:0:0:0:
177,364,142871,2,0,P|141:323|146:274,1,93.5000028533936,0|2,0:0|0:0,0:0:0:0:
32,105,143246,6,0,L|57:311,2,187.000005706787,2|2|10,0:0|0:0|0:0,0:0:0:0:
32,105,144371,5,2,0:0:0:0:
239,140,144558,1,2,0:0:0:0:
146,39,144746,5,0,0:0:0:0:
157,71,144933,1,10,0:0:0:0:
310,225,145121,5,2,0:0:0:0:
333,145,145308,1,0,0:0:0:0:
149,224,145496,5,10,0:0:0:0:
175,301,145683,1,2,0:0:0:0:
386,216,145871,6,0,P|457:205|491:200,1,93.5000028533936,0|2,0:0|0:0,0:0:0:0:
334,46,146246,2,0,B|255:71|278:127|215:152,1,140.25000428009,2|0,0:0|0:0,0:0:0:0:
235,140,146621,2,0,L|354:119,1,93.5000028533936,2|0,0:0|0:0,0:0:0:0:
49,47,148871,6,0,B|166:68|166:68|208:118|157:153,1,191.250007295609,2|0,0:0|0:0,0:0:0:0:
166,143,149246,6,0,L|184:28,1,93.5000028533936,4|0,0:0|0:0,0:0:0:0:
37,199,149621,2,0,P|8:249|25:297,1,93.5000028533936,2|0,0:0|0:0,0:0:0:0:
252,294,149996,1,10,0:0:0:0:
99,247,150183,1,0,0:0:0:0:
159,324,150371,5,2,0:0:0:0:
284,210,150558,1,2,0:0:0:0:
252,142,150746,5,2,0:0:0:0:
82,69,150933,1,10,0:0:0:0:
178,20,151121,2,0,L|166:122,1,93.5000028533936,2|0,0:0|0:0,0:0:0:0:
347,114,151496,5,10,0:0:0:0:
410,78,151683,1,2,0:0:0:0:
503,216,151871,5,0,0:0:0:0:
434,186,152058,1,2,0:0:0:0:
234,361,152246,6,0,P|303:325|368:358,1,140.25000428009,2|0,0:0|0:0,0:0:0:0:
357,346,152621,2,0,P|362:274|364:210,1,93.5000028533936,2|0,0:0|0:0,0:0:0:0:
239,144,152996,1,10,0:0:0:0:
239,144,153371,5,2,0:0:0:0:
171,104,153558,1,2,0:0:0:0:
30,255,153746,1,2,0:0:0:0:
119,242,153933,1,10,0:0:0:0:
47,36,154121,6,0,P|17:85|107:162,1,187.000005706787,2|10,0:0|0:0,0:0:0:0:
368,291,154871,5,0,0:0:0:0:
285,335,155058,6,0,L|364:311,1,63.7500024318696,0|0,0:0|0:0,0:0:0:0:
485,209,155621,6,0,L|403:185,1,63.7500024318696,0|0,0:0|0:0,0:0:0:0:
267,92,156371,6,0,P|213:85|184:86,1,63.7500024318696,0|0,0:0|0:0,0:0:0:0:
82,234,156933,5,0,0:0:0:0:
