osu file format v14

[General]
AudioFilename: audio.mp3
AudioLeadIn: 0
PreviewTime: 48746
Countdown: 0
SampleSet: Soft
StackLeniency: 0.7
Mode: 0
LetterboxInBreaks: 0
WidescreenStoryboard: 0

[Editor]
Bookmarks: 746,14246,26246,38246,50246,62246,72746,86246,98246,110246,122246,134246,149246,158246
DistanceSpacing: 1
BeatDivisor: 4
GridSize: 32
TimelineZoom: 1.5

[Metadata]
Title:LOL
TitleUnicode:ЛОЛ
Artist:POSHLAYA MOLLY
ArtistUnicode:ПОШЛАЯ МОЛЛИ
Creator:Alumetri
Version:Daycore's Hard
Source:
Tags:russian synthpunk pop-punk punk rock Кирилл Бледный Kirill Blednyy Очень Страшная Молли 3 Daycore Djulus CptSqBany Skubi
BeatmapID:1848648
BeatmapSetID:883276

[Difficulty]
HPDrainRate:4.5
CircleSize:4
OverallDifficulty:6.5
ApproachRate:7.5
SliderMultiplier:1.55
SliderTickRate:1

[Events]
//Background and Video events
0,0,"bg.jpg",0,0
//Break Periods
2,86258,97421
2,134258,136046
2,146821,148046
//Storyboard Layer 0 (Background)
//Storyboard Layer 1 (Fail)
//Storyboard Layer 2 (Pass)
//Storyboard Layer 3 (Foreground)
//Storyboard Sound Samples

[TimingPoints]
746,375,4,2,1,30,1,0
746,-100,4,2,1,30,0,0
2246,-100,4,2,0,40,0,0
2527,-100,4,2,0,5,0,0
2621,-100,4,2,0,40,0,0
5527,-100,4,2,0,5,0,0
5621,-100,4,2,0,40,0,0
10027,-100,4,2,0,5,0,0
10121,-100,4,2,0,40,0,0
11246,-100,4,2,1,65,0,0
14246,-100,4,2,1,70,0,1
26246,-100,4,2,1,60,0,0
47246,-100,4,2,1,45,0,0
48746,-100,4,2,1,65,0,0
50246,-100,4,2,1,70,0,1
51746,-100,4,2,10,80,0,1
51933,-100,4,2,1,70,0,1
52121,-100,4,2,10,80,0,1
52308,-100,4,2,1,70,0,1
52496,-100,4,2,1,70,0,1
71058,-100,4,2,1,45,0,0
72746,-100,4,2,1,65,0,0
74246,-100,4,2,1,70,0,1
86246,-100,4,2,1,60,0,0
98246,-100,4,2,1,50,0,0
98527,-100,4,2,1,5,0,0
98621,-100,4,2,1,50,0,0
98902,-100,4,2,1,5,0,0
98996,-100,4,2,1,50,0,0
100402,-100,4,2,1,5,0,0
100496,-100,4,2,1,50,0,0
101527,-100,4,2,1,5,0,0
101621,-100,4,2,1,50,0,0
101902,-100,4,2,1,5,0,0
101996,-100,4,2,1,50,0,0
104527,-100,4,2,1,5,0,0
104621,-100,4,2,1,50,0,0
104902,-100,4,2,1,5,0,0
104996,-100,4,2,1,50,0,0
107527,-100,4,2,1,5,0,0
107621,-100,4,2,1,50,0,0
107902,-100,4,2,1,5,0,0
107996,-100,4,2,1,50,0,0
108746,-100,4,2,1,40,0,0
109027,-100,4,2,1,5,0,0
109121,-100,4,2,1,50,0,0
109402,-100,4,2,1,5,0,0
109496,-100,4,2,1,55,0,0
109777,-100,4,2,1,5,0,0
109871,-100,4,2,1,60,0,0
110152,-100,4,2,1,5,0,0
110246,-100,4,2,1,75,0,1
134246,-100,4,2,1,50,0,0
134527,-100,4,2,1,5,0,0
134621,-100,4,2,1,50,0,0
136871,-100,4,2,1,60,0,0
137246,-100,4,2,1,75,0,1
146996,-100,4,2,1,50,0,0
148871,-100,4,2,1,60,0,0
149152,-100,4,2,1,5,0,0
149246,-100,4,2,1,75,0,1
155058,-100,4,2,1,30,0,0
156933,-100,4,2,1,15,0,0

[Colours]
Combo1 : 159,0,0
Combo2 : 107,0,215
Combo3 : 255,128,64
Combo4 : 0,221,221

[HitObjects]
150,84,11246,6,0,P|192:70|239:83,1,77.5,10|10,0:0|0:0,0:0:0:0:
287,30,11621,2,0,P|301:72|288:119,1,77.5,10|10,0:0|0:0,0:0:0:0:
341,166,11996,2,0,P|299:180|252:167,1,77.5,10|10,0:0|0:0,0:0:0:0:
204,221,12371,2,0,P|190:179|203:132,1,77.5,10|10,0:0|0:0,0:0:0:0:
224,75,12746,1,10,0:0:0:0:
224,75,12933,1,10,0:0:0:0:
287,30,13121,2,0,L|400:28,1,77.5,10|10,0:0|0:0,0:0:0:0:
373,102,13496,2,0,L|260:104,1,77.5,10|10,0:0|0:0,0:0:0:0:
224,75,13871,2,0,P|218:120|259:168,1,77.5,10|10,0:0|0:0,0:0:0:0:
290,198,14246,6,0,P|254:222|159:177,1,155,4|2,0:0|0:0,0:0:0:0:
123,113,14808,1,0,0:0:0:0:
86,181,14996,2,0,P|82:230|91:263,1,77.5,10|0,0:0|0:0,0:0:0:0:
93,334,15371,2,0,B|54:329|54:329|-12:343,2,77.5,2|2|0,0:0|0:0|0:0,0:0:0:0:
169,348,15933,1,10,0:0:0:0:
231,302,16121,2,0,P|246:350|234:388,2,77.5,2|0|10,0:0|0:0|0:0,0:0:0:0:
204,229,16683,1,2,0:0:0:0:
243,161,16871,2,0,P|239:120|218:85,1,77.5,0|0,0:0|0:0,0:0:0:0:
146,68,17246,6,0,P|165:35|281:39,1,155,2|2,0:0|0:0,0:0:0:0:
341,61,17808,1,0,0:0:0:0:
409,24,17996,2,0,P|418:61|408:98,1,77.5,10|0,0:0|0:0,0:0:0:0:
440,169,18371,2,0,P|401:176|365:162,1,77.5,2|2,0:0|0:0,0:0:0:0:
291,140,18746,1,0,0:0:0:0:
307,215,18933,2,0,P|305:240|283:321,1,77.5,10|2,0:0|0:0,0:0:0:0:
246,353,19308,1,0,0:0:0:0:
246,353,19496,1,10,0:0:0:0:
175,384,19683,2,0,P|166:346|178:310,1,77.5,2|2,0:0|0:0,0:0:0:0:
221,246,20058,1,2,0:0:0:0:
143,241,20246,6,0,P|92:252|20:159,1,155,2|2,0:0|0:0,0:0:0:0:
46,114,20808,1,0,0:0:0:0:
16,42,20996,2,0,P|61:37|95:54,1,77.5,10|0,0:0|0:0,0:0:0:0:
127,117,21371,1,2,0:0:0:0:
168,51,21558,1,2,0:0:0:0:
210,115,21746,2,0,P|232:94|238:30,2,77.5,0|10|2,0:0|0:0|0:0,0:0:0:0:
193,190,22308,1,0,0:0:0:0:
238,252,22496,2,0,P|203:269|151:253,1,77.5,10|2,0:0|0:0,0:0:0:0:
115,204,22871,1,0,0:0:0:0:
193,190,23058,1,0,0:0:0:0:
238,252,23246,6,0,P|298:281|372:240,1,155,2|2,0:0|0:0,0:0:0:0:
389,166,23808,1,0,0:0:0:0:
445,219,23996,2,0,P|466:179|458:136,1,77.5,10|0,0:0|0:0,0:0:0:0:
413,89,24371,1,2,0:0:0:0:
413,89,24558,2,0,P|358:91|328:113,1,77.5,2|0,0:0|0:0,0:0:0:0:
287,159,24933,1,10,0:0:0:0:
213,133,25121,2,0,P|211:182|242:222,1,77.5,2|0,0:0|0:0,0:0:0:0:
294,238,25496,1,10,0:0:0:0:
332,309,25683,1,10,0:0:0:0:
254,313,25871,2,0,P|204:324|160:294,1,77.5,10|10,0:0|0:0,0:0:0:0:
130,373,26246,6,0,P|102:322|160:240,1,155,2|2,0:0|0:0,0:0:0:0:
220,221,26808,1,0,0:0:0:0:
255,151,26996,2,0,P|212:142|168:166,1,77.5,10|0,0:0|0:0,0:0:0:0:
107,176,27371,2,0,B|134:142|134:142|112:26,1,155,2|0,0:0|0:0,0:0:0:0:
190,32,27933,1,10,0:0:0:0:
263,7,28121,2,0,P|270:51|295:106,1,77.5,2|0,0:0|0:0,0:0:0:0:
323,147,28496,1,0,0:0:0:0:
313,223,28683,2,0,P|358:217|388:187,1,77.5,2|0,0:0|0:0,0:0:0:0:
400,121,29058,1,2,0:0:0:0:
477,111,29246,6,0,P|455:65|356:56,1,155,2|2,0:0|0:0,0:0:0:0:
281,81,29808,1,0,0:0:0:0:
323,147,29996,2,0,P|274:160|236:145,1,77.5,10|0,0:0|0:0,0:0:0:0:
199,93,30371,1,2,0:0:0:0:
123,77,30558,2,0,P|122:110|155:156,1,77.5,2|2,0:0|0:0,0:0:0:0:
191,209,30933,1,10,0:0:0:0:
140,267,31121,2,0,B|174:236|174:236|317:262,1,155,2|8,0:0|0:0,0:0:0:0:
356,270,31683,1,2,0:0:0:0:
406,328,31871,2,0,P|431:285|429:251,1,77.5,0|2,0:0|0:0,0:0:0:0:
408,182,32246,6,0,B|394:126|394:126|402:102|402:102|379:22,1,155,2|2,0:0|0:0,0:0:0:0:
305,20,32808,1,0,0:0:0:0:
229,37,32996,2,0,P|252:80|291:96,1,77.5,10|0,0:0|0:0,0:0:0:0:
346,125,33371,2,0,B|296:117|296:117|202:183,1,155,2|2,0:0|0:0,0:0:0:0:
147,221,33933,1,10,0:0:0:0:
131,144,34121,2,0,P|90:163|70:201,1,77.5,2|0,0:0|0:0,0:0:0:0:
74,267,34496,1,0,0:0:0:0:
143,300,34683,2,0,P|188:287|220:246,1,77.5,2|0,0:0|0:0,0:0:0:0:
285,252,35058,1,2,0:0:0:0:
331,189,35246,6,0,P|360:228|322:323,1,155,2|2,0:0|0:0,0:0:0:0:
249,326,35808,1,0,0:0:0:0:
285,252,35996,2,0,P|256:220|262:159,1,77.5,10|0,0:0|0:0,0:0:0:0:
292,120,36371,1,2,0:0:0:0:
243,58,36558,2,0,P|283:40|333:54,1,77.5,2|2,0:0|0:0,0:0:0:0:
370,99,36933,1,10,0:0:0:0:
397,171,37121,2,0,B|426:164|439:135|439:135|429:196|451:251,1,155,2|10,0:0|0:0,0:0:0:0:
488,294,37683,2,0,B|440:269|440:269|328:298,1,155,2|2,0:0|0:0,0:0:0:0:
271,326,38246,6,0,P|263:289|294:233,2,77.5,2|0|2,0:0|0:0|0:0,0:0:0:0:
199,357,38808,1,0,0:0:0:0:
127,326,38996,2,0,P|135:289|104:233,1,77.5,10|0,0:0|0:0,0:0:0:0:
149,179,39371,1,2,0:0:0:0:
98,120,39558,2,0,P|131:101|169:104,1,77.5,2|2,0:0|0:0,0:0:0:0:
225,158,39933,1,10,0:0:0:0:
149,179,40121,2,0,P|97:198|52:178,1,77.5,2|0,0:0|0:0,0:0:0:0:
22,138,40496,1,10,0:0:0:0:
1,212,40683,2,0,B|49:226|49:226|74:330,1,155,2|2,0:0|0:0,0:0:0:0:
135,375,41246,6,0,P|173:364|234:367,1,77.5,2|0,0:0|0:0,0:0:0:0:
286,345,41621,1,2,0:0:0:0:
286,345,41808,1,0,0:0:0:0:
359,320,41996,2,0,P|397:318|434:307,1,77.5,10|0,0:0|0:0,0:0:0:0:
473,239,42371,1,2,0:0:0:0:
451,164,42558,1,0,0:0:0:0:
451,164,43871,1,10,0:0:0:0:
382,24,44246,6,0,P|417:8|455:9,2,77.5,2|0|2,0:0|0:0|0:0,0:0:0:0:
357,97,44808,1,0,0:0:0:0:
300,149,44996,2,0,P|264:164|226:163,1,77.5,10|0,0:0|0:0,0:0:0:0:
149,149,45371,1,2,0:0:0:0:
84,191,45558,2,0,P|98:232|95:291,1,77.5,2|2,0:0|0:0,0:0:0:0:
53,328,45933,1,10,0:0:0:0:
127,345,46121,2,0,L|207:340,1,77.5,2|0,0:0|0:0,0:0:0:0:
281,335,46496,1,10,0:0:0:0:
321,271,46683,2,0,B|342:278|354:305|354:305|342:239|363:194,1,155,2|2,0:0|0:0,0:0:0:0:
406,137,47246,5,0,0:0:0:0:
256,192,47433,12,0,48371,0:0:0:0:
256,192,48746,12,0,49871,0:0:0:0:
226,194,50246,6,0,B|188:187|188:187|151:196,2,77.5,4|0|2,0:0|0:0|0:0,0:0:0:0:
303,196,50808,1,0,0:0:0:0:
372,230,50996,2,0,P|381:193|370:156,1,77.5,10|0,0:0|0:0,0:0:0:0:
328,90,51371,1,2,0:0:0:0:
405,90,51558,1,2,0:0:0:0:
369,20,51746,2,0,L|269:10,1,77.5,8|10,0:0|0:0,0:0:0:0:
247,76,52121,2,0,L|147:66,1,77.5,8|0,0:0|0:0,0:0:0:0:
96,94,52496,1,10,0:0:0:0:
149,149,52683,2,0,P|187:175|235:173,1,77.5,2|0,0:0|0:0,0:0:0:0:
294,165,53058,1,2,0:0:0:0:
294,165,53246,6,0,P|289:209|238:248,1,77.5,2|0,0:0|0:0,0:0:0:0:
196,255,53621,1,2,0:0:0:0:
245,314,53808,1,0,0:0:0:0:
168,329,53996,2,0,P|124:291|119:258,1,77.5,10|0,0:0|0:0,0:0:0:0:
107,197,54371,1,2,0:0:0:0:
60,135,54558,2,0,B|97:158|97:158|234:135,1,155,2|10,0:0|0:0,0:0:0:0:
260,83,55121,2,0,P|284:138|270:179,1,77.5,2|0,0:0|0:0,0:0:0:0:
231,212,55496,1,10,0:0:0:0:
244,288,55683,2,0,L|339:269,1,77.5,2|0,0:0|0:0,0:0:0:0:
397,281,56058,1,2,0:0:0:0:
458,329,56246,6,0,P|472:266|389:204,1,155,2|2,0:0|0:0,0:0:0:0:
337,196,56808,1,0,0:0:0:0:
269,156,56996,2,0,P|306:124|360:123,1,77.5,10|0,0:0|0:0,0:0:0:0:
317,42,57371,2,0,L|236:4,1,77.5,2|2,0:0|0:0,0:0:0:0:
170,25,57746,1,0,0:0:0:0:
145,99,57933,2,0,P|172:142|223:154,1,77.5,10|2,0:0|0:0,0:0:0:0:
269,156,58308,1,0,0:0:0:0:
313,219,58496,2,0,B|281:244|281:244|246:285,1,77.5,10|2,0:0|0:0,0:0:0:0:
225,342,58871,1,0,0:0:0:0:
225,342,59058,1,2,0:0:0:0:
150,321,59246,6,0,P|108:309|67:313,1,77.5,2|0,0:0|0:0,0:0:0:0:
3,342,59621,1,2,0:0:0:0:
3,342,59808,1,0,0:0:0:0:
15,265,59996,2,0,B|22:229|22:229|12:182,1,77.5,10|0,0:0|0:0,0:0:0:0:
2,112,60371,1,2,0:0:0:0:
30,39,60558,2,0,P|62:62|77:97,1,77.5,2|0,0:0|0:0,0:0:0:0:
91,173,60933,1,10,0:0:0:0:
152,221,61121,2,0,B|190:215|190:215|243:225,1,77.5,2|0,0:0|0:0,0:0:0:0:
301,247,61496,1,10,0:0:0:0:
377,236,61683,2,0,P|370:285|333:315,2,77.5,2|0|2,0:0|0:0|0:0,0:0:0:0:
332,172,62246,6,0,P|361:157|419:170,1,77.5,2|0,0:0|0:0,0:0:0:0:
463,107,62621,1,0,0:0:0:0:
463,107,62808,1,0,0:0:0:0:
504,41,62996,2,0,P|472:28|426:37,1,77.5,10|0,0:0|0:0,0:0:0:0:
375,90,63371,1,2,0:0:0:0:
317,38,63558,2,0,P|258:44|228:35,1,77.5,2|0,0:0|0:0,0:0:0:0:
166,16,63933,1,10,0:0:0:0:
94,46,64121,2,0,B|100:85|100:85|92:127,1,77.5,2|0,0:0|0:0,0:0:0:0:
48,186,64496,1,10,0:0:0:0:
125,190,64683,2,0,P|125:240|146:348,1,155,2|2,0:0|0:0,0:0:0:0:
218,366,65246,6,0,P|254:358|317:376,1,77.5,2|0,0:0|0:0,0:0:0:0:
370,377,65621,1,2,0:0:0:0:
370,377,65808,1,0,0:0:0:0:
444,358,65996,2,0,B|437:323|437:323|450:266,1,77.5,10|0,0:0|0:0,0:0:0:0:
478,211,66371,1,2,0:0:0:0:
470,134,66558,2,0,P|435:141|388:137,1,77.5,2|0,0:0|0:0,0:0:0:0:
322,106,66933,1,10,0:0:0:0:
255,145,67121,2,0,P|244:105|264:51,1,77.5,2|0,0:0|0:0,0:0:0:0:
315,26,67496,1,10,0:0:0:0:
322,106,67683,2,0,P|329:171|311:197,2,77.5,2|0|2,0:0|0:0|0:0,0:0:0:0:
251,70,68246,6,0,L|140:52,1,77.5,2|0,0:0|0:0,0:0:0:0:
178,132,68621,2,0,L|289:150,1,77.5,2|0,0:0|0:0,0:0:0:0:
324,179,68996,1,10,0:0:0:0:
324,179,69183,1,0,0:0:0:0:
401,181,69371,2,0,P|381:235|356:250,1,77.5,2|2,0:0|0:0,0:0:0:0:
289,253,69746,1,0,0:0:0:0:
331,317,69933,1,10,0:0:0:0:
253,322,70121,2,0,P|221:296|213:246,1,77.5,2|0,0:0|0:0,0:0:0:0:
242,192,70496,1,10,0:0:0:0:
213,120,70683,2,0,B|336:101|336:101|321:129,1,155,2|0,0:0|0:0,0:0:0:0:
321,127,72746,6,0,P|314:152|257:181,1,77.5,10|10,0:0|0:0,0:0:0:0:
251,254,73121,2,0,P|226:244|197:185,1,77.5,10|10,0:0|0:0,0:0:0:0:
123,182,73496,2,0,P|132:157|191:128,1,77.5,10|10,0:0|0:0,0:0:0:0:
194,54,73871,2,0,P|218:63|247:122,1,77.5,10|10,0:0|0:0,0:0:0:0:
273,180,74246,6,0,P|309:156|404:201,1,155,4|2,0:0|0:0,0:0:0:0:
426,270,74808,1,0,0:0:0:0:
480,212,74996,2,0,P|484:163|475:130,1,77.5,10|0,0:0|0:0,0:0:0:0:
436,69,75371,2,0,P|480:57|516:66,2,77.5,2|2|0,0:0|0:0|0:0,0:0:0:0:
363,42,75933,1,10,0:0:0:0:
299,86,76121,2,0,P|284:38|296:0,2,77.5,2|0|10,0:0|0:0|0:0,0:0:0:0:
318,160,76683,1,2,0:0:0:0:
270,221,76871,2,0,P|274:262|295:297,1,77.5,0|0,0:0|0:0,0:0:0:0:
366,316,77246,6,0,P|347:349|231:345,1,155,2|2,0:0|0:0,0:0:0:0:
171,323,77808,1,0,0:0:0:0:
103,360,77996,2,0,P|94:323|104:286,1,77.5,10|0,0:0|0:0,0:0:0:0:
72,215,78371,2,0,P|111:208|147:222,1,77.5,2|2,0:0|0:0,0:0:0:0:
221,244,78746,1,0,0:0:0:0:
205,169,78933,2,0,P|207:144|229:63,1,77.5,10|2,0:0|0:0,0:0:0:0:
266,31,79308,1,0,0:0:0:0:
266,31,79496,1,10,0:0:0:0:
337,0,79683,2,0,P|346:38|334:74,1,77.5,2|0,0:0|0:0,0:0:0:0:
291,138,80058,1,2,0:0:0:0:
369,143,80246,6,0,P|420:132|492:225,1,155,2|2,0:0|0:0,0:0:0:0:
466,270,80808,1,0,0:0:0:0:
496,342,80996,2,0,P|451:347|417:330,1,77.5,10|0,0:0|0:0,0:0:0:0:
385,267,81371,1,2,0:0:0:0:
344,333,81558,1,2,0:0:0:0:
265,335,81746,2,0,P|271:298|298:269,1,77.5,0|10,0:0|0:0,0:0:0:0:
319,194,82121,1,2,0:0:0:0:
319,194,82308,1,0,0:0:0:0:
391,166,82496,2,0,P|430:176|478:165,2,77.5,10|2|0,0:0|0:0|0:0,0:0:0:0:
319,194,83058,1,2,0:0:0:0:
274,132,83246,6,0,P|214:103|140:144,1,155,2|2,0:0|0:0,0:0:0:0:
123,218,83808,1,0,0:0:0:0:
67,165,83996,2,0,P|46:205|54:248,1,77.5,10|0,0:0|0:0,0:0:0:0:
99,295,84371,1,2,0:0:0:0:
99,295,84558,2,0,P|154:293|184:271,1,77.5,2|0,0:0|0:0,0:0:0:0:
225,225,84933,1,10,0:0:0:0:
299,251,85121,2,0,P|301:202|270:162,1,77.5,2|0,0:0|0:0,0:0:0:0:
218,146,85496,1,10,0:0:0:0:
180,75,85683,1,2,0:0:0:0:
258,71,85871,2,0,P|308:60|352:90,1,77.5,0|0,0:0|0:0,0:0:0:0:
181,40,98246,6,0,B|181:100|181:100|203:128|203:128|199:217,1,155,2|2,0:0|0:0,0:0:0:0:
117,318,98996,1,10,0:0:0:0:
272,318,99371,2,0,P|301:318|365:339,2,77.5,2|2|0,0:0|0:0|0:0,0:0:0:0:
196,333,99933,1,10,0:0:0:0:
117,318,100121,2,0,P|121:287|111:151,1,155,2|10,0:0|0:0,0:0:0:0:
82,92,100683,1,2,0:0:0:0:
227,144,101058,1,2,0:0:0:0:
283,90,101246,6,0,P|304:133|250:219,1,155,2|2,0:0|0:0,0:0:0:0:
186,357,101996,1,10,0:0:0:0:
338,329,102371,2,0,B|355:313|355:313|426:307,1,77.5,2|2,0:0|0:0,0:0:0:0:
480,339,102746,1,0,0:0:0:0:
470,262,102933,2,0,P|461:216|467:162,1,77.5,10|2,0:0|0:0,0:0:0:0:
488,32,103496,2,0,B|451:43|451:43|392:32,1,77.5,10|2,0:0|0:0,0:0:0:0:
340,7,103871,2,0,B|303:-4|303:-4|244:7,1,77.5,0|2,0:0|0:0,0:0:0:0:
189,21,104246,6,0,P|190:106|185:204,1,155,2|2,0:0|0:0,0:0:0:0:
158,328,104996,1,10,0:0:0:0:
302,271,105371,2,0,P|354:273|391:273,2,77.5,2|2|0,0:0|0:0|0:0,0:0:0:0:
225,283,105933,1,10,0:0:0:0:
158,328,106121,2,0,B|140:292|140:292|84:264,1,77.5,2|0,0:0|0:0,0:0:0:0:
30,290,106496,1,10,0:0:0:0:
55,216,106683,2,0,P|52:166|59:116,1,77.5,2|0,0:0|0:0,0:0:0:0:
115,90,107058,1,2,0:0:0:0:
191,100,107246,6,0,B|318:113|318:113|287:74,1,155,2|2,0:0|0:0,0:0:0:0:
259,25,107808,1,0,0:0:0:0:
336,23,107996,2,0,L|392:84,1,77.5,10|0,0:0|0:0,0:0:0:0:
386,157,108371,1,2,0:0:0:0:
386,157,108558,1,2,0:0:0:0:
386,157,110246,6,0,B|367:190|385:235|385:235|366:283|397:324,1,155,4|2,0:0|0:0,0:0:0:0:
450,350,110808,1,0,0:0:0:0:
453,272,110996,2,0,P|459:213|443:182,1,77.5,10|0,0:0|0:0,0:0:0:0:
386,157,111371,1,2,0:0:0:0:
312,179,111558,2,0,P|318:120|348:89,1,77.5,2|2,0:0|0:0,0:0:0:0:
399,77,111933,1,10,0:0:0:0:
453,21,112121,2,0,P|408:0|360:9,1,77.5,2|0,0:0|0:0,0:0:0:0:
308,28,112496,1,10,0:0:0:0:
233,8,112683,2,0,P|221:57|203:114,1,77.5,2|0,0:0|0:0,0:0:0:0:
144,118,113058,1,2,0:0:0:0:
66,118,113246,6,0,B|67:186|67:186|77:209|77:209|77:289,1,155,2|2,0:0|0:0,0:0:0:0:
118,336,113808,1,0,0:0:0:0:
178,287,113996,2,0,P|221:296|266:291,1,77.5,10|0,0:0|0:0,0:0:0:0:
326,266,114371,1,2,0:0:0:0:
396,298,114558,2,0,P|400:245|389:221,1,77.5,2|2,0:0|0:0,0:0:0:0:
403,147,114933,1,10,0:0:0:0:
334,111,115121,2,0,P|291:115|249:164,1,77.5,0|0,0:0|0:0,0:0:0:0:
237,208,115496,1,10,0:0:0:0:
189,146,115683,2,0,P|157:124|119:121,1,77.5,2|0,0:0|0:0,0:0:0:0:
42,134,116058,1,2,0:0:0:0:
95,190,116246,6,0,P|94:243|76:348,1,155,2|2,0:0|0:0,0:0:0:0:
149,369,116808,1,0,0:0:0:0:
218,333,116996,2,0,P|219:294|232:237,1,77.5,10|0,0:0|0:0,0:0:0:0:
266,189,117371,1,2,0:0:0:0:
343,195,117558,2,0,P|334:148|297:121,1,77.5,2|2,0:0|0:0,0:0:0:0:
238,108,117933,1,10,0:0:0:0:
208,35,118121,2,0,P|178:58|164:124,1,77.5,2|0,0:0|0:0,0:0:0:0:
185,168,118496,1,10,0:0:0:0:
119,209,118683,2,0,P|122:255|167:294,1,77.5,2|0,0:0|0:0,0:0:0:0:
167,352,119058,1,2,0:0:0:0:
237,318,119246,6,0,B|276:304|276:304|397:322,1,155,2|2,0:0|0:0,0:0:0:0:
457,355,119808,1,0,0:0:0:0:
449,277,119996,2,0,P|450:237|457:179,1,77.5,10|0,0:0|0:0,0:0:0:0:
473,124,120371,1,2,0:0:0:0:
450,49,120558,2,0,P|410:59|357:60,1,77.5,2|2,0:0|0:0,0:0:0:0:
305,25,120933,1,10,0:0:0:0:
227,18,121121,2,0,P|236:66|277:101,1,77.5,2|0,0:0|0:0,0:0:0:0:
301,148,121496,1,10,0:0:0:0:
304,225,121683,2,0,P|262:225|207:238,1,77.5,2|0,0:0|0:0,0:0:0:0:
160,271,122058,1,2,0:0:0:0:
98,223,122246,6,0,B|69:146|133:165|101:50,1,155,2|2,0:0|0:0,0:0:0:0:
173,32,122808,1,0,0:0:0:0:
213,97,122996,2,0,P|207:156|223:187,1,77.5,10|0,0:0|0:0,0:0:0:0:
256,236,123371,1,2,0:0:0:0:
300,299,123558,2,0,P|294:358|264:389,1,77.5,2|2,0:0|0:0,0:0:0:0:
206,368,123933,1,10,0:0:0:0:
128,373,124121,2,0,P|89:371|56:353,1,77.5,2|0,0:0|0:0,0:0:0:0:
109,296,124496,1,10,0:0:0:0:
184,310,124683,2,0,P|196:261|214:204,1,77.5,2|0,0:0|0:0,0:0:0:0:
278,212,125058,1,2,0:0:0:0:
354,227,125246,6,0,B|353:159|353:159|343:136|343:136|343:56,1,155,2|2,0:0|0:0,0:0:0:0:
303,7,125808,1,0,0:0:0:0:
250,64,125996,2,0,P|207:55|162:60,1,77.5,10|0,0:0|0:0,0:0:0:0:
125,118,126371,1,2,0:0:0:0:
53,88,126558,2,0,P|49:141|60:165,1,77.5,2|2,0:0|0:0,0:0:0:0:
80,236,126933,1,10,0:0:0:0:
153,262,127121,2,0,P|196:258|238:209,1,77.5,2|0,0:0|0:0,0:0:0:0:
251,165,127496,1,10,0:0:0:0:
299,227,127683,2,0,P|331:249|369:252,1,77.5,2|0,0:0|0:0,0:0:0:0:
446,239,128058,1,2,0:0:0:0:
428,164,128246,6,0,P|429:111|447:6,1,155,2|2,0:0|0:0,0:0:0:0:
368,11,128808,1,0,0:0:0:0:
293,34,128996,2,0,P|292:73|279:130,1,77.5,10|0,0:0|0:0,0:0:0:0:
233,169,129371,1,2,0:0:0:0:
155,164,129558,2,0,P|164:211|201:238,1,77.5,2|2,0:0|0:0,0:0:0:0:
253,266,129933,1,10,0:0:0:0:
284,336,130121,2,0,P|314:313|328:247,1,77.5,2|0,0:0|0:0,0:0:0:0:
301,204,130496,1,10,0:0:0:0:
367,165,130683,2,0,P|364:119|319:80,1,77.5,2|0,0:0|0:0,0:0:0:0:
321,21,131058,1,2,0:0:0:0:
250,53,131246,6,0,B|211:67|211:67|90:49,1,155,2|2,0:0|0:0,0:0:0:0:
28,16,131808,1,0,0:0:0:0:
29,93,131996,2,0,P|28:133|21:191,1,77.5,10|0,0:0|0:0,0:0:0:0:
29,247,132371,1,2,0:0:0:0:
20,323,132558,2,0,P|73:313|126:312,1,77.5,2|0,0:0|0:0,0:0:0:0:
167,342,132933,1,10,0:0:0:0:
243,352,133121,2,0,P|234:304|193:269,1,77.5,2|0,0:0|0:0,0:0:0:0:
178,214,133496,1,10,0:0:0:0:
188,137,133683,2,0,P|230:137|285:124,1,77.5,2|0,0:0|0:0,0:0:0:0:
336,99,134058,1,2,0:0:0:0:
276,351,136871,5,2,0:0:0:0:
214,208,137246,6,0,P|250:184|345:229,1,155,4|2,0:0|0:0,0:0:0:0:
381,293,137808,1,0,0:0:0:0:
456,276,137996,2,0,P|460:227|451:194,1,77.5,10|0,0:0|0:0,0:0:0:0:
420,129,138371,2,0,P|451:124|500:138,2,77.5,2|2|2,0:0|0:0|0:0,0:0:0:0:
357,81,138933,1,10,0:0:0:0:
285,112,139121,2,0,P|276:76|288:38,2,77.5,2|0|10,0:0|0:0|0:0,0:0:0:0:
310,185,139683,1,2,0:0:0:0:
247,230,139871,2,0,P|251:271|272:306,1,77.5,0|2,0:0|0:0,0:0:0:0:
343,321,140246,6,0,P|324:354|208:350,1,155,2|2,0:0|0:0,0:0:0:0:
144,337,140808,1,0,0:0:0:0:
74,372,140996,2,0,P|65:335|75:298,1,77.5,10|0,0:0|0:0,0:0:0:0:
45,226,141371,2,0,P|84:219|120:233,1,77.5,2|2,0:0|0:0,0:0:0:0:
191,259,141746,1,2,0:0:0:0:
198,182,141933,2,0,P|200:157|222:76,1,77.5,10|2,0:0|0:0,0:0:0:0:
258,43,142308,1,0,0:0:0:0:
258,43,142496,1,10,0:0:0:0:
329,14,142683,2,0,P|338:52|326:88,1,77.5,2|0,0:0|0:0,0:0:0:0:
286,154,143058,1,2,0:0:0:0:
362,167,143246,6,0,P|413:156|485:249,1,155,2|2,0:0|0:0,0:0:0:0:
458,292,143808,1,0,0:0:0:0:
488,364,143996,2,0,P|443:369|409:352,1,77.5,10|0,0:0|0:0,0:0:0:0:
377,289,144371,1,2,0:0:0:0:
336,355,144558,1,2,0:0:0:0:
294,291,144746,2,0,P|272:312|266:376,2,77.5,0|10|2,0:0|0:0|0:0,0:0:0:0:
311,216,145308,1,0,0:0:0:0:
266,154,145496,2,0,P|301:137|353:153,1,77.5,10|2,0:0|0:0,0:0:0:0:
389,202,145871,1,0,0:0:0:0:
311,216,146058,1,2,0:0:0:0:
235,233,146246,5,2,0:0:0:0:
389,202,146621,1,2,0:0:0:0:
191,322,148871,5,2,0:0:0:0:
325,244,149246,6,0,P|332:180|397:77,1,155,4|2,0:0|0:0,0:0:0:0:
440,61,149808,1,0,0:0:0:0:
373,20,149996,2,0,P|314:24|262:22,1,77.5,10|0,0:0|0:0,0:0:0:0:
218,32,150371,1,2,0:0:0:0:
191,104,150558,2,0,P|196:144|188:188,1,77.5,2|2,0:0|0:0,0:0:0:0:
150,247,150933,1,10,0:0:0:0:
177,319,151121,2,0,P|219:308|267:317,1,77.5,2|0,0:0|0:0,0:0:0:0:
323,342,151496,1,10,0:0:0:0:
379,289,151683,2,0,P|376:234|387:206,1,77.5,2|0,0:0|0:0,0:0:0:0:
432,153,152058,1,2,0:0:0:0:
414,77,152246,6,0,P|348:92|225:80,1,155,2|2,0:0|0:0,0:0:0:0:
183,85,152808,1,0,0:0:0:0:
112,117,152996,2,0,P|117:156|110:211,1,77.5,10|0,0:0|0:0,0:0:0:0:
85,266,153371,1,2,0:0:0:0:
102,341,153558,2,0,P|163:350|185:349,1,77.5,2|2,0:0|0:0,0:0:0:0:
254,334,153933,1,10,0:0:0:0:
329,315,154121,2,0,P|390:306|412:307,1,77.5,2|0,0:0|0:0,0:0:0:0:
477,336,154496,1,10,0:0:0:0:
479,258,154683,2,0,P|485:202|502:164,1,77.5,2|0,0:0|0:0,0:0:0:0:
512,105,155058,1,0,0:0:0:0:
256,192,155246,12,0,156933,0:0:0:0:
