osu file format v14

[General]
AudioFilename: audio.mp3
AudioLeadIn: 0
PreviewTime: 48746
Countdown: 0
SampleSet: Soft
StackLeniency: 0.7
Mode: 0
LetterboxInBreaks: 0
WidescreenStoryboard: 0

[Editor]
DistanceSpacing: 1
BeatDivisor: 4
GridSize: 32
TimelineZoom: 1.5

[Metadata]
Title:LOL
TitleUnicode:ЛОЛ
Artist:POSHLAYA MOLLY
ArtistUnicode:ПОШЛАЯ МОЛЛИ
Creator:Alumetri
Version:07-03
Source:
Tags:russian synthpunk pop-punk punk rock Кирилл Бледный Kirill Blednyy Очень Страшная Молли 3 Daycore Djulus CptSqBany Skubi
BeatmapID:1846447
BeatmapSetID:883276

[Difficulty]
HPDrainRate:6
CircleSize:3.6
OverallDifficulty:8.6
ApproachRate:9.1
SliderMultiplier:1.73
SliderTickRate:1

[Events]
//Background and Video events
0,0,"bg.jpg",0,0
//Break Periods
2,86446,97662
//Storyboard Layer 0 (Background)
//Storyboard Layer 1 (Fail)
//Storyboard Layer 2 (Pass)
//Storyboard Layer 3 (Foreground)
//Storyboard Sound Samples

[TimingPoints]
746,375,4,2,1,30,1,0
746,-100,4,2,0,30,0,0
2246,-133.333333333333,4,2,0,40,0,0
2527,-133.333333333333,4,2,0,5,0,0
2621,-133.333333333333,4,2,0,40,0,0
5527,-133.333333333333,4,2,0,5,0,0
5621,-133.333333333333,4,2,0,40,0,0
10027,-133.333333333333,4,2,0,5,0,0
10121,-133.333333333333,4,2,0,40,0,0
11246,-133.333333333333,4,2,1,65,0,0
14246,-80,4,2,1,70,0,1
26246,-83.3333333333333,4,2,1,60,0,0
47246,-133.333333333333,4,2,1,45,0,0
48746,-83.3333333333333,4,2,1,65,0,0
50246,-76.9230769230769,4,2,1,70,0,1
51746,-76.9230769230769,4,2,10,80,0,1
51933,-76.9230769230769,4,2,1,70,0,1
52121,-76.9230769230769,4,2,10,80,0,1
52308,-76.9230769230769,4,2,1,70,0,1
52496,-76.9230769230769,4,2,1,70,0,1
71058,-133.333333333333,4,2,1,45,0,0
72746,-133.333333333333,4,2,1,65,0,0
74246,-78.125,4,2,1,70,0,1
86246,-78.125,4,2,1,60,0,0
98246,-133.333333333333,4,2,1,50,0,0
98527,-133.333333333333,4,2,1,5,0,0
98621,-133.333333333333,4,2,1,50,0,0
98902,-133.333333333333,4,2,1,5,0,0
98996,-133.333333333333,4,2,1,50,0,0
100402,-133.333333333333,4,2,1,5,0,0
100496,-133.333333333333,4,2,1,50,0,0
101527,-133.333333333333,4,2,1,5,0,0
101621,-133.333333333333,4,2,1,50,0,0
101902,-133.333333333333,4,2,1,5,0,0
101996,-133.333333333333,4,2,1,50,0,0
104527,-133.333333333333,4,2,1,5,0,0
104621,-133.333333333333,4,2,1,50,0,0
104902,-133.333333333333,4,2,1,5,0,0
104996,-133.333333333333,4,2,1,50,0,0
107527,-133.333333333333,4,2,1,5,0,0
107621,-133.333333333333,4,2,1,50,0,0
107902,-133.333333333333,4,2,1,5,0,0
107996,-133.333333333333,4,2,1,50,0,0
108746,-125,4,2,1,40,0,0
109027,-125,4,2,1,5,0,0
109121,-111.111111111111,4,2,1,50,0,0
109402,-125,4,2,1,5,0,0
109496,-100,4,2,1,55,0,0
109777,-125,4,2,1,5,0,0
109871,-90.9090909090909,4,2,1,60,0,0
110152,-125,4,2,1,5,0,0
110246,-90.9090909090909,4,2,1,75,0,1
134246,-111.111111111111,4,2,1,50,0,0
134527,-111.111111111111,4,2,1,5,0,0
134621,-111.111111111111,4,2,1,50,0,0
136871,-111.111111111111,4,2,1,60,0,0
137246,-80,4,2,1,75,0,1
146996,-80,4,2,1,50,0,0
148871,-133.333333333333,4,2,1,60,0,0
149152,-133.333333333333,4,2,1,5,0,0
149246,-76.9230769230769,4,2,1,75,0,1
155058,-133.333333333333,4,2,1,30,0,0
156933,-133.333333333333,4,2,1,15,0,0

[Colours]
Combo1 : 159,0,0
Combo2 : 107,0,215
Combo3 : 255,128,64
Combo4 : 0,221,221

[HitObjects]
141,34,933,5,2,0:0:0:0:
127,131,1121,1,2,0:0:0:0:
208,91,1308,1,2,0:0:0:0:
82,139,1496,1,2,0:0:0:0:
209,202,1683,1,2,0:0:0:0:
219,67,1871,1,2,0:0:0:0:
127,215,2058,1,2,0:0:0:0:
289,136,2246,6,0,B|336:117|330:151|399:129,1,97.3125037121774,2|0,0:0|0:0,0:0:0:0:
407,104,2621,1,2,0:0:0:0:
486,40,2808,1,2,0:0:0:0:
505,151,2996,2,0,P|510:183|506:220,1,64.8750024747849,2|0,0:0|0:0,0:0:0:0:
427,289,3371,1,2,0:0:0:0:
339,225,3558,2,0,P|269:212|209:247,1,129.75000494957,2|0,0:0|0:0,0:0:0:0:
158,325,4121,5,2,0:0:0:0:
80,263,4308,1,2,0:0:0:0:
193,319,4496,1,2,0:0:0:0:
78,361,4683,1,2,0:0:0:0:
69,236,4871,1,2,0:0:0:0:
0,378,5058,1,2,0:0:0:0:
146,216,5246,6,0,P|156:180|121:127,1,97.3125037121774,2|0,0:0|0:0,0:0:0:0:
98,103,5621,2,0,P|130:93|173:93,1,64.8750024747849,2|0,0:0|0:0,0:0:0:0:
252,174,5996,2,0,P|285:178|327:170,2,64.8750024747849,2|2|2,0:0|0:0|0:0,0:0:0:0:
391,119,6558,1,2,0:0:0:0:
391,119,7121,6,0,B|416:217|372:190|388:323,1,194.625007424355,2|0,0:0|0:0,0:0:0:0:
469,270,7871,2,0,P|391:232|293:285,1,194.625007424355,2|0,0:0|0:0,0:0:0:0:
189,363,8621,2,0,P|102:356|44:262,1,194.625007424355,2|0,0:0|0:0,0:0:0:0:
72,155,9371,1,2,0:0:0:0:
135,240,9558,1,2,0:0:0:0:
51,129,9746,6,0,P|41:98|61:33,1,97.3125037121774,2|0,0:0|0:0,0:0:0:0:
90,14,10121,2,0,B|193:47|165:-23|287:28,1,194.625007424355,2|0,0:0|0:0,0:0:0:0:
387,14,10871,2,0,P|415:21|447:49,1,64.8750024747849,2|0,0:0|0:0,0:0:0:0:
509,137,11246,5,10,0:0:0:0:
378,100,11433,1,10,0:0:0:0:
435,257,11621,1,10,0:0:0:0:
508,99,11808,1,10,0:0:0:0:
315,212,11996,1,10,0:0:0:0:
512,218,12183,1,10,0:0:0:0:
307,61,12371,1,10,0:0:0:0:
360,295,12558,1,10,0:0:0:0:
423,72,12746,5,10,0:0:0:0:
228,148,12933,1,10,0:0:0:0:
433,170,13121,1,10,0:0:0:0:
183,129,13308,1,10,0:0:0:0:
371,7,13496,1,10,0:0:0:0:
285,253,13683,1,10,0:0:0:0:
185,11,13871,1,10,0:0:0:0:
423,72,14058,1,10,0:0:0:0:
102,55,14246,6,0,P|79:132|96:233,1,162.1875,4|0,0:0|0:0,0:0:0:0:
139,285,14621,2,0,B|225:264|215:327|330:278,1,162.1875,2|0,0:0|0:0,0:0:0:0:
365,230,14996,2,0,P|417:219|489:250,1,108.125,10|0,0:0|0:0,0:0:0:0:
310,377,15371,6,0,L|197:370,1,108.125,2|2,0:0|0:0,0:0:0:0:
31,291,15746,2,0,L|144:284,1,108.125,0|10,0:0|0:0,0:0:0:0:
297,289,16121,1,2,0:0:0:0:
135,196,16308,1,0,0:0:0:0:
325,182,16496,1,10,0:0:0:0:
135,110,16683,1,2,0:0:0:0:
138,284,16871,6,0,P|209:241|211:164,1,162.1875
135,110,17246,2,0,P|197:74|286:106,1,162.1875,2|0,0:0|0:0,0:0:0:0:
325,182,17621,2,0,P|388:179|437:95,1,162.1875,2|0,0:0|0:0,0:0:0:0:
500,40,17996,2,0,P|519:93|511:148,1,108.125,10|0,0:0|0:0,0:0:0:0:
468,318,18371,6,0,L|355:301,1,108.125,2|2,0:0|0:0,0:0:0:0:
129,276,18746,2,0,L|242:259,1,108.125,0|10,0:0|0:0,0:0:0:0:
484,221,19121,2,0,L|371:204,1,108.125,2|0,0:0|0:0,0:0:0:0:
204,173,19496,1,10,0:0:0:0:
389,125,19683,1,2,0:0:0:0:
235,259,19871,1,2,0:0:0:0:
210,73,20058,1,2,0:0:0:0:
377,204,20246,6,0,B|390:307|333:263|384:383,1,162.1875,2|0,0:0|0:0,0:0:0:0:
464,382,20621,2,0,P|515:341|512:251,1,162.1875,2|0,0:0|0:0,0:0:0:0:
463,178,20996,2,0,P|461:133|493:77,1,108.125,10|0,0:0|0:0,0:0:0:0:
385,17,21371,6,0,L|273:22,1,108.125,2|2,0:0|0:0,0:0:0:0:
33,43,21746,2,0,L|145:48,1,108.125,0|10,0:0|0:0,0:0:0:0:
388,97,22121,2,0,L|279:101,1,108.125,2|0,0:0|0:0,0:0:0:0:
93,121,22496,1,10,0:0:0:0:
276,21,22683,1,2,0:0:0:0:
286,193,22871,1,0,0:0:0:0:
141,47,23058,1,0,0:0:0:0:
99,246,23246,6,0,B|198:246|142:291|273:280,1,162.1875,2|0,0:0|0:0,0:0:0:0:
339,260,23621,2,0,P|394:217|371:118,1,162.1875,2|0,0:0|0:0,0:0:0:0:
333,61,23996,2,0,P|379:46|440:63,1,108.125,10|0,0:0|0:0,0:0:0:0:
486,252,24371,1,2,0:0:0:0:
509,98,24558,1,2,0:0:0:0:
476,290,24746,6,0,P|411:286|375:261,1,108.125,0|10,0:0|0:0,0:0:0:0:
264,140,25121,2,0,P|329:144|365:169,1,108.125,2|0,0:0|0:0,0:0:0:0:
259,375,25496,1,10,0:0:0:0:
291,221,25683,1,10,0:0:0:0:
384,349,25871,1,10,0:0:0:0:
173,298,26058,1,10,0:0:0:0:
363,167,26246,6,0,P|354:108|321:73,1,103.799996832276,2|0,0:0|0:0,0:0:0:0:
219,32,26621,2,0,L|116:45,1,103.799996832275,2|0,0:0|0:0,0:0:0:0:
29,158,26996,2,0,L|132:171,1,103.799996832275,10|0,0:0|0:0,0:0:0:0:
286,193,27371,5,2,0:0:0:0:
209,105,27558,1,2,0:0:0:0:
207,257,27746,1,0,0:0:0:0:
321,161,27933,1,10,0:0:0:0:
131,170,28121,1,2,0:0:0:0:
338,277,28308,2,0,P|421:255|435:121,1,207.599993664551,0|2,0:0|0:0,0:0:0:0:
376,29,28871,1,0,0:0:0:0:
368,186,29058,1,2,0:0:0:0:
259,48,29246,6,0,B|208:35|218:76|137:57,1,103.799996832275,2|0,0:0|0:0,0:0:0:0:
36,169,29621,2,0,P|59:118|66:69,1,103.799996832275,2|0,0:0|0:0,0:0:0:0:
207,257,29996,2,0,P|184:206|177:157,1,103.799996832275,10|0,0:0|0:0,0:0:0:0:
136,326,30371,1,2,0:0:0:0:
40,200,30558,1,2,0:0:0:0:
165,352,30746,6,0,P|214:357|278:334,1,103.799996832275,2|10,0:0|0:0,0:0:0:0:
404,257,31121,1,2,0:0:0:0:
285,138,31308,2,0,L|297:29,1,103.799996832275,0|8,0:0|0:0,0:0:0:0:
460,151,31683,1,2,0:0:0:0:
311,230,31871,1,0,0:0:0:0:
396,50,32058,1,2,0:0:0:0:
208,85,32246,6,0,L|86:97,1,103.799996832275,2|0,0:0|0:0,0:0:0:0:
25,236,32621,2,0,L|147:248,1,103.799996832275,2|0,0:0|0:0,0:0:0:0:
265,337,32996,2,0,L|368:326,1,103.799996832275,10|0,0:0|0:0,0:0:0:0:
474,237,33371,1,2,0:0:0:0:
508,377,33558,1,2,0:0:0:0:
378,242,33746,6,0,P|375:191|395:110,1,103.799996832275,2|10,0:0|0:0,0:0:0:0:
471,50,34121,1,2,0:0:0:0:
330,12,34308,2,0,B|235:-22|251:77|122:35,1,207.599993664551,0|2,0:0|0:0,0:0:0:0:
296,90,34871,1,0,0:0:0:0:
111,142,35058,1,2,0:0:0:0:
263,260,35246,6,0,P|264:202|254:150,1,103.799996832275,2|0,0:0|0:0,0:0:0:0:
126,351,35621,2,0,P|125:293|135:241,1,103.799996832275,2|0,0:0|0:0,0:0:0:0:
264,355,35996,2,0,P|317:357|377:335,1,103.799996832275,10|0,0:0|0:0,0:0:0:0:
446,209,36371,1,2,0:0:0:0:
486,350,36558,1,2,0:0:0:0:
351,191,36746,6,0,L|365:82,1,103.799996832275,2|10,0:0|0:0,0:0:0:0:
469,26,37121,1,2,0:0:0:0:
503,150,37308,1,0,0:0:0:0:
355,10,37496,2,0,L|234:17,1,103.799996832275,10|2,0:0|0:0,0:0:0:0:
101,30,37871,1,0,0:0:0:0:
255,113,38058,1,2,0:0:0:0:
61,140,38246,6,0,P|51:190|76:253,1,103.799996832275,2|0,0:0|0:0,0:0:0:0:
255,113,38621,2,0,P|216:79|149:69,1,103.799996832275,2|0,0:0|0:0,0:0:0:0:
177,285,38996,2,0,P|225:268|267:215,1,103.799996832275,10|0,0:0|0:0,0:0:0:0:
332,82,39371,1,2,0:0:0:0:
378,231,39558,1,2,0:0:0:0:
255,113,39746,5,2,0:0:0:0:
397,141,39933,1,10,0:0:0:0:
220,78,40121,1,2,0:0:0:0:
260,230,40308,1,0,0:0:0:0:
391,58,40496,2,0,P|443:71|476:108,1,103.799996832275,10|2,0:0|0:0,0:0:0:0:
496,242,40871,1,0,0:0:0:0:
397,141,41058,1,2,0:0:0:0:
374,309,41246,6,0,P|322:320|264:308,1,103.799996832275,2|0,0:0|0:0,0:0:0:0:
203,172,41621,1,2,0:0:0:0:
170,297,41808,1,0,0:0:0:0:
215,134,41996,2,0,P|265:118|326:119,1,103.799996832275,10|0,0:0|0:0,0:0:0:0:
130,76,42371,2,0,P|80:60|19:61,1,103.799996832275,2|0,0:0|0:0,0:0:0:0:
218,19,42746,5,0,0:0:0:0:
215,134,42933,1,0,0:0:0:0:
292,72,43121,1,0,0:0:0:0:
185,163,43308,1,0,0:0:0:0:
318,172,43496,1,0,0:0:0:0:
164,131,43683,1,0,0:0:0:0:
391,112,43871,1,10,0:0:0:0:
391,112,44246,6,0,P|404:165|396:220,1,103.799996832275,2|0,0:0|0:0,0:0:0:0:
310,331,44621,2,0,L|202:319,1,103.799996832275,2|0,0:0|0:0,0:0:0:0:
111,221,44996,1,10,0:0:0:0:
96,318,45183,1,0,0:0:0:0:
110,189,45371,1,2,0:0:0:0:
235,237,45558,1,2,0:0:0:0:
157,120,45746,6,0,P|105:108|35:141,1,103.799996832275,2|10,0:0|0:0,0:0:0:0:
250,72,46121,2,0,P|302:60|372:93,1,103.799996832275,2|0,0:0|0:0,0:0:0:0:
404,223,46496,1,10,0:0:0:0:
433,97,46683,1,2,0:0:0:0:
390,256,46871,1,0,0:0:0:0:
297,138,47058,1,2,0:0:0:0:
262,323,47246,6,0,B|159:281|182:361|61:310,1,194.625007424355
16,214,47996,2,0,P|17:175|31:141,1,64.8750024747849
135,90,48371,2,0,P|144:120|144:153,1,64.8750024747849
73,314,48746,5,10,0:0:0:0:
25,150,48933,1,10,0:0:0:0:
172,297,49121,1,10,0:0:0:0:
236,80,49308,1,10,0:0:0:0:
71,347,49496,1,10,0:0:0:0:
59,71,49683,1,10,0:0:0:0:
243,253,49871,2,0,B|333:226|317:282|402:258,1,155.699995248413
467,208,50246,6,0,P|477:151|459:94,1,112.449994852448,4|0,0:0|0:0,0:0:0:0:
296,33,50621,1,2,0:0:0:0:
313,153,50808,1,0,0:0:0:0:
372,0,50996,1,10,0:0:0:0:
402,154,51183,1,0,0:0:0:0:
234,92,51371,2,0,L|177:99,1,56.2249974262239,2|0,0:0|0:0,0:0:0:0:
36,42,51558,2,0,L|93:49,1,56.2249974262239,2|0,0:0|0:0,0:0:0:0:
296,33,51746,5,8,0:0:0:0:
93,132,51933,1,10,0:0:0:0:
313,153,52121,5,8,0:0:0:0:
91,48,52308,1,0,0:0:0:0:
371,86,52496,6,0,L|486:80,1,112.449994852448,10|2,0:0|0:0,0:0:0:0:
250,220,52871,2,0,L|135:214,1,112.449994852448,0|2,0:0|0:0,0:0:0:0:
394,259,53246,6,0,L|509:253,1,112.449994852448,2|0,0:0|0:0,0:0:0:0:
316,155,53621,1,2,0:0:0:0:
318,335,53808,1,0,0:0:0:0:
230,174,53996,1,10,0:0:0:0:
327,369,54183,1,0,0:0:0:0:
182,269,54371,1,2,0:0:0:0:
394,259,54558,2,0,P|425:175|332:73,1,224.899989704895,2|10,0:0|0:0,0:0:0:0:
200,39,55121,6,0,L|84:45,1,112.449994852448,2|0,0:0|0:0,0:0:0:0:
230,174,55496,2,0,L|342:168,1,112.449994852448,10|2,0:0|0:0,0:0:0:0:
471,83,55871,1,0,0:0:0:0:
497,239,56058,1,2,0:0:0:0:
348,254,56246,6,0,L|235:259,1,112.449994852448,2|0,0:0|0:0,0:0:0:0:
65,217,56621,1,2,0:0:0:0:
230,174,56808,1,0,0:0:0:0:
152,358,56996,2,0,P|140:296|154:243,1,112.449994852448,10|0,0:0|0:0,0:0:0:0:
193,102,57371,1,2,0:0:0:0:
235,259,57558,1,2,0:0:0:0:
308,126,57746,6,0,P|311:80|286:13,1,112.449994852448,0|10,0:0|0:0,0:0:0:0:
414,237,58121,2,0,P|411:191|436:124,1,112.449994852448,2|0,0:0|0:0,0:0:0:0:
326,314,58496,1,10,0:0:0:0:
493,300,58683,1,2,0:0:0:0:
284,304,58871,2,0,P|225:304|169:311,1,112.449994852448,0|2,0:0|0:0,0:0:0:0:
49,373,59246,5,2,0:0:0:0:
60,219,59433,1,0,0:0:0:0:
172,310,59621,1,2,0:0:0:0:
0,291,59808,1,0,0:0:0:0:
167,218,59996,2,0,P|224:210|283:213,1,112.449994852448,10|0,0:0|0:0,0:0:0:0:
411,307,60371,1,2,0:0:0:0:
253,381,60558,1,2,0:0:0:0:
359,214,60746,5,0,0:0:0:0:
356,382,60933,1,10,0:0:0:0:
386,187,61121,1,2,0:0:0:0:
496,343,61308,1,0,0:0:0:0:
478,154,61496,1,10,0:0:0:0:
411,307,61683,1,2,0:0:0:0:
403,79,61871,1,0,0:0:0:0:
512,263,62058,1,2,0:0:0:0:
320,122,62246,6,0,B|259:101|266:139|199:123,1,112.449994852448,2|0,0:0|0:0,0:0:0:0:
99,47,62621,1,0,0:0:0:0:
235,37,62808,1,0,0:0:0:0:
65,61,62996,1,10,0:0:0:0:
209,125,63183,1,0,0:0:0:0:
52,201,63371,1,2,0:0:0:0:
278,205,63558,2,0,B|390:152|377:267|518:199,1,224.899989704895,2|10,0:0|0:0,0:0:0:0:
445,138,64121,5,2,0:0:0:0:
391,301,64308,1,0,0:0:0:0:
469,106,64496,1,10,0:0:0:0:
501,296,64683,1,2,0:0:0:0:
320,122,64871,1,0,0:0:0:0:
493,209,65058,1,2,0:0:0:0:
299,283,65246,6,0,L|183:295,1,112.449994852448,2|0,0:0|0:0,0:0:0:0:
31,231,65621,1,2,0:0:0:0:
156,204,65808,1,0,0:0:0:0:
104,347,65996,1,10,0:0:0:0:
26,195,66183,1,0,0:0:0:0:
187,294,66371,1,2,0:0:0:0:
233,115,66558,2,0,P|167:58|97:155,1,224.899989704895,2|10,0:0|0:0,0:0:0:0:
187,294,67121,6,0,L|299:283,1,112.449994852448,2|0,0:0|0:0,0:0:0:0:
493,209,67496,2,0,L|381:197,1,112.449994852448,10|2,0:0|0:0,0:0:0:0:
233,115,67871,2,0,L|344:103,1,112.449994852448,0|2,0:0|0:0,0:0:0:0:
491,82,68246,5,2,0:0:0:0:
381,197,68433,1,0,0:0:0:0:
487,50,68621,2,0,P|439:24|372:19,1,112.449994852448,2|0,0:0|0:0,0:0:0:0:
233,115,68996,2,0,P|174:116|120:88,1,112.449994852448,10|0,0:0|0:0,0:0:0:0:
48,4,69371,1,2,0:0:0:0:
71,167,69558,1,2,0:0:0:0:
197,41,69746,5,0,0:0:0:0:
9,89,69933,1,10,0:0:0:0:
233,115,70121,2,0,L|346:104,1,112.449994852448,2|0,0:0|0:0,0:0:0:0:
468,81,70496,1,10,0:0:0:0:
333,14,70683,1,2,0:0:0:0:
437,162,70871,5,0,0:0:0:0:
300,189,71058,2,0,B|228:172|246:221|152:201,1,129.75000494957
194,132,71621,5,0,0:0:0:0:
274,260,71808,2,0,B|257:331|306:313|289:385,1,129.75000494957
353,280,72371,5,0,0:0:0:0:
213,365,72558,1,0,0:0:0:0:
300,189,72746,5,10,0:0:0:0:
376,373,72933,1,10,0:0:0:0:
220,140,73121,1,10,0:0:0:0:
138,317,73308,1,10,0:0:0:0:
289,104,73496,1,10,0:0:0:0:
402,293,73683,1,10,0:0:0:0:
228,42,73871,1,10,0:0:0:0:
106,233,74058,1,10,0:0:0:0:
379,176,74246,6,0,P|410:103|370:24,1,166.08,4|0,0:0|0:0,0:0:0:0:
291,0,74621,2,0,B|207:-37|222:39|117:3,1,166.08,2|0,0:0|0:0,0:0:0:0:
52,46,74996,2,0,P|42:98|60:166,1,110.72,10|0,0:0|0:0,0:0:0:0:
144,295,75371,6,0,L|159:172,1,110.72,2|2,0:0|0:0,0:0:0:0:
253,65,75746,2,0,L|268:188,1,110.72,0|10,0:0|0:0,0:0:0:0:
300,319,76121,1,2,0:0:0:0:
430,227,76308,1,0,0:0:0:0:
265,322,76496,1,10,0:0:0:0:
440,345,76683,1,2,0:0:0:0:
266,174,76871,6,0,P|215:147|121:194,1,166.08
97,281,77246,2,0,P|48:250|41:145,1,166.08,2|0,0:0|0:0,0:0:0:0:
83,71,77621,2,0,B|167:32|159:98|249:59,1,166.08,2|0,0:0|0:0,0:0:0:0:
323,20,77996,2,0,P|374:11|448:43,1,110.72,10|0,0:0|0:0,0:0:0:0:
496,214,78371,6,0,P|448:232|374:219,1,110.72,2|2,0:0|0:0,0:0:0:0:
243,61,78746,2,0,P|282:93|308:164,1,110.72,0|10,0:0|0:0,0:0:0:0:
255,343,79121,2,0,P|263:292|311:234,1,110.72,2|0,0:0|0:0,0:0:0:0:
439,157,79496,1,10,0:0:0:0:
222,147,79683,1,2,0:0:0:0:
389,226,79871,1,0,0:0:0:0:
358,56,80058,1,2,0:0:0:0:
212,229,80246,6,0,P|151:246|65:184,1,166.08,2|0,0:0|0:0,0:0:0:0:
29,116,80621,2,0,L|35:284,1,166.08,2|0,0:0|0:0,0:0:0:0:
89,356,80996,2,0,P|142:363|211:344,1,110.72,10|0,0:0|0:0,0:0:0:0:
297,245,81371,5,2,0:0:0:0:
330,373,81558,1,2,0:0:0:0:
344,217,81746,2,0,P|351:169|389:105,1,110.72,0|10,0:0|0:0,0:0:0:0:
212,229,82121,2,0,P|205:181|167:117,1,110.72,2|0,0:0|0:0,0:0:0:0:
76,38,82496,1,10,0:0:0:0:
33,182,82683,1,2,0:0:0:0:
107,14,82871,1,0,0:0:0:0:
133,203,83058,1,2,0:0:0:0:
193,31,83246,6,0,P|253:3|347:38,1,166.08,2|0,0:0|0:0,0:0:0:0:
380,114,83621,2,0,L|352:279,1,166.08,2|0,0:0|0:0,0:0:0:0:
333,364,83996,2,0,P|278:369|223:330,1,110.72,10|0,0:0|0:0,0:0:0:0:
205,222,84371,1,2,0:0:0:0:
135,347,84558,1,2,0:0:0:0:
118,184,84746,5,0,0:0:0:0:
59,284,84933,1,10,0:0:0:0:
26,144,85121,1,2,0:0:0:0:
122,230,85308,1,0,0:0:0:0:
118,98,85496,1,10,0:0:0:0:
8,181,85683,1,2,0:0:0:0:
197,151,85871,2,0,B|299:123|252:188|382:165,1,166.08
388,139,86246,5,0,0:0:0:0:
395,55,98246,6,0,B|406:106|379:98|401:168,1,97.3125037121774,2|0,0:0|0:0,0:0:0:0:
407,191,98621,2,0,P|363:210|316:191,1,97.3125037121774,2|0,0:0|0:0,0:0:0:0:
300,160,98996,1,10,0:0:0:0:
300,160,99371,2,0,L|291:82,1,64.8750024747849,2|2,0:0|0:0,0:0:0:0:
244,16,99746,5,0,0:0:0:0:
170,93,99933,1,10,0:0:0:0:
99,26,100121,2,0,P|77:69|87:134,1,97.3125037121774,2|0,0:0|0:0,0:0:0:0:
94,150,100496,1,10,0:0:0:0:
164,231,100683,1,2,0:0:0:0:
57,257,100871,1,0,0:0:0:0:
179,184,101058,1,2,0:0:0:0:
136,339,101246,6,0,B|195:320|179:362|261:334,1,97.3125037121774,2|0,0:0|0:0,0:0:0:0:
266,323,101621,2,0,P|286:282|281:229,1,97.3125037121774,2|0,0:0|0:0,0:0:0:0:
256,192,101996,1,10,0:0:0:0:
256,192,102371,1,2,0:0:0:0:
292,86,102558,2,0,B|363:74|347:120|435:96,1,129.75000494957,2|10,0:0|0:0,0:0:0:0:
502,27,103121,1,2,0:0:0:0:
502,27,103496,5,10,0:0:0:0:
486,142,103683,1,2,0:0:0:0:
468,260,103871,1,0,0:0:0:0:
448,374,104058,1,2,0:0:0:0:
368,247,104246,6,0,P|315:243|259:273,1,97.3125037121774,2|0,0:0|0:0,0:0:0:0:
217,347,104621,2,0,P|164:351|108:321,1,97.3125037121774,2|0,0:0|0:0,0:0:0:0:
117,242,104996,1,10,0:0:0:0:
117,242,105371,1,2,0:0:0:0:
20,275,105558,2,0,P|18:210|59:156,1,129.75000494957,2|10,0:0|0:0,0:0:0:0:
153,142,106121,1,2,0:0:0:0:
153,142,106496,5,10,0:0:0:0:
82,57,106683,1,2,0:0:0:0:
54,159,106871,1,0,0:0:0:0:
117,242,107058,1,2,0:0:0:0:
235,187,107246,6,0,B|284:170|281:204|341:177,1,97.3125037121774,2|0,0:0|0:0,0:0:0:0:
360,156,107621,2,0,P|370:109|342:51,1,97.3125037121774,2|0,0:0|0:0,0:0:0:0:
327,32,107996,1,10,0:0:0:0:
327,32,108371,2,0,L|401:26,1,64.8750024747849,2|2,0:0|0:0,0:0:0:0:
480,83,108746,6,0,B|464:123|502:132|470:202,1,103.8
458,224,109121,6,0,B|399:202|410:243|340:227,1,116.77499643631
307,200,109496,6,0,P|284:247|304:332,1,129.75
370,345,109871,6,0,L|204:349,1,142.725004355621
143,318,110246,6,0,P|134:269|151:217,1,95.1500029037476,4|0,0:0|0:0,0:0:0:0:
307,200,110621,2,0,P|316:151|299:99,1,95.1500029037476,2|0,0:0|0:0,0:0:0:0:
196,25,110996,1,10,0:0:0:0:
208,141,111183,1,0,0:0:0:0:
237,7,111371,1,2,0:0:0:0:
126,92,111558,1,2,0:0:0:0:
324,31,111746,6,0,P|362:27|418:34,1,95.1500029037476,2|10,0:0|0:0,0:0:0:0:
509,179,112121,2,0,P|471:175|415:182,1,95.1500029037476,2|0,0:0|0:0,0:0:0:0:
324,304,112496,1,10,0:0:0:0:
324,154,112683,1,2,0:0:0:0:
304,344,112871,1,0,0:0:0:0:
414,182,113058,1,2,0:0:0:0:
205,181,113246,6,0,P|157:180|89:189,1,95.1500029037476,2|0,0:0|0:0,0:0:0:0:
309,263,113621,2,0,P|357:262|425:271,1,95.1500029037476,2|0,0:0|0:0,0:0:0:0:
491,361,113996,1,10,0:0:0:0:
477,220,114183,1,0,0:0:0:0:
398,346,114371,1,2,0:0:0:0:
482,182,114558,1,2,0:0:0:0:
298,171,114746,6,0,P|251:170|196:182,1,95.1500029037476,2|10,0:0|0:0,0:0:0:0:
13,117,115121,2,0,P|60:116|115:128,1,95.1500029037476
142,267,115496,1,10,0:0:0:0:
181,86,115683,1,2,0:0:0:0:
259,249,115871,1,0,0:0:0:0:
107,125,116058,1,2,0:0:0:0:
304,95,116246,6,0,L|406:85,1,95.1500029037476,2|0,0:0|0:0,0:0:0:0:
165,50,116621,2,0,L|63:40,1,95.1500029037476,2|0,0:0|0:0,0:0:0:0:
207,205,116996,1,10,0:0:0:0:
246,38,117183,1,0,0:0:0:0:
277,258,117371,1,2,0:0:0:0:
107,125,117558,1,2,0:0:0:0:
115,320,117746,6,0,L|213:312,1,95.1500029037476,2|10,0:0|0:0,0:0:0:0:
413,233,118121,2,0,L|318:225,1,95.1500029037476,2|0,0:0|0:0,0:0:0:0:
150,202,118496,1,10,0:0:0:0:
322,142,118683,1,2,0:0:0:0:
102,185,118871,1,0,0:0:0:0:
318,225,119058,1,2,0:0:0:0:
131,110,119246,6,0,P|82:107|30:141,1,95.1500029037476,2|0,0:0|0:0,0:0:0:0:
120,287,119621,2,0,P|169:290|221:256,1,95.1500029037476,2|0,0:0|0:0,0:0:0:0:
228,110,119996,1,10,0:0:0:0:
318,225,120183,1,0,0:0:0:0:
338,88,120371,1,2,0:0:0:0:
430,215,120558,1,2,0:0:0:0:
243,191,120746,6,0,P|197:199|147:217,1,95.1500029037476,2|10,0:0|0:0,0:0:0:0:
342,282,121121,2,0,P|388:290|438:308,1,95.1500029037476,2|0,0:0|0:0,0:0:0:0:
333,162,121496,1,10,0:0:0:0:
260,293,121683,1,2,0:0:0:0:
315,121,121871,1,0,0:0:0:0:
430,215,122058,1,2,0:0:0:0:
215,167,122246,6,0,P|215:123|233:72,1,95.1500029037476,2|0,0:0|0:0,0:0:0:0:
349,254,122621,2,0,P|349:210|331:159,1,95.1500029037476,2|0,0:0|0:0,0:0:0:0:
242,326,122996,1,10,0:0:0:0:
379,345,123183,1,0,0:0:0:0:
206,306,123371,1,2,0:0:0:0:
349,254,123558,1,2,0:0:0:0:
161,239,123746,6,0,L|66:250,1,95.1500029037476,2|10,0:0|0:0,0:0:0:0:
238,151,124121,2,0,L|333:162,1,95.1500029037476,2|0,0:0|0:0,0:0:0:0:
482,181,124496,1,10,0:0:0:0:
344,83,124683,1,2,0:0:0:0:
399,250,124871,1,0,0:0:0:0:
483,92,125058,1,2,0:0:0:0:
319,244,125246,6,0,L|224:233,1,95.1500029037476,2|0,0:0|0:0,0:0:0:0:
56,145,125621,2,0,L|151:134,1,95.1500029037476,2|0,0:0|0:0,0:0:0:0:
344,83,125996,2,0,L|249:72,1,95.1500029037476,10|0,0:0|0:0,0:0:0:0:
90,46,126371,1,2,0:0:0:0:
248,154,126558,1,2,0:0:0:0:
32,236,126746,6,0,P|40:193|60:134,1,95.1500029037476,2|10,0:0|0:0,0:0:0:0:
216,317,127121,2,0,P|208:274|188:215,1,95.1500029037476,2|0,0:0|0:0,0:0:0:0:
120,373,127496,1,10,0:0:0:0:
100,255,127683,1,2,0:0:0:0:
161,379,127871,1,0,0:0:0:0:
192,225,128058,1,2,0:0:0:0:
302,360,128246,6,0,P|339:355|385:323,1,95.1500029037476,2|0,0:0|0:0,0:0:0:0:
415,180,128621,2,0,P|392:150|341:126,1,95.1500029037476,2|0,0:0|0:0,0:0:0:0:
196,137,128996,1,10,0:0:0:0:
335,42,129183,1,0,0:0:0:0:
176,168,129371,1,2,0:0:0:0:
196,3,129558,1,2,0:0:0:0:
286,197,129746,6,0,P|281:245|267:300,1,95.1500029037476,2|10,0:0|0:0,0:0:0:0:
87,143,130121,2,0,P|92:191|106:246,1,95.1500029037476,2|0,0:0|0:0,0:0:0:0:
207,86,130496,1,10,0:0:0:0:
32,59,130683,1,2,0:0:0:0:
196,3,130871,1,0,0:0:0:0:
87,143,131058,1,2,0:0:0:0:
294,112,131246,6,0,L|411:95,1,95.1500029037476,2|0,0:0|0:0,0:0:0:0:
498,22,131621,1,2,0:0:0:0:
350,10,131808,1,0,0:0:0:0:
494,139,131996,2,0,L|478:232,1,95.1500029037476,10|0,0:0|0:0,0:0:0:0:
444,377,132371,1,2,0:0:0:0:
385,208,132558,1,2,0:0:0:0:
277,346,132746,5,0,0:0:0:0:
437,296,132933,1,10,0:0:0:0:
242,225,133121,1,2,0:0:0:0:
361,356,133308,1,0,0:0:0:0:
156,290,133496,1,10,0:0:0:0:
385,208,133683,1,2,0:0:0:0:
111,161,133871,1,0,0:0:0:0:
330,279,134058,1,2,0:0:0:0:
127,373,134246,6,0,B|74:350|75:390|8:369,1,116.77499643631
0,331,134621,2,0,P|2:280|17:241,1,77.8499976242066
111,161,134996,2,0,P|109:110|94:71,1,77.8499976242066
13,14,135371,1,0,0:0:0:0:
163,32,135558,2,0,P|241:43|319:50,1,155.699995248413
420,10,136121,5,0,0:0:0:0:
383,112,136308,1,0,0:0:0:0:
483,76,136496,1,0,0:0:0:0:
361,142,136683,1,0,0:0:0:0:
500,259,136871,1,2,0:0:0:0:
500,259,137246,6,0,L|368:271,1,108.125,4|0,0:0|0:0,0:0:0:0:
231,283,137621,1,2,0:0:0:0:
388,351,137808,1,0,0:0:0:0:
205,367,137996,2,0,L|92:373,1,108.125,10|0,0:0|0:0,0:0:0:0:
8,239,138371,1,2,0:0:0:0:
0,384,138558,1,2,0:0:0:0:
126,244,138746,6,0,P|131:202|119:136,1,108.125,2|10,0:0|0:0,0:0:0:0:
0,26,139121,2,0,L|128:17,1,108.125,2|0,0:0|0:0,0:0:0:0:
264,21,139496,1,10,0:0:0:0:
119,137,139683,1,2,0:0:0:0:
269,144,139871,1,0,0:0:0:0:
107,18,140058,1,2,0:0:0:0:
320,85,140246,6,0,L|445:80,1,108.125,2|0,0:0|0:0,0:0:0:0:
508,214,140621,2,0,L|383:209,1,108.125,2|0,0:0|0:0,0:0:0:0:
219,288,140996,2,0,L|344:283,1,108.125,10|0,0:0|0:0,0:0:0:0:
231,147,141371,1,2,0:0:0:0:
139,317,141558,1,2,0:0:0:0:
324,149,141746,5,2,0:0:0:0:
116,233,141933,1,10,0:0:0:0:
328,284,142121,2,0,L|436:288,1,108.125,2|0,0:0|0:0,0:0:0:0:
493,173,142496,1,10,0:0:0:0:
507,318,142683,1,2,0:0:0:0:
490,129,142871,1,0,0:0:0:0:
436,288,143058,1,2,0:0:0:0:
402,107,143246,6,0,P|351:90|278:118,1,108.125,2|0,0:0|0:0,0:0:0:0:
161,138,143621,2,0,P|144:88|157:36,1,108.125,2|0,0:0|0:0,0:0:0:0:
347,170,143996,2,0,P|359:222|342:272,1,108.125,10|0,0:0|0:0,0:0:0:0:
162,139,144371,1,2,0:0:0:0:
198,293,144558,1,2,0:0:0:0:
146,98,144746,5,0,0:0:0:0:
109,286,144933,1,10,0:0:0:0:
299,102,145121,1,2,0:0:0:0:
359,318,145308,1,0,0:0:0:0:
118,207,145496,1,10,0:0:0:0:
402,107,145683,1,2,0:0:0:0:
276,342,145871,1,0,0:0:0:0:
225,65,146058,1,2,0:0:0:0:
461,205,146246,5,2,0:0:0:0:
50,92,146621,2,0,L|46:209,1,108.125,2|0,0:0|0:0,0:0:0:0:
34,301,146996,1,0,0:0:0:0:
141,286,147183,1,0,0:0:0:0:
6,304,147371,1,0,0:0:0:0:
98,384,147558,1,0,0:0:0:0:
98,384,147933,5,0,0:0:0:0:
141,286,148121,1,0,0:0:0:0:
198,384,148308,1,0,0:0:0:0:
144,245,148496,1,0,0:0:0:0:
272,302,148683,1,0,0:0:0:0:
181,173,148871,6,0,P|137:164|78:196,1,97.3125037121774,2|0,0:0|0:0,0:0:0:0:
255,221,149246,6,0,P|267:166|240:103,1,112.449994852448,4|0,0:0|0:0,0:0:0:0:
154,25,149621,1,2,0:0:0:0:
181,173,149808,1,0,0:0:0:0:
264,28,149996,1,10,0:0:0:0:
91,92,150183,1,0,0:0:0:0:
248,114,150371,1,2,0:0:0:0:
45,78,150558,1,2,0:0:0:0:
263,194,150746,6,0,P|319:193|394:183,1,112.449994852448,2|10,0:0|0:0,0:0:0:0:
484,78,151121,2,0,P|495:122|491:188,1,112.449994852448,2|0,0:0|0:0,0:0:0:0:
433,344,151496,1,10,0:0:0:0:
375,186,151683,1,2,0:0:0:0:
378,359,151871,1,0,0:0:0:0:
512,264,152058,1,2,0:0:0:0:
301,235,152246,6,0,L|187:249,1,112.449994852448,2|0,0:0|0:0,0:0:0:0:
54,186,152621,2,0,P|37:132|44:77,1,112.449994852448,2|0,0:0|0:0,0:0:0:0:
176,13,152996,2,0,L|287:0,1,112.449994852448,10|0,0:0|0:0,0:0:0:0:
149,122,153371,1,2,0:0:0:0:
360,146,153558,1,2,0:0:0:0:
189,248,153746,5,2,0:0:0:0:
274,115,153933,1,10,0:0:0:0:
374,241,154121,1,2,0:0:0:0:
214,56,154308,1,0,0:0:0:0:
124,201,154496,1,10,0:0:0:0:
360,146,154683,1,2,0:0:0:0:
120,71,154871,5,0,0:0:0:0:
233,146,155058,2,0,B|299:128|287:174|373:141,1,129.75000494957
320,77,155621,5,0,0:0:0:0:
263,221,155808,2,0,B|281:287|235:275|268:361,1,129.75000494957
334,306,156371,5,0,0:0:0:0:
189,255,156558,2,0,P|131:256|58:286,1,129.75000494957
