osu file format v14

[General]
AudioFilename: audio.mp3
AudioLeadIn: 0
PreviewTime: 99572
Countdown: 1
SampleSet: Normal
StackLeniency: 0.7
Mode: 0
LetterboxInBreaks: 0
WidescreenStoryboard: 0

[Editor]
Bookmarks: 71700
DistanceSpacing: 1
BeatDivisor: 4
GridSize: 4
TimelineZoom: 0.9

[Metadata]
Title:HANNAMONTANA
TitleUnicode:ХАННАМОНТАНА
Artist:POSHLAYA MOLLI
ArtistUnicode:ПОШЛАЯ МОЛЛИ
Creator:Ayya Novak
Version:WONDER
Source:
Tags:
BeatmapID:1534652
BeatmapSetID:726879

[Difficulty]
HPDrainRate:3
CircleSize:4
OverallDifficulty:8
ApproachRate:9.3
SliderMultiplier:1.41
SliderTickRate:1

[Events]
//Background and Video events
0,0,"69264d246a07fd87ba7f16f04f1ff887db5d86ab.jpg",0,0
//Break Periods
2,85304,99869
//Storyboard Layer 0 (Background)
//Storyboard Layer 1 (Fail)
//Storyboard Layer 2 (Pass)
//Storyboard Layer 3 (Foreground)
//Storyboard Sound Samples

[TimingPoints]
3402.24743139998,425.531914893617,4,1,0,100,1,0
17019,-50,4,1,0,100,0,1
21061,-66.6666666666667,4,1,0,100,0,1
21274,-50,4,1,0,100,0,1
21912,-66.6666666666667,4,1,0,100,0,1
22125,-50,4,1,0,100,0,1
23260,-66.6666666666667,4,1,0,100,0,1
27232,-50,4,1,0,100,0,1
34040,-83.3333333333333,4,1,0,100,0,0
43827,-66.6666666666667,4,1,0,100,0,0
44253,-100,4,1,0,100,0,0
57870,-50,4,1,0,100,0,1
64111,-66.6666666666667,4,1,0,100,0,1
68083,-50,4,1,0,100,0,1
71487,-50,4,1,0,100,0,1
85104,-50,4,1,0,100,0,0
98721,-125,4,1,0,100,0,0
119146,-100,4,1,0,100,0,0
125529,-66.6666666666667,4,1,0,100,0,0
125955,-50,4,1,0,100,0,1
152551,-100,4,1,0,100,0,0
153189,-66.6666666666667,4,1,0,100,0,0
166806,-100,4,1,0,100,0,0
173615,-200,4,1,0,100,0,0
174040,-66.6666666666667,4,1,0,100,0,0
174466,-50,4,1,0,100,0,0

[Colours]
Combo1 : 115,78,214
Combo2 : 255,128,192
Combo3 : 209,5,46
Combo4 : 124,145,239

[HitObjects]
128,280,13615,5,0,0:0:0:0:
108,208,13827,1,0,0:0:0:0:
92,136,14040,1,0,0:0:0:0:
76,64,14253,1,0,0:0:0:0:
16,188,14466,1,0,0:0:0:0:
184,228,14678,1,0,0:0:0:0:
332,160,14891,1,0,0:0:0:0:
500,204,15104,1,0,0:0:0:0:
256,192,15317,5,0,0:0:0:0:
192,124,16806,6,0,L|188:76,1,35.25
256,192,17019,2,0,P|256:236|240:272,1,70.5
284,108,17232,2,0,P|320:96|360:100,1,70.5
453,170,17444,2,0,P|356:212|235:178,1,211.5
86,129,17870,2,0,P|182:86|303:120,1,211.5
95,337,18295,2,0,B|83:253|83:253|95:209|95:209|83:109,1,211.5
92,58,18721,6,0,L|84:134,1,70.5
280,328,18934,2,0,L|272:248,1,70.5
0,236,19146,2,0,L|228:216,1,211.5
490,346,19572,2,0,L|262:326,1,211.5
148,88,19997,2,0,B|256:64|256:64|376:92,1,211.5
144,256,20423,5,0,0:0:0:0:
92,244,20565,1,0,0:0:0:0:
40,232,20707,1,0,0:0:0:0:
144,256,20849,2,0,L|152:340,1,70.5
216,356,21061,2,0,P|244:360|272:352,1,52.8750020170213
368,128,21274,5,0,0:0:0:0:
420,140,21416,1,0,0:0:0:0:
472,152,21558,1,0,0:0:0:0:
368,128,21700,2,0,L|360:44,1,70.5
296,28,21912,2,0,P|268:24|240:32,1,52.8750020170213
176,120,22125,5,0,0:0:0:0:
256,300,22267,1,0,0:0:0:0:
216,48,22409,1,0,0:0:0:0:
24,188,22551,1,0,0:0:0:0:
336,252,22693,1,0,0:0:0:0:
16,180,22834,1,0,0:0:0:0:
392,108,22976,1,0,0:0:0:0:
400,364,23118,1,0,0:0:0:0:
316,32,23260,2,0,L|96:16,1,211.500008068085
320,156,23827,6,0,L|492:136,2,158.625006051064
276,224,24678,1,0,0:0:0:0:
300,296,24820,1,0,0:0:0:0:
324,368,24962,1,0,0:0:0:0:
485,57,25104,5,0,0:0:0:0:
477,137,25246,1,0,0:0:0:0:
469,217,25388,1,0,0:0:0:0:
324,80,25529,5,0,0:0:0:0:
488,48,25671,1,0,0:0:0:0:
260,28,25813,1,0,0:0:0:0:
192,300,25955,5,0,0:0:0:0:
20,336,26097,1,0,0:0:0:0:
248,356,26239,1,0,0:0:0:0:
80,132,26380,2,0,L|100:304,1,141.000005378723
396,172,26806,2,0,L|376:344,1,141.000005378723
272,164,27232,6,0,B|328:148|340:88|340:88|388:116|396:176,1,211.5
219,279,27657,2,0,B|163:295|151:355|151:355|103:327|95:267,1,211.5
196,88,28083,2,0,P|152:168|36:172,1,211.5
219,279,28508,2,0,P|297:231|399:286,1,211.5
276,112,28934,2,0,B|276:64|308:32|308:32|328:100|288:160,1,211.5
395,280,29359,2,0,B|395:328|363:360|363:360|343:292|383:232,1,211.5
186,307,29785,2,0,L|438:275,1,211.5
276,112,30210,2,0,L|24:144,1,211.5
328,172,30636,5,0,0:0:0:0:
360,160,33402,1,0,0:0:0:0:
376,204,33615,1,0,0:0:0:0:
288,352,33827,1,0,0:0:0:0:
292,336,33934,1,0,0:0:0:0:
296,320,34040,5,0,0:0:0:0:
252,260,34182,1,0,0:0:0:0:
192,304,34324,1,0,0:0:0:0:
296,320,34466,1,0,0:0:0:0:
252,260,34607,1,0,0:0:0:0:
192,304,34749,1,0,0:0:0:0:
132,348,34891,2,0,L|40:332,1,84.599997418213
16,268,35175,5,0,0:0:0:0:
8,224,35317,1,0,0:0:0:0:
0,180,35458,1,0,0:0:0:0:
16,268,35600,1,0,0:0:0:0:
64,88,35742,1,0,0:0:0:0:
72,144,35884,1,0,0:0:0:0:
84,200,36026,1,0,0:0:0:0:
56,76,36168,5,0,0:0:0:0:
144,52,36310,1,0,0:0:0:0:
224,88,36451,1,0,0:0:0:0:
308,64,36593,1,0,0:0:0:0:
384,112,36735,1,0,0:0:0:0:
468,88,36877,1,0,0:0:0:0:
224,88,37019,2,0,L|240:196,1,84.599997418213
232,180,37302,1,0,0:0:0:0:
200,248,37444,5,0,0:0:0:0:
208,288,37586,1,0,0:0:0:0:
216,328,37728,1,0,0:0:0:0:
276,244,37870,1,0,0:0:0:0:
284,284,38012,1,0,0:0:0:0:
292,324,38154,1,0,0:0:0:0:
360,268,38295,1,0,0:0:0:0:
276,244,38437,1,0,0:0:0:0:
208,288,38579,1,0,0:0:0:0:
128,264,38721,1,0,0:0:0:0:
100,188,38863,1,0,0:0:0:0:
208,288,39005,1,0,0:0:0:0:
72,328,39146,5,0,0:0:0:0:
108,180,39288,2,0,L|100:104,1,56.3999982788086
188,200,39572,1,0,0:0:0:0:
100,188,39714,1,0,0:0:0:0:
16,176,39856,1,0,0:0:0:0:
188,200,39997,1,0,0:0:0:0:
356,224,40139,2,0,L|280:216,1,56.3999982788086
404,120,40423,1,0,0:0:0:0:
408,144,40565,1,0,0:0:0:0:
412,164,40707,1,0,0:0:0:0:
472,216,40849,5,0,0:0:0:0:
464,268,40990,1,0,0:0:0:0:
456,320,41132,1,0,0:0:0:0:
472,216,41274,1,0,0:0:0:0:
388,256,41416,1,0,0:0:0:0:
300,224,41558,1,0,0:0:0:0:
216,260,41700,1,0,0:0:0:0:
128,224,41841,1,0,0:0:0:0:
216,168,41983,1,0,0:0:0:0:
184,340,42125,1,0,0:0:0:0:
48,232,42267,2,0,L|-8:224,1,56.3999982788086
300,224,42551,6,0,L|316:364,1,126.899996127319
360,160,42976,2,0,L|368:92,1,56.3999982788086
428,216,43242,1,0,0:0:0:0:
192,237,43402,2,0,B|256:245|256:245|312:217,1,112.799996557617
64,152,43827,6,0,B|72:216|72:216|68:236|68:236|80:304,1,141.000005378723
40,76,44253,5,0,0:0:0:0:
44,56,44395,1,0,0:0:0:0:
48,36,44536,1,0,0:0:0:0:
64,152,44678,1,0,0:0:0:0:
204,168,44891,2,0,L|64:152,1,141
276,128,45388,1,0,0:0:0:0:
348,160,45529,1,0,0:0:0:0:
404,104,45671,1,0,0:0:0:0:
380,32,45813,1,0,0:0:0:0:
348,160,45955,5,0,0:0:0:0:
360,196,46097,1,0,0:0:0:0:
344,272,46239,1,0,0:0:0:0:
356,308,46380,1,0,0:0:0:0:
368,344,46522,1,0,0:0:0:0:
420,252,46664,1,0,0:0:0:0:
264,284,46806,1,0,0:0:0:0:
116,224,46948,2,0,L|108:172,1,47
264,284,47232,6,0,L|256:348,1,47
204,228,47515,1,0,0:0:0:0:
116,224,47657,5,0,0:0:0:0:
48,168,47799,1,0,0:0:0:0:
36,88,47941,1,0,0:0:0:0:
76,16,48083,1,0,0:0:0:0:
188,112,48224,1,0,0:0:0:0:
48,168,48366,1,0,0:0:0:0:
160,28,48508,2,0,L|272:36,1,94
332,44,48934,1,0,0:0:0:0:
408,52,49076,1,0,0:0:0:0:
484,60,49217,1,0,0:0:0:0:
332,44,49359,5,0,0:0:0:0:
300,120,49501,1,0,0:0:0:0:
356,248,49643,1,0,0:0:0:0:
396,172,49785,1,0,0:0:0:0:
256,200,49927,1,0,0:0:0:0:
132,128,50068,1,0,0:0:0:0:
168,52,50210,1,0,0:0:0:0:
164,212,50352,1,0,0:0:0:0:
220,280,50494,1,0,0:0:0:0:
216,300,50636,1,0,0:0:0:0:
212,320,50778,1,0,0:0:0:0:
208,340,50919,1,0,0:0:0:0:
164,212,51061,5,0,0:0:0:0:
300,272,51203,1,0,0:0:0:0:
428,208,51345,1,0,0:0:0:0:
376,96,51487,2,0,L|384:160,1,47
428,208,51771,1,0,0:0:0:0:
295,318,51912,2,0,L|300:260,1,47
300,328,52196,1,0,0:0:0:0:
208,288,52338,1,0,0:0:0:0:
120,324,52480,1,0,0:0:0:0:
300,328,52622,1,0,0:0:0:0:
208,180,52763,5,0,0:0:0:0:
120,324,52905,1,0,0:0:0:0:
96,248,53047,1,0,0:0:0:0:
68,172,53189,1,0,0:0:0:0:
140,112,53331,1,0,0:0:0:0:
120,324,53473,1,0,0:0:0:0:
8,112,53615,1,0,0:0:0:0:
16,80,53756,1,0,0:0:0:0:
68,172,53898,1,0,0:0:0:0:
32,256,54040,1,0,0:0:0:0:
120,324,54182,1,0,0:0:0:0:
200,252,54324,1,0,0:0:0:0:
316,308,54466,6,0,L|260:300,1,47
200,252,54749,1,0,0:0:0:0:
362,314,54891,2,0,L|288:303,1,47
200,252,55175,1,0,0:0:0:0:
408,320,55317,2,0,L|334:309,1,47
200,252,55600,1,0,0:0:0:0:
252,164,55742,1,0,0:0:0:0:
224,352,55884,1,0,0:0:0:0:
112,200,56026,1,0,0:0:0:0:
160,40,56168,5,0,0:0:0:0:
128,284,56310,1,0,0:0:0:0:
128,284,56451,1,0,0:0:0:0:
156,28,56593,1,0,0:0:0:0:
252,164,56735,1,0,0:0:0:0:
252,164,56877,1,0,0:0:0:0:
16,232,57019,2,0,L|84:228,1,47
400,220,57302,1,0,0:0:0:0:
312,232,57444,2,0,L|308:256,2,23.5
372,304,57728,1,0,0:0:0:0:
336,60,57870,6,0,L|344:144,1,70.5
220,236,58083,2,0,L|212:148,1,70.5
372,304,58295,2,0,B|224:324|224:324|152:296,1,211.5
199,25,58721,2,0,L|224:279,1,211.5
22,236,59146,2,0,B|120:197|120:197|236:241,1,211.5
30,304,59572,6,0,B|22:272|22:272|26:260|26:260|18:212,1,70.5
199,25,59785,2,0,B|207:57|207:57|203:69|203:69|211:117,1,70.5
20,156,59997,2,0,L|240:176,1,211.5
392,168,60423,2,0,P|368:232|400:184,1,211.5
230,175,60849,2,0,P|238:251|362:327,1,211.5
280,108,61274,5,0,0:0:0:0:
156,140,61416,1,0,0:0:0:0:
40,84,61558,1,0,0:0:0:0:
128,56,61700,1,0,0:0:0:0:
108,216,61912,1,0,0:0:0:0:
232,276,62125,5,0,0:0:0:0:
356,244,62267,1,0,0:0:0:0:
472,300,62409,1,0,0:0:0:0:
384,328,62551,1,0,0:0:0:0:
408,164,62763,1,0,0:0:0:0:
344,48,62976,5,0,0:0:0:0:
384,328,63118,1,0,0:0:0:0:
424,80,63260,1,0,0:0:0:0:
168,336,63402,1,0,0:0:0:0:
128,56,63544,1,0,0:0:0:0:
88,304,63686,1,0,0:0:0:0:
288,216,63827,1,0,0:0:0:0:
8,168,63969,1,0,0:0:0:0:
296,224,64111,2,0,L|516:204,1,211.500008068085
152,152,64678,6,0,L|172:324,2,158.625006051064
204,92,65529,1,0,0:0:0:0:
8,168,65671,1,0,0:0:0:0:
8,168,65813,1,0,0:0:0:0:
308,292,65955,1,0,0:0:0:0:
504,216,66097,1,0,0:0:0:0:
504,216,66239,1,0,0:0:0:0:
440,80,66380,5,0,0:0:0:0:
364,356,66522,1,0,0:0:0:0:
256,192,66664,1,0,0:0:0:0:
476,328,66806,1,0,0:0:0:0:
160,248,66948,1,0,0:0:0:0:
376,24,67090,1,0,0:0:0:0:
271,349,67232,2,0,L|255:181,1,158.625006051064
440,80,67657,2,0,L|424:240,1,158.625006051064
120,116,68083,6,0,P|212:76|320:92,1,211.5
392,268,68508,2,0,P|300:308|192:292,1,211.5
388,160,68934,2,0,B|444:144|476:104|476:104|452:156|384:172,1,211.5
124,224,69359,2,0,B|68:240|36:280|36:280|60:228|128:212,1,211.5
334,242,69785,6,0,L|106:222,1,211.5
178,142,70210,2,0,L|406:162,1,211.5
68,40,70636,2,0,L|100:292,1,211.5
104,332,71061,2,0,L|72:80,1,211.5
156,224,71487,6,0,B|128:228|128:228|64:204,1,70.5
256,96,71700,2,0,B|284:92|284:92|348:116,1,70.5
258,298,71912,2,0,B|226:190|226:190|258:86,1,211.5
432,328,72338,2,0,B|384:352|384:352|332:344|332:344|380:316|380:316|436:328,1,211.5
255,95,72763,2,0,B|351:75|351:75|244:136,1,211.5
185,86,73189,6,0,L|285:98,1,70.5
152,272,73402,2,0,L|80:264,1,70.5
352,76,73615,2,0,L|388:284,1,211.5
276,99,74040,2,0,B|364:107|412:59|412:59|364:51|340:91,1,211.5
152,272,74466,2,0,P|120:340|160:276,1,211.5
84,204,74891,5,0,0:0:0:0:
60,300,75033,1,0,0:0:0:0:
152,272,75175,1,0,0:0:0:0:
60,128,75317,1,0,0:0:0:0:
128,360,75529,1,0,0:0:0:0:
428,180,75742,5,0,0:0:0:0:
452,84,75884,1,0,0:0:0:0:
360,112,76026,1,0,0:0:0:0:
452,256,76168,1,0,0:0:0:0:
384,24,76380,1,0,0:0:0:0:
256,344,76593,5,0,0:0:0:0:
392,36,76735,1,0,0:0:0:0:
248,356,76877,1,0,0:0:0:0:
112,96,77019,1,0,0:0:0:0:
240,368,77161,1,0,0:0:0:0:
376,12,77302,1,0,0:0:0:0:
96,104,77444,1,0,0:0:0:0:
404,192,77586,1,0,0:0:0:0:
108,368,77728,2,0,L|128:80,1,282
32,228,78295,6,0,B|316:144|196:304|512:184,1,470
328,128,79146,1,0,0:0:0:0:
360,336,79288,1,0,0:0:0:0:
392,40,79430,1,0,0:0:0:0:
164,152,79572,1,0,0:0:0:0:
356,352,79714,1,0,0:0:0:0:
396,24,79856,1,0,0:0:0:0:
152,164,79997,1,0,0:0:0:0:
72,144,80139,1,0,0:0:0:0:
40,68,80281,1,0,0:0:0:0:
192,232,80423,1,0,0:0:0:0:
72,356,80565,1,0,0:0:0:0:
184,92,80707,1,0,0:0:0:0:
408,156,80849,6,0,L|432:372,1,211.5
308,296,81274,2,0,L|332:68,1,211.5
140,220,81700,6,0,P|252:228|332:140,1,211.5
104,13,82125,2,0,B|120:85|120:85|116:133|116:133|144:237,1,211.5
124,348,82551,2,0,B|144:236|144:236|112:124,1,211.5
12,368,82976,2,0,L|228:332,1,211.5
496,332,83402,6,0,L|276:292,1,211.5
79,256,83827,2,0,L|299:296,1,211.5
79,81,84253,2,0,B|35:117|23:173|23:173|39:229|91:265,1,211.5
288,196,84678,2,0,B|327:169|343:113|343:113|331:57|287:21,1,211.5
324,264,85104,5,0,0:0:0:0:
128,88,100423,6,0,L|144:204,1,112.8
96,256,101061,1,0,0:0:0:0:
8,176,101274,2,0,L|64:184,1,56.4
151,263,101700,2,0,L|95:255,1,56.4
316,144,104466,1,0,0:0:0:0:
372,196,104678,2,0,P|432:192|472:148,1,112.8
316,144,105317,1,0,0:0:0:0:
280,216,105529,6,0,L|288:280,1,56.4
293,327,105955,2,0,L|285:259,1,56.4
340,80,107232,6,0,B|296:64|296:64|264:68|264:68|224:56,1,112.8
160,36,107870,1,0,0:0:0:0:
92,72,108083,2,0,L|88:136,1,56.4
160,172,108508,2,0,L|164:108,1,56.4
64,292,111061,5,0,0:0:0:0:
140,264,111274,1,0,0:0:0:0:
216,236,111487,2,0,L|292:244,1,56.4
348,248,111912,2,0,L|424:256,1,56.4
272,159,112338,2,0,P|264:207|280:259,1,84.6
384,136,112763,2,0,P|388:108|384:80,1,56.4
188,40,114040,6,0,B|200:84|200:84|188:140,1,84.6
124,156,114466,1,0,0:0:0:0:
64,112,114678,1,0,0:0:0:0:
276,128,114891,2,0,L|176:120,1,84.6
240,200,115317,2,0,L|344:208,1,84.6
472,240,115742,6,0,B|480:208|480:208|472:140,1,84.6
388,264,116168,1,0,0:0:0:0:
452,324,116380,1,0,0:0:0:0:
466,72,116593,2,0,L|474:168,1,84.6
392,108,117019,2,0,L|384:12,1,84.6
308,216,117444,5,0,0:0:0:0:
224,200,117657,1,0,0:0:0:0:
140,180,117870,1,0,0:0:0:0:
56,164,118083,1,0,0:0:0:0:
301,131,118295,2,0,L|309:236,1,84.6
380,256,118721,1,0,0:0:0:0:
448,156,118934,1,0,0:0:0:0:
352,64,119146,6,0,P|296:52|236:80,1,105.75
123,203,119572,2,0,P|179:215|239:187,1,105.75
64,136,119997,1,0,0:0:0:0:
96,280,120210,1,0,0:0:0:0:
204,124,120423,1,0,0:0:0:0:
168,328,120636,1,0,0:0:0:0:
190,19,120849,6,0,L|206:139,1,105.75
288,156,121274,1,0,0:0:0:0:
356,104,121487,1,0,0:0:0:0:
100,128,121700,2,0,B|140:116|140:116|212:124,1,105.75
408,300,122125,2,0,B|368:312|368:312|296:304,1,105.75
444,52,122551,6,0,L|436:184,1,105.75
464,236,122976,1,0,0:0:0:0:
436,40,123189,1,0,0:0:0:0:
376,352,123402,1,0,0:0:0:0:
428,28,123615,1,0,0:0:0:0:
304,156,123827,1,0,0:0:0:0:
256,148,123934,1,0,0:0:0:0:
208,140,124040,1,0,0:0:0:0:
160,132,124146,1,0,0:0:0:0:
352,164,124253,5,0,0:0:0:0:
248,64,125529,6,0,L|268:244,1,158.625006051064
136,312,125955,6,0,L|41:295,1,70.5
400,120,126168,2,0,L|496:136,1,70.5
112,228,126380,2,0,B|76:148|104:64|104:64|120:84|112:112,1,211.5
275,334,126806,2,0,L|31:294,1,211.5
260,60,127232,2,0,L|496:16,1,211.5
208,144,127657,6,0,B|176:76|176:76|192:-20,1,141
168,208,127976,1,0,0:0:0:0:
176,76,128083,2,0,L|92:92,1,70.5
220,264,128295,2,0,L|300:248,1,70.5
40,20,128508,2,0,B|28:100|28:100|48:144|48:144|32:244,1,211.5
356,316,128934,2,0,B|368:236|368:236|348:192|348:192|364:92,1,211.5
220,264,129359,6,0,L|228:348,1,70.5
360,110,129572,2,0,L|352:34,1,70.5
226,334,129785,2,0,B|338:350|338:350|434:294,1,211.5
212,192,130210,2,0,B|100:176|100:176|4:232,1,211.5
344,244,130636,2,0,L|364:20,1,211.5
100,180,131061,6,0,L|120:340,1,141
156,128,131380,1,0,0:0:0:0:
30,171,131487,2,0,L|126:183,1,70.5
432,40,131700,2,0,L|352:32,1,70.5
428,328,131912,2,0,B|456:228|456:228|456:208|456:208|428:92,1,211.5
152,236,132338,2,0,L|256:228,1,70.5
116,64,132551,2,0,L|40:72,1,70.5
222,230,132763,6,0,P|230:186|218:138,1,70.5
45,71,132976,2,0,P|37:115|49:163,1,70.5
435,167,133189,2,0,B|299:135|363:187|219:159,1,211.5
435,167,133615,2,0,P|479:115|439:175,1,211.5
212,24,134040,2,0,L|236:272,1,211.5
204,344,134466,6,0,P|128:356|68:292,1,141
104,248,134785,1,0,0:0:0:0:
105,178,134891,2,0,P|109:218|97:262,1,70.5
364,140,135104,2,0,P|360:100|372:56,1,70.5
472,328,135317,2,0,L|248:296,1,211.5
154,110,135742,2,0,L|378:142,1,211.5
143,40,136168,6,0,L|155:120,1,70.5
104,336,136380,2,0,L|92:244,1,70.5
256,152,136593,2,0,B|164:200|164:200|60:168,1,211.5
324,68,137019,2,0,B|336:152|336:152|328:200|328:200|344:288,1,211.5
492,61,137444,2,0,P|408:10|320:77,1,211.5
464,200,137870,6,0,P|456:160|464:128,1,70.5
424,272,138083,2,0,P|432:312|424:344,1,70.5
213,250,138295,2,0,L|457:275,1,211.5
116,288,138721,2,0,B|136:244|136:244|116:60,1,211.5
200,356,139146,1,0,0:0:0:0:
200,356,139359,1,0,0:0:0:0:
276,160,139572,6,0,L|192:172,1,70.5
436,296,139785,2,0,L|524:284,1,70.5
364,120,139997,2,0,L|344:368,1,211.5
472,76,140423,2,0,B|372:36|372:36|252:68,1,211.5
146,317,140849,2,0,B|246:357|246:357|366:325,1,211.5
60,156,141274,6,0,L|72:308,1,141
84,84,141593,1,0,0:0:0:0:
208,128,141700,2,0,P|176:140|132:132,1,70.5
404,83,141912,2,0,P|436:71|480:79,1,70.5
320,340,142125,2,0,B|264:212|360:252|312:108,1,211.5
228,316,142551,2,0,P|132:352|56:276,1,211.5
47,145,142976,6,0,L|59:297,1,141
0,84,143295,1,0,0:0:0:0:
128,232,143402,2,0,L|220:244,1,70.5
120,32,143615,2,0,L|28:20,1,70.5
312,256,143827,2,0,B|356:160|356:160|332:28,1,211.5
101,277,144253,2,0,L|337:253,1,211.5
176,132,144678,6,0,L|-24:152,1,141
244,176,144997,1,0,0:0:0:0:
304,128,145104,2,0,P|312:84|296:40,1,70.5
28,252,145317,2,0,P|24:292|40:332,1,70.5
220,56,145529,2,0,B|80:20|152:132|-4:88,1,211.5
236,48,145955,2,0,B|228:108|228:108|236:136|236:136|228:200,1,141
336,352,146274,1,0,0:0:0:0:
480,224,146380,6,0,L|488:136,1,70.5
136,232,146593,2,0,L|124:320,1,70.5
304,228,146806,2,0,L|328:8,1,211.5
204,304,147232,2,0,P|292:364|396:300,1,211.5
232,148,147657,2,0,P|144:88|40:152,1,211.5
73,336,148083,6,0,L|53:96,1,211.5
148,300,148508,2,0,L|156:376,1,70.5
55,125,148721,2,0,L|48:28,1,70.5
356,208,148934,2,0,P|252:236|156:172,1,211.5
288,40,149359,2,0,P|392:12|488:76,1,211.5
362,278,149785,6,0,L|354:190,1,70.5
477,60,149997,2,0,L|485:144,1,70.5
280,364,150210,2,0,L|256:140,1,211.5
477,60,150636,2,0,L|501:284,1,211.5
200,88,151061,1,0,0:0:0:0:
248,68,151168,1,0,0:0:0:0:
320,108,151274,1,0,0:0:0:0:
400,64,151380,1,0,0:0:0:0:
468,160,151487,1,0,0:0:0:0:
148,220,152551,6,0,L|144:164,1,35.25
248,316,152976,2,0,L|252:368,1,35.25
145,184,153189,6,0,L|142:131,1,52.8750020170213
104,284,153402,2,0,P|72:296|36:288,1,52.8750020170213
260,192,153615,2,0,P|344:196|412:252,1,158.625006051064
145,184,154040,2,0,L|133:16,1,158.625006051064
260,192,154466,2,0,L|272:360,1,158.625006051064
212,116,154891,6,0,L|284:108,1,52.8750020170213
384,152,155104,2,0,L|316:160,1,52.8750020170213
448,72,155317,2,0,B|472:148|472:148|448:240,1,158.625006051064
388,304,155742,2,0,B|364:228|364:228|388:136,1,158.625006051064
328,352,156168,2,0,P|252:368|180:312,1,158.625006051064
220,256,156593,5,0,0:0:0:0:
224,216,156735,1,0,0:0:0:0:
228,176,156877,1,0,0:0:0:0:
152,116,157019,1,0,0:0:0:0:
64,148,157232,1,0,0:0:0:0:
292,128,157444,5,0,0:0:0:0:
288,168,157586,1,0,0:0:0:0:
284,208,157728,1,0,0:0:0:0:
360,268,157870,1,0,0:0:0:0:
448,236,158083,1,0,0:0:0:0:
304,48,158295,5,0,0:0:0:0:
172,156,158437,1,0,0:0:0:0:
16,80,158579,1,0,0:0:0:0:
212,76,158721,1,0,0:0:0:0:
228,228,158863,1,0,0:0:0:0:
244,368,159005,1,0,0:0:0:0:
172,156,159146,1,0,0:0:0:0:
304,48,159288,1,0,0:0:0:0:
460,124,159430,2,0,L|484:344,1,211.500008068085
448,18,159997,6,0,L|486:361,1,317.250012102128
400,312,160849,1,0,0:0:0:0:
296,356,160990,1,0,0:0:0:0:
204,300,161132,1,0,0:0:0:0:
320,152,161274,1,0,0:0:0:0:
292,368,161416,1,0,0:0:0:0:
324,140,161558,1,0,0:0:0:0:
204,300,161700,5,0,0:0:0:0:
412,220,161841,1,0,0:0:0:0:
252,80,161983,1,0,0:0:0:0:
292,368,162125,1,0,0:0:0:0:
400,48,162267,1,0,0:0:0:0:
100,144,162409,1,0,0:0:0:0:
292,368,162551,2,0,L|312:188,1,158.625006051064
100,144,162976,2,0,L|124:320,1,158.625006051064
148,60,163402,6,0,P|68:56|8:108,1,158.625006051064
196,144,163827,2,0,P|276:148|336:96,1,158.625006051064
324,24,164253,2,0,L|348:220,1,158.625006051064
362,338,164678,2,0,L|338:146,1,158.625006051064
488,300,165104,6,0,P|404:300|344:224,1,158.625006051064
460,76,165529,2,0,P|476:156|436:228,1,158.625006051064
188,104,165955,2,0,L|272:116,1,52.8750020170213
384,136,166168,1,0,0:0:0:0:
60,88,166380,2,0,L|124:96,1,52.8750020170213
384,136,166593,1,0,0:0:0:0:
280,48,166806,6,0,L|292:180,1,105.75
244,216,167232,1,0,0:0:0:0:
284,284,167657,1,0,0:0:0:0:
252,352,168083,1,0,0:0:0:0:
324,216,168508,5,0,0:0:0:0:
160,248,168721,1,0,0:0:0:0:
324,216,168934,1,0,0:0:0:0:
392,256,169359,1,0,0:0:0:0:
456,216,169785,1,0,0:0:0:0:
436,96,170210,6,0,L|444:168,2,47
425,2,170636,2,0,L|439:132,1,94
313,122,171061,2,0,L|305:50,2,47
324,216,171487,2,0,L|310:86,1,94
280,280,171912,6,0,L|288:344,2,47
216,228,172338,2,0,L|192:296,2,47
184,156,172763,2,0,L|120:188,1,47
44,135,173047,2,0,L|185:156,1,141
248,116,173615,6,0,L|312:104,1,52.875
172,260,174040,2,0,L|-4:232,1,158.625006051064
172,44,174466,5,0,0:0:0:0:
208,336,174607,1,0,0:0:0:0:
164,32,174749,1,0,0:0:0:0:
212,348,174891,1,0,0:0:0:0:
72,120,175033,1,0,0:0:0:0:
304,244,175175,1,0,0:0:0:0:
92,368,175317,1,0,0:0:0:0:
272,32,175458,1,0,0:0:0:0:
492,292,175600,1,0,0:0:0:0:
200,196,175742,1,0,0:0:0:0:
376,172,175884,1,0,0:0:0:0:
308,340,176026,1,0,0:0:0:0:
88,100,176168,6,0,L|312:120,1,211.5
410,216,176593,2,0,L|166:192,1,211.5
423,21,177019,2,0,P|451:121|391:233,1,211.5
285,313,177444,2,0,P|257:213|317:101,1,211.5
285,313,177870,2,0,B|153:293|217:365|81:345,1,211.5
298,118,178295,2,0,B|430:138|366:66|502:86,1,211.5
224,188,178721,6,0,P|184:100|264:20,1,211.5
72,112,179146,2,0,P|112:200|32:280,1,211.5
252,22,179572,2,0,L|244:118,1,70.5
212,360,179785,1,0,0:0:0:0:
328,44,179997,5,0,0:0:0:0:
384,32,180104,1,0,0:0:0:0:
436,52,180210,1,0,0:0:0:0:
464,100,180317,1,0,0:0:0:0:
384,108,180423,1,0,0:0:0:0:
