osu file format v14

[General]
AudioFilename: audio.mp3
AudioLeadIn: 0
PreviewTime: -1
Countdown: 1
SampleSet: None
StackLeniency: 0.7
Mode: 0
LetterboxInBreaks: 0
WidescreenStoryboard: 0

[Editor]
DistanceSpacing: 1.2
BeatDivisor: 4
GridSize: 4
TimelineZoom: 1.5

[Metadata]
Title:BUDU TVOIM PESIKOM
TitleUnicode:БУДУ ТВОИМ ПЕСИКОМ
Artist:POSHLAYA MOLLI
ArtistUnicode:ПОШЛАЯ МОЛЛИ
Creator:Ayya Novak
Version:DOGGY
Source:
Tags:
BeatmapID:1674262
BeatmapSetID:797209

[Difficulty]
HPDrainRate:4
CircleSize:3.5
OverallDifficulty:9
ApproachRate:9.3
SliderMultiplier:1.7
SliderTickRate:2

[Events]
//Background and Video events
0,0,"bg.png",0,0
//Break Periods
2,22689,27325
2,56660,66854
2,79248,83795
2,124425,132141
//Storyboard Layer 0 (Background)
//Storyboard Layer 1 (Fail)
//Storyboard Layer 2 (Pass)
//Storyboard Layer 3 (Foreground)
//Storyboard Sound Samples

[TimingPoints]
-9.96443394695983,352.941176470588,4,1,0,45,1,0
11284,-100,4,1,0,45,0,0
22578,-200,4,1,0,45,0,0
33166,-76.9230769230769,4,1,0,45,0,0
33519,-125,4,1,0,45,0,0
33872,-58.8235294117647,4,1,0,45,0,1
47284,-76.9230769230769,4,1,0,45,0,1
47637,-50,4,1,0,45,0,1
47990,-58.8235294117647,4,1,0,45,0,1
55754,-83.3333333333333,4,1,0,45,0,1
56460,-100,4,1,0,45,0,0
67754,-83.3333333333333,4,1,0,45,0,0
84695,-200,4,1,0,45,0,0
89637,-50,4,1,0,45,0,0
89990,-125,4,1,0,45,0,0
90342,-55.5555555555556,4,1,0,45,0,1
100931,-100,4,1,0,45,0,0
101284,-50,4,1,0,45,0,0
101637,-66.6666666666667,4,1,0,45,0,1
122813,-100,4,1,0,45,0,0
124225,-200,4,1,0,45,0,0
135519,-50,4,1,0,45,0,0
143637,-100,4,1,0,45,0,0
143990,-66.6666666666667,4,1,0,45,0,0
144695,-90.9090909090909,4,1,0,45,0,0
145401,-55.5555555555556,4,1,0,45,0,0
146107,-50,4,1,0,45,0,0
146813,-100,4,1,0,45,0,0
149637,-100,4,1,0,45,0,0

[HitObjects]
112,144,11284,6,0,L|124:248,1,85,2|0,0:0|0:0,0:0:0:0:
56,344,11637,2,0,L|44:240,1,85,8|0,0:0|0:0,0:0:0:0:
200,246,11990,2,0,P|152:246|116:222,1,85,2|0,0:0|0:0,0:0:0:0:
268,200,12342,2,0,P|316:200|352:224,1,85,8|4,0:0|0:0,0:0:0:0:
404,352,12695,6,0,L|412:252,1,85,2|0,0:0|0:0,0:0:0:0:
352,133,13048,2,0,L|344:249,1,85,8|0,0:0|0:0,0:0:0:0:
424,96,13401,2,0,L|432:4,1,85,2|0,0:0|0:0,0:0:0:0:
352,133,13754,2,0,L|344:232,1,85,8|0,0:0|0:0,0:0:0:0:
264,76,14107,5,0,0:0:0:0:
264,76,14195,1,0,0:0:0:0:
264,76,14284,1,0,0:0:0:0:
124,140,14460,2,0,P|180:148|228:120,1,85,8|0,0:0|0:0,0:0:0:0:
164,48,14813,2,0,P|108:40|60:68,1,85
200,221,15166,6,0,B|212:177|212:177|204:133,1,85,8|0,0:0|0:0,0:0:0:0:
92,240,15519,2,0,B|80:284|80:284|88:328,1,85
284,231,15872,2,0,L|175:218,1,85,8|0,0:0|0:0,0:0:0:0:
268,316,16225,1,0,0:0:0:0:
268,316,16313,1,0,0:0:0:0:
268,316,16401,1,0,0:0:0:0:
274,147,16578,2,0,B|282:187|282:187|278:207|278:207|290:255,1,85,8|0,0:0|0:0,0:0:0:0:
268,316,16931,5,0,0:0:0:0:
268,316,17019,1,0,0:0:0:0:
268,316,17107,1,0,0:0:0:0:
364,204,17284,2,0,L|464:216,1,85,8|0,0:0|0:0,0:0:0:0:
352,328,17637,2,0,L|248:312,1,85
355,121,17990,2,0,P|367:165|359:217,1,85,8|0,0:0|0:0,0:0:0:0:
267,315,18342,6,0,P|255:271|263:219,1,85
447,213,18695,2,0,L|343:201,1,85,8|0,0:0|0:0,0:0:0:0:
188,184,19048,1,0,0:0:0:0:
188,184,19137,1,0,0:0:0:0:
188,184,19225,1,0,0:0:0:0:
280,64,19401,2,0,B|292:100|292:100|280:152,1,85,8|0,0:0|0:0,0:0:0:0:
104,76,19754,6,0,L|228:88,1,85
120,236,20107,2,0,L|-4:224,1,85,8|0,0:0|0:0,0:0:0:0:
164,308,20460,1,0,0:0:0:0:
164,308,20548,1,0,0:0:0:0:
164,308,20637,1,0,0:0:0:0:
236,260,20813,2,0,P|224:216|236:172,1,85,8|0,0:0|0:0,0:0:0:0:
408,236,21166,6,0,P|416:284|404:332,1,85
324,192,21519,2,0,P|372:144|460:152,1,127.5,8|0,0:0|0:0,0:0:0:0:
440,152,21872,1,0,0:0:0:0:
340,72,22048,2,0,L|332:12,1,42.5
440,152,22225,2,0,L|456:312,1,127.5,8|0,0:0|0:0,0:0:0:0:
136,200,28225,6,0,L|144:256,2,42.5
160,124,28931,1,0,0:0:0:0:
223,131,29637,2,0,L|151:123,1,63.75
240,212,29990,2,0,L|312:220,1,63.75
224,132,30342,1,0,0:0:0:0:
224,132,30519,1,0,0:0:0:0:
240,212,30695,2,0,L|300:220,1,42.5
376,188,31048,6,0,L|368:132,2,42.5
352,264,31754,1,0,0:0:0:0:
433,155,32460,2,0,L|353:143,1,63.75
206,119,32813,2,0,L|278:131,1,63.75
433,155,33166,2,0,L|249:127,1,165.749992412568
24,88,33519,2,0,L|132:104,1,102
105,303,33872,6,0,P|81:199|145:83,1,216.750004134178
252,276,34225,2,0,L|160:264,1,72.2500013780594
376,184,34401,2,0,L|460:196,1,72.2500013780594
271,75,34578,2,0,P|295:179|231:295,1,216.750004134178
372,96,34931,6,0,B|380:56|380:56|372:12,1,72.2500013780594
251,275,35107,2,0,B|243:315|243:315|251:359,1,72.2500013780594
168,96,35284,2,0,L|84:104,1,72.2500013780594
336,312,35460,2,0,L|424:308,1,72.2500013780594
156,256,35637,1,0,0:0:0:0:
152,276,35725,1,0,0:0:0:0:
148,296,35813,2,0,L|160:376,1,72.2500013780594
324,224,35990,2,0,L|294:5,1,216.750004134178
156,256,36342,2,0,P|248:296|324:224,1,216.750004134178
92,156,36695,6,0,L|76:236,1,72.2500013780594
304,84,36872,2,0,L|292:4,1,72.2500013780594
272,300,37048,1,0,0:0:0:0:
272,300,37137,1,0,0:0:0:0:
272,300,37225,2,0,L|356:320,1,72.2500013780594
192,32,37401,2,0,B|204:120|204:120|192:156|192:156|208:256,1,216.750004134178
140,348,37754,2,0,P|96:344|60:312,1,72.2500013780594
224,156,37931,2,0,P|268:160|304:192,1,72.2500013780594
24,184,38107,6,0,L|12:92,1,72.2500013780594
354,245,38284,2,0,L|337:344,1,72.2500013780594
192,32,38460,1,0,0:0:0:0:
216,24,38548,1,0,0:0:0:0:
236,16,38637,2,0,L|320:32,1,72.2500013780594
512,180,38813,2,0,P|404:180|344:64,1,216.750004134178
269,219,39166,2,0,P|222:110|248:-10,1,216.750004134178
416,280,39519,6,0,L|408:360,1,72.2500013780594
344,98,39695,2,0,L|352:18,1,72.2500013780594
252,340,39872,2,0,B|132:304|164:376|28:336,1,216.750004134178
104,68,40225,2,0,P|140:164|92:272,1,216.750004134178
292,16,40578,1,0,0:0:0:0:
252,340,40754,1,0,0:0:0:0:
72,84,40931,5,0,0:0:0:0:
120,368,41107,1,0,0:0:0:0:
340,200,41284,1,0,0:0:0:0:
340,200,41372,1,0,0:0:0:0:
340,200,41460,1,0,0:0:0:0:
40,252,41637,1,0,0:0:0:0:
428,180,41813,1,0,0:0:0:0:
40,252,41990,2,0,B|128:232|128:232|172:240|172:240|268:216,1,216.750004134178
156,80,42342,6,0,L|172:180,1,72.2500013780594
51,323,42519,2,0,L|39:247,1,72.2500013780594
328,276,42695,2,0,B|220:304|220:304|120:216,1,216.750004134178
432,140,43048,2,0,L|396:384,1,216.750004134178
384,68,43401,1,0,0:0:0:0:
436,336,43578,1,0,0:0:0:0:
192,140,43754,5,0,0:0:0:0:
176,304,43931,1,0,0:0:0:0:
376,44,44107,1,0,0:0:0:0:
376,44,44195,1,0,0:0:0:0:
376,44,44284,1,0,0:0:0:0:
480,260,44460,5,0,0:0:0:0:
476,280,44548,1,0,0:0:0:0:
472,300,44637,1,0,0:0:0:0:
468,320,44725,1,0,0:0:0:0:
388,300,44813,5,0,0:0:0:0:
396,268,44901,1,0,0:0:0:0:
404,232,44990,1,0,0:0:0:0:
412,196,45078,1,0,0:0:0:0:
356,132,45166,1,0,0:0:0:0:
124,292,47284,6,0,L|92:100,1,165.749992412568
284,320,47637,2,0,B|184:304|184:304|128:328|128:328|12:308,1,255
340,264,47990,6,0,P|444:264|484:156,1,216.750004134178
196,148,48342,2,0,P|192:192|212:240,1,72.2500013780594
448,100,48519,2,0,P|452:56|432:8,1,72.2500013780594
76,192,48695,2,0,P|116:300|216:344,1,216.750004134178
112,96,49048,2,0,B|72:88|72:88|28:96,1,72.2500013780594
340,264,49225,2,0,B|380:272|380:272|424:264,1,72.2500013780594
264,16,49401,6,0,L|256:116,1,72.2500013780594
202,342,49578,2,0,L|210:262,1,72.2500013780594
20,120,49754,1,0,0:0:0:0:
28,152,49842,1,0,0:0:0:0:
36,184,49931,2,0,L|28:284,1,72.2500013780594
258,88,50107,2,0,P|370:72|474:140,1,216.750004134178
340,264,50460,2,0,P|228:280|124:212,1,216.750004134178
424,296,50813,6,0,L|436:376,1,72.2500013780594
156,128,50990,2,0,L|140:28,1,72.2500013780594
329,192,51166,1,0,0:0:0:0:
329,192,51254,1,0,0:0:0:0:
329,192,51342,2,0,L|340:265,1,72.2500013780594
268,92,51519,2,0,B|340:64|340:64|472:128,1,216.750004134178
232,284,51872,2,0,L|220:184,1,72.2500013780594
456,53,52048,2,0,L|468:153,1,72.2500013780594
116,144,52225,6,0,P|156:128|208:140,1,72.2500013780594
360,332,52401,2,0,P|320:348|268:336,1,72.2500013780594
364,24,52578,1,0,0:0:0:0:
364,24,52666,1,0,0:0:0:0:
364,24,52754,2,0,L|356:124,1,72.2500013780594
144,336,52931,2,0,B|154:244|154:244|178:216|178:216|186:104,1,216.750004134178
28,172,53284,2,0,L|104:180,1,72.2500013780594
364,24,53460,2,0,L|264:12,1,72.2500013780594
248,288,53637,6,0,P|272:324|268:376,1,72.2500013780594
448,132,53813,2,0,P|448:88|476:48,1,72.2500013780594
212,56,53990,1,0,0:0:0:0:
212,56,54078,1,0,0:0:0:0:
212,56,54166,2,0,P|176:76|120:68,1,72.2500013780594
47,327,54342,2,0,P|141:277|263:295,1,216.750004134178
400,356,54695,2,0,L|392:264,1,72.2500013780594
212,56,54872,2,0,L|220:148,1,72.2500013780594
436,112,55048,6,0,P|400:92|352:92,1,72.2500013780594
181,264,55225,2,0,P|217:284|265:284,1,72.2500013780594
4,112,55401,1,0,0:0:0:0:
4,112,55490,1,0,0:0:0:0:
4,112,55578,2,0,L|16:192,1,72.2500013780594
288,372,55754,5,0,0:0:0:0:
264,327,55842,1,0,0:0:0:0:
227,291,55930,1,0,0:0:0:0:
182,268,56018,1,0,0:0:0:0:
132,260,56106,1,0,0:0:0:0:
82,268,56195,1,0,0:0:0:0:
36,291,56283,1,0,0:0:0:0:
0,327,56371,1,0,0:0:0:0:
12,316,56460,5,0,0:0:0:0:
36,220,67754,6,0,L|172:200,1,101.999996887207
288,296,68107,2,0,L|160:272,1,101.999996887207
352,144,68460,2,0,P|364:196|352:252,1,101.999996887207
192,140,68813,2,0,P|180:88|192:32,1,101.999996887207
104,304,69166,6,0,P|56:272|32:200,1,101.999996887207
236,256,69519,2,0,L|216:380,1,101.999996887207
152,140,69872,1,0,0:0:0:0:
152,140,69960,1,0,0:0:0:0:
152,140,70048,1,0,0:0:0:0:
264,52,70225,2,0,P|320:56|364:88,1,101.999996887207
336,364,70578,5,0,0:0:0:0:
336,364,70666,1,0,0:0:0:0:
336,364,70754,1,0,0:0:0:0:
492,212,70931,2,0,L|364:224,1,101.999996887207
264,52,71284,2,0,L|368:68,1,101.999996887207
180,184,71637,2,0,B|168:132|168:132|184:68,1,101.999996887207
390,221,71990,6,0,B|402:273|402:273|386:337,1,101.999996887207
180,296,72342,2,0,L|300:280,1,101.999996887207
72,252,72695,1,0,0:0:0:0:
72,252,72784,1,0,0:0:0:0:
72,252,72872,1,0,0:0:0:0:
240,140,73048,2,0,L|108:156,1,101.999996887207
300,44,73401,5,0,0:0:0:0:
300,44,73490,1,0,0:0:0:0:
300,44,73578,1,0,0:0:0:0:
244,239,73754,2,0,B|232:203|232:203|240:135,1,101.999996887207
460,232,74107,2,0,L|336:212,1,101.999996887207
300,44,74460,2,0,L|420:60,1,101.999996887207
148,136,74813,6,0,L|32:148,1,101.999996887207
180,328,75166,2,0,L|296:316,1,101.999996887207
116,244,75519,1,0,0:0:0:0:
116,244,75607,1,0,0:0:0:0:
116,244,75695,1,0,0:0:0:0:
252,192,75872,2,0,P|264:140|248:84,1,101.999996887207
24,192,76225,6,0,P|12:244|28:300,1,101.999996887207
128,104,76578,2,0,L|20:84,1,101.999996887207
204,276,76931,2,0,L|312:296,1,101.999996887207
404,92,77284,2,0,P|348:100|300:144,1,101.999996887207
416,340,77637,6,0,L|400:232,1,101.999996887207
297,25,77990,2,0,L|311:125,1,101.999996887207
244,324,78342,1,0,0:0:0:0:
244,324,78431,1,0,0:0:0:0:
244,324,78519,2,0,L|232:260,1,50.9999984436036
28,272,78695,2,0,P|96:320|192:296,1,152.999995330811
72,200,79048,5,0,0:0:0:0:
116,196,84695,6,0,L|108:136,2,42.5
72,264,85401,1,0,0:0:0:0:
104,92,86107,2,0,L|112:160,1,63.75
24,136,86460,2,0,L|16:68,1,63.75
52,220,86813,1,0,0:0:0:0:
52,220,86990,1,0,0:0:0:0:
104,92,87166,2,0,L|160:84,1,42.5
288,160,87519,6,0,L|228:152,2,42.5
352,112,88225,1,0,0:0:0:0:
404,248,88931,2,0,L|396:180,1,63.75
324,232,89284,2,0,L|332:300,1,63.75
244,156,89637,6,0,B|180:140|180:140|64:180|64:180|28:236,1,255
192,328,89990,2,0,L|180:212,1,102
170,99,90342,6,0,L|194:355,1,229.499992996216
331,295,90695,2,0,L|307:39,1,229.499992996216
108,224,91048,2,0,B|148:236|148:236|196:224,1,76.4999976654053
383,70,91225,2,0,B|343:58|343:58|295:70,1,76.4999976654053
432,364,91401,2,0,B|464:308|464:308|444:112,1,229.499992996216
56,312,91754,6,0,B|148:340|148:340|284:292,1,229.499992996216
48,68,92107,2,0,L|56:156,1,76.4999976654053
280,371,92284,2,0,L|272:283,1,76.4999976654053
152,116,92460,2,0,P|232:196|348:156,1,229.499992996216
444,56,92813,2,0,B|432:148|432:148|452:192|452:192|436:312,1,229.499992996216
272,32,93166,6,0,P|304:16|348:16,1,76.4999976654053
204,340,93342,2,0,P|160:328|124:292,1,76.4999976654053
160,52,93519,2,0,P|224:132|192:264,1,229.499992996216
8,172,93872,2,0,B|132:108|112:208|240:136,1,229.499992996216
308,96,94225,2,0,P|348:104|392:136,1,76.4999976654053
456,164,94401,2,0,P|468:208|460:256,1,76.4999976654053
304,268,94578,6,0,L|312:176,1,76.4999976654053
456,0,94754,2,0,L|448:100,1,76.4999976654053
416,336,94931,2,0,B|308:372|308:372|184:332,1,229.499992996216
303,115,95284,2,0,L|311:203,1,76.4999976654053
128,288,95460,2,0,L|120:204,1,76.4999976654053
176,12,95637,2,0,B|184:108|184:108|208:144|208:144|220:272,1,229.499992996216
268,32,95990,6,0,B|308:24|308:24|360:40,1,76.4999976654053
452,324,96166,2,0,B|412:332|412:332|360:316,1,76.4999976654053
400,93,96342,2,0,L|376:333,1,229.499992996216
108,332,96695,2,0,P|200:260|316:292,1,229.499992996216
64,252,97048,2,0,P|52:216|56:164,1,76.4999976654053
164,108,97225,2,0,P|176:144|172:196,1,76.4999976654053
24,80,97401,6,0,L|104:60,1,76.4999976654053
303,281,97578,2,0,L|215:265,1,76.4999976654053
432,72,97754,2,0,P|492:164|452:288,1,229.499992996216
276,88,98107,2,0,P|276:48|292:12,1,76.4999976654053
384,256,98284,2,0,P|384:296|368:332,1,76.4999976654053
108,208,98460,2,0,B|236:144|204:232|348:164,1,229.499992996216
60,124,98813,6,0,P|16:204|108:316,2,229.499992996216
452,256,99519,2,0,P|496:176|404:64,2,229.499992996216
336,24,100225,2,0,L|348:116,1,76.4999976654053
168,336,100401,2,0,L|156:232,1,76.4999976654053
264,152,100578,2,0,P|144:152|64:64,1,229.499992996216
440,104,100931,5,0,0:0:0:0:
428,148,101019,1,0,0:0:0:0:
336,24,101284,2,0,L|364:288,1,255
168,336,101637,6,0,P|212:292|296:284,1,127.500004863739
412,352,101990,1,0,0:0:0:0:
164,220,102166,1,0,0:0:0:0:
164,220,102254,1,0,0:0:0:0:
164,220,102342,1,0,0:0:0:0:
488,304,102519,1,0,0:0:0:0:
257,89,102695,2,0,L|275:289,1,191.250007295609
72,80,103048,6,0,P|124:44|192:44,1,127.500004863739
32,160,103401,1,0,0:0:0:0:
336,60,103578,1,0,0:0:0:0:
336,60,103666,1,0,0:0:0:0:
336,60,103754,1,0,0:0:0:0:
112,8,103931,1,0,0:0:0:0:
274,279,104107,2,0,L|256:79,1,191.250007295609
212,340,104460,5,0,0:0:0:0:
352,228,104637,1,0,0:0:0:0:
136,220,104813,1,0,0:0:0:0:
420,344,104990,1,0,0:0:0:0:
420,344,105078,1,0,0:0:0:0:
420,344,105166,1,0,0:0:0:0:
100,312,105342,1,0,0:0:0:0:
449,165,105519,2,0,P|461:257|408:354,1,191.250007295609
372,116,105872,5,0,0:0:0:0:
484,76,106048,1,0,0:0:0:0:
336,252,106225,1,0,0:0:0:0:
152,160,106401,1,0,0:0:0:0:
272,24,106578,1,0,0:0:0:0:
220,344,106754,1,0,0:0:0:0:
40,88,106931,2,0,L|68:316,1,191.250007295609
360,120,107284,6,0,B|312:136|312:136|216:112,1,127.500004863739
360,32,107637,1,0,0:0:0:0:
300,312,107813,1,0,0:0:0:0:
300,312,107901,1,0,0:0:0:0:
300,312,107990,1,0,0:0:0:0:
92,176,108166,1,0,0:0:0:0:
440,76,108342,2,0,L|428:236,1,127.500004863739
156,132,108695,6,0,L|168:-28,1,127.500004863739
240,208,109048,1,0,0:0:0:0:
48,152,109225,1,0,0:0:0:0:
48,152,109313,1,0,0:0:0:0:
48,152,109401,1,0,0:0:0:0:
320,24,109578,1,0,0:0:0:0:
340,308,109754,2,0,B|268:292|268:292|228:300|228:300|136:280,1,191.250007295609
416,248,110107,6,0,P|432:312|404:384,1,127.500004863739
336,144,110460,1,0,0:0:0:0:
512,324,110637,1,0,0:0:0:0:
512,324,110725,1,0,0:0:0:0:
512,324,110813,1,0,0:0:0:0:
153,283,110990,1,0,0:0:0:0:
414,369,111166,2,0,P|432:280|408:172,1,191.250007295609
72,312,111519,5,0,0:0:0:0:
344,320,111695,1,0,0:0:0:0:
16,244,111872,1,0,0:0:0:0:
348,120,112048,1,0,0:0:0:0:
136,48,112225,1,0,0:0:0:0:
240,364,112401,1,0,0:0:0:0:
440,80,112578,2,0,B|436:160|436:160|416:184|416:184|408:280,1,191.250007295609
192,272,112931,6,0,P|256:260|316:296,1,127.500004863739
232,176,113284,1,0,0:0:0:0:
152,360,113460,1,0,0:0:0:0:
152,360,113548,1,0,0:0:0:0:
152,360,113637,1,0,0:0:0:0:
40,196,113813,1,0,0:0:0:0:
218,49,113990,2,0,L|240:260,1,191.250007295609
104,136,114342,6,0,L|88:-12,1,127.500004863739
40,196,114695,1,0,0:0:0:0:
268,112,114872,1,0,0:0:0:0:
268,112,114960,1,0,0:0:0:0:
268,112,115048,1,0,0:0:0:0:
216,344,115225,1,0,0:0:0:0:
180,60,115401,2,0,L|204:284,1,191.250007295609
268,16,115754,5,0,0:0:0:0:
84,136,115931,1,0,0:0:0:0:
296,232,116107,1,0,0:0:0:0:
460,104,116284,1,0,0:0:0:0:
160,60,116460,1,0,0:0:0:0:
252,316,116637,1,0,0:0:0:0:
472,192,116813,2,0,B|496:104|496:104|468:0,1,191.250007295609
340,120,117166,5,0,0:0:0:0:
408,328,117342,1,0,0:0:0:0:
356,36,117519,1,0,0:0:0:0:
208,272,117695,1,0,0:0:0:0:
268,68,117872,1,0,0:0:0:0:
324,368,118048,1,0,0:0:0:0:
476,196,118225,2,0,L|276:176,1,191.250007295609
16,152,118578,6,0,B|84:164|84:164|156:124,1,127.500004863739
56,28,118931,1,0,0:0:0:0:
136,328,119107,1,0,0:0:0:0:
136,328,119195,1,0,0:0:0:0:
136,328,119284,1,0,0:0:0:0:
285,176,119460,1,0,0:0:0:0:
16,152,119637,2,0,L|36:300,1,127.500004863739
204,140,119990,6,0,L|188:8,1,127.500004863739
120,200,120342,1,0,0:0:0:0:
272,304,120519,1,0,0:0:0:0:
272,304,120607,1,0,0:0:0:0:
272,304,120695,1,0,0:0:0:0:
124,92,120872,1,0,0:0:0:0:
84,328,121048,2,0,B|180:344|180:344|276:304,1,191.250007295609
440,224,121401,6,0,L|424:376,1,127.500004863739
296,148,121754,2,0,L|312:4,1,127.500004863739
266,307,122107,2,0,P|202:319|134:283,1,127.500004863739
48,136,122460,2,0,P|144:144|220:240,1,191.250007295609
48,352,122813,5,0,0:0:0:0:
132,328,123166,1,0,0:0:0:0:
212,304,123519,1,0,0:0:0:0:
292,280,123872,1,0,0:0:0:0:
292,280,124225,5,0,0:0:0:0:
256,192,132695,12,0,135431,0:0:0:0:
96,332,135519,6,0,L|84:224,1,85
64,72,135695,1,0,0:0:0:0:
244,120,135872,2,0,L|236:240,1,85
224,364,136048,1,0,0:0:0:0:
20,184,136225,6,0,P|60:160|116:160,1,85
272,288,136401,1,0,0:0:0:0:
232,20,136578,2,0,P|280:28|324:72,1,85
336,352,136754,1,0,0:0:0:0:
484,88,136931,6,0,L|472:192,1,85
272,288,137107,1,0,0:0:0:0:
85,72,137284,2,0,L|101:184,1,85
368,264,137460,1,0,0:0:0:0:
36,208,137637,6,0,P|12:240|4:292,1,85
300,200,137813,1,0,0:0:0:0:
140,368,137990,2,0,L|124:272,1,85
440,316,138166,1,0,0:0:0:0:
257,308,138342,6,0,L|-27:280,1,255
365,18,138695,2,0,B|401:138|401:138|361:290,1,255
140,368,139048,2,0,B|104:248|104:248|144:96,1,255
500,196,139401,2,0,L|216:172,1,255
16,152,139754,5,0,0:0:0:0:
376,188,139931,1,0,0:0:0:0:
376,188,140019,1,0,0:0:0:0:
376,188,140107,1,0,0:0:0:0:
80,80,140284,1,0,0:0:0:0:
80,80,140372,1,0,0:0:0:0:
80,80,140460,1,0,0:0:0:0:
232,344,140637,1,0,0:0:0:0:
456,152,140813,2,0,L|464:60,1,85
164,216,140990,2,0,L|156:312,1,85
284,72,141166,6,0,P|244:52|180:56,1,85
364,324,141342,1,0,0:0:0:0:
456,152,141519,2,0,L|508:144,6,42.5
384,88,141872,2,0,L|416:48,7,42.5
308,240,142225,2,0,L|280:48,1,170
41,124,142578,5,0,0:0:0:0:
72,132,142666,1,0,0:0:0:0:
104,140,142754,1,0,0:0:0:0:
136,148,142842,1,0,0:0:0:0:
184,216,142931,1,0,0:0:0:0:
216,140,143019,1,0,0:0:0:0:
288,100,143107,1,0,0:0:0:0:
368,104,143195,1,0,0:0:0:0:
440,140,143284,5,0,0:0:0:0:
444,156,143372,1,0,0:0:0:0:
448,176,143460,1,0,0:0:0:0:
452,192,143548,1,0,0:0:0:0:
484,268,143637,5,0,0:0:0:0:
480,284,143725,1,0,0:0:0:0:
476,304,143813,1,0,0:0:0:0:
472,320,143901,1,0,0:0:0:0:
400,364,143990,5,0,0:0:0:0:
345,332,144078,1,0,0:0:0:0:
304,283,144166,1,0,0:0:0:0:
284,223,144254,1,0,0:0:0:0:
286,159,144342,1,0,0:0:0:0:
310,101,144431,1,0,0:0:0:0:
353,54,144519,1,0,0:0:0:0:
409,25,144607,1,0,0:0:0:0:
472,18,144695,5,0,0:0:0:0:
441,53,144783,1,0,0:0:0:0:
404,81,144871,1,0,0:0:0:0:
361,99,144959,1,0,0:0:0:0:
315,108,145047,1,0,0:0:0:0:
268,107,145136,1,0,0:0:0:0:
223,95,145224,1,0,0:0:0:0:
182,74,145312,1,0,0:0:0:0:
146,44,145401,5,0,0:0:0:0:
214,12,145489,1,0,0:0:0:0:
287,28,145577,1,0,0:0:0:0:
335,85,145665,1,0,0:0:0:0:
338,160,145753,1,0,0:0:0:0:
295,221,145842,1,0,0:0:0:0:
223,243,145930,1,0,0:0:0:0:
153,216,146018,1,0,0:0:0:0:
160,204,146107,5,0,0:0:0:0:
121,247,146195,1,0,0:0:0:0:
109,307,146284,1,0,0:0:0:0:
133,355,146372,1,0,0:0:0:0:
188,292,146460,2,0,B|120:272|120:272|80:288|80:288|-16:260|-16:260|28:240,1,255
40,168,146813,1,0,0:0:0:0:
