osu file format v14

[General]
AudioFilename: audio.mp3
AudioLeadIn: 0
PreviewTime: 75428
Countdown: 1
SampleSet: Normal
StackLeniency: 0.7
Mode: 0
LetterboxInBreaks: 0
WidescreenStoryboard: 1

[Editor]
DistanceSpacing: 1.5
BeatDivisor: 2
GridSize: 4
TimelineZoom: 0.3999999

[Metadata]
Title:WHAT WE DO
TitleUnicode:WHAT WE DO
Artist:PORTWAVE
ArtistUnicode:PORTWAVE
Creator:MAXAZapple
Version:Normal
Source:
Tags:
BeatmapID:1577626
BeatmapSetID:748924

[Difficulty]
HPDrainRate:6
CircleSize:5
OverallDifficulty:1
ApproachRate:7
SliderMultiplier:1
SliderTickRate:4

[Events]
//Background and Video events
//Break Periods
2,3200,5379
2,51200,53807
2,68342,73950
//Storyboard Layer 0 (Background)
//Storyboard Layer 1 (Fail)
//Storyboard Layer 2 (Pass)
//Storyboard Layer 3 (Foreground)
//Storyboard Sound Samples

[TimingPoints]
0,428.571428571429,4,1,0,100,1,0

[Colours]
Combo1 : 0,255,190
Combo2 : 0,150,255
Combo3 : 128,128,255
Combo4 : 0,200,50

[HitObjects]
256,192,3000,5,0,0:0:0:0:
256,24,6429,21,0,0:0:0:0:
256,96,6857,6,0,L|256:148,1,50
256,200,7285,2,0,L|308:200,1,50
360,200,7714,2,0,L|360:252,1,50
360,304,8142,2,0,L|308:304,1,50
256,304,8571,2,0,L|256:252,1,50
256,200,9000,2,0,L|204:200,1,50
148,200,9428,2,0,L|148:148,1,50
148,96,9856,53,0,0:0:0:0:
326,226,10285,1,0,0:0:0:0:
305,253,10500,1,0,0:0:0:0:
273,268,10714,1,0,0:0:0:0:
238,268,10928,1,0,0:0:0:0:
206,253,11142,1,0,0:0:0:0:
185,226,11357,1,0,0:0:0:0:
177,192,11571,1,0,0:0:0:0:
185,157,11785,1,0,0:0:0:0:
206,130,12000,1,0,0:0:0:0:
238,115,12214,1,0,0:0:0:0:
273,115,12428,1,0,0:0:0:0:
305,130,12642,1,0,0:0:0:0:
326,157,12857,1,0,0:0:0:0:
334,192,13071,1,0,0:0:0:0:
303,128,13285,5,0,0:0:0:0:
296,304,13714,6,0,B|388:184|388:184|260:184|260:184|316:112,1,350
248,108,15428,1,0,0:0:0:0:
320,24,15857,2,0,L|152:88,1,150
248,108,16714,1,0,0:0:0:0:
68,72,17142,6,0,B|104:192|104:192|160:80|160:80|208:112,1,300
248,144,18642,1,0,0:0:0:0:
248,204,18857,2,0,B|248:256|248:256|300:308|300:308|352:256|352:256|352:200|352:200,1,250
352,144,20142,1,0,0:0:0:0:
216,76,20571,5,0,0:0:0:0:
184,108,20785,1,0,0:0:0:0:
228,120,21000,1,0,0:0:0:0:
196,152,21428,2,0,B|228:252|228:252|300:252,1,150
300,248,22285,1,0,0:0:0:0:
316,204,22500,1,0,0:0:0:0:
348,240,22714,1,0,0:0:0:0:
444,296,23142,2,0,L|364:296,1,50
332,296,23571,1,0,0:0:0:0:
332,236,24000,6,0,B|332:120|332:120|292:120|292:120|260:88|260:88|228:120|228:120|168:120,1,300
116,120,25714,1,0,0:0:0:0:
72,156,25928,1,0,0:0:0:0:
124,180,26142,2,0,B|172:152|172:152|192:80,1,100
144,68,27000,1,0,0:0:0:0:
224,140,27428,6,0,P|292:144|244:196,1,150
332,108,28285,1,0,0:0:0:0:
368,216,28714,2,0,B|368:112|368:112|264:112|264:112|232:144|232:144|196:108|196:108|232:72,1,350
124,88,30428,1,0,0:0:0:0:
216,152,30857,6,0,P|232:224|260:160,1,150
176,256,31714,1,0,0:0:0:0:
228,104,32142,2,0,B|300:32|300:32|372:104|372:104|336:140|336:140|372:176|372:176|412:136,1,350
372,228,33857,1,0,0:0:0:0:
212,184,34285,6,0,P|156:180|208:224,1,150
104,172,35142,1,0,0:0:0:0:
304,92,35571,2,0,B|340:128|340:128|304:164|304:164|340:200,1,150
272,128,36428,2,0,B|236:92|236:92|200:128|200:128|164:92,1,150
36,104,37285,1,0,0:0:0:0:
188,100,37714,6,0,L|224:136,4,50
136,84,38785,1,0,0:0:0:0:
176,48,39000,1,0,0:0:0:0:
136,152,39428,2,0,L|188:152,2,50
232,192,40285,1,0,0:0:0:0:
176,348,40714,1,0,0:0:0:0:
304,252,41142,6,0,L|252:252,3,50
196,252,42000,1,0,0:0:0:0:
124,272,42428,2,0,L|88:236,1,50
84,232,42642,2,0,L|160:156,1,100
160,156,43071,2,0,B|196:192|196:192|232:156,1,100
196,248,43714,1,0,0:0:0:0:
196,100,44142,1,0,0:0:0:0:
76,64,44571,6,0,L|376:64,1,300
280,64,45428,1,0,0:0:0:0:
328,64,45642,1,0,0:0:0:0:
376,64,45857,2,0,P|312:128|248:64,1,200
268,108,46500,1,0,0:0:0:0:
312,64,47571,1,0,0:0:0:0:
280,192,48000,6,0,P|256:264|232:192,1,200
220,236,48642,1,0,0:0:0:0:
256,144,49071,1,0,0:0:0:0:
256,88,49500,2,0,L|364:196,2,150
328,160,49928,1,0,0:0:0:0:
292,124,50571,1,0,0:0:0:0:
208,40,51000,1,0,0:0:0:0:
165,150,54857,6,0,P|157:226|173:250,1,100
168,244,55285,2,0,P|224:196|260:192,1,100
252,192,55714,2,0,B|312:192|312:192|280:252|280:252|352:252,1,200
352,252,56571,2,0,P|284:116|196:156,1,250
348,156,57000,1,0,0:0:0:0:
264,116,57428,1,0,0:0:0:0:
272,208,57857,1,0,0:0:0:0:
180,128,58285,6,0,L|180:232,1,100
180,236,58714,2,0,L|252:164,1,100
260,164,59142,2,0,L|332:236,1,100
332,228,59571,2,0,L|332:128,1,100
332,120,60000,2,0,L|452:120,2,100
180,120,61285,1,0,0:0:0:0:
124,244,61714,6,0,L|124:140,1,100
124,140,62142,2,0,L|196:68,1,100
200,64,62571,2,0,L|304:64,1,100
304,64,63000,2,0,L|376:136,1,100
380,140,63428,2,0,L|380:240,1,100
380,244,63857,2,0,L|308:316,1,100
256,192,64714,1,0,0:0:0:0:
256,184,65142,6,0,P|260:132|264:128,1,50
248,192,65571,2,0,P|196:188|192:184,1,50
256,200,66000,2,0,P|252:252|248:256,1,50
264,192,66428,2,0,P|316:196|320:200,1,50
364,192,66857,1,0,0:0:0:0:
256,84,67285,1,0,0:0:0:0:
148,192,67714,1,0,0:0:0:0:
256,300,68142,1,0,0:0:0:0:
256,64,75000,5,0,0:0:0:0:
256,252,75428,5,0,0:0:0:0:
231,246,75642,1,0,0:0:0:0:
211,232,75857,1,0,0:0:0:0:
198,210,76071,1,0,0:0:0:0:
196,185,76285,1,0,0:0:0:0:
203,161,76500,1,0,0:0:0:0:
220,143,76714,1,0,0:0:0:0:
243,133,76928,1,0,0:0:0:0:
268,133,77142,1,0,0:0:0:0:
291,143,77357,1,0,0:0:0:0:
308,161,77571,1,0,0:0:0:0:
315,185,77785,1,0,0:0:0:0:
313,210,78000,1,0,0:0:0:0:
300,232,78214,1,0,0:0:0:0:
280,246,78428,5,0,0:0:0:0:
256,312,78857,5,0,0:0:0:0:
207,301,79071,1,0,0:0:0:0:
166,272,79285,1,0,0:0:0:0:
141,229,79500,1,0,0:0:0:0:
136,179,79714,1,0,0:0:0:0:
151,131,79928,1,0,0:0:0:0:
185,94,80142,1,0,0:0:0:0:
231,74,80357,1,0,0:0:0:0:
281,74,80571,1,0,0:0:0:0:
326,94,80785,1,0,0:0:0:0:
360,131,81000,1,0,0:0:0:0:
375,179,81214,1,0,0:0:0:0:
370,229,81428,1,0,0:0:0:0:
345,272,81642,1,0,0:0:0:0:
304,301,81857,5,0,0:0:0:0:
