osu file format v14

[General]
AudioFilename: audio.mp3
AudioLeadIn: 0
PreviewTime: 18428
Countdown: 1
SampleSet: None
StackLeniency: 0.7
Mode: 0
LetterboxInBreaks: 0
WidescreenStoryboard: 1

[Editor]
Bookmarks: 0,13714,27428,41142,54857,68571,82285,96000,109714,123428,137142
DistanceSpacing: 1.5
BeatDivisor: 2
GridSize: 4
TimelineZoom: 0.1

[Metadata]
Title:WHAT WE DO
TitleUnicode:WHAT WE DO
Artist:PORTWAVE
ArtistUnicode:PORTWAVE
Creator:MAXAZapple
Version:Easy
Source:
Tags:
BeatmapID:1577623
BeatmapSetID:748924

[Difficulty]
HPDrainRate:5
CircleSize:4
OverallDifficulty:0
ApproachRate:6
SliderMultiplier:1
SliderTickRate:4

[Events]
//Background and Video events
//Break Periods
2,3200,5379
2,51200,53807
2,68342,73950
//Storyboard Layer 0 (Background)
//Storyboard Layer 1 (Fail)
//Storyboard Layer 2 (Pass)
//Storyboard Layer 3 (Foreground)
//Storyboard Sound Samples

[TimingPoints]
0,428.571428571429,4,1,0,100,1,0

[Colours]
Combo1 : 0,255,190
Combo2 : 0,150,255
Combo3 : 128,128,255
Combo4 : 0,200,50

[HitObjects]
256,192,3000,5,0,0:0:0:0:
256,24,6429,21,0,0:0:0:0:
256,96,6857,6,0,L|256:148,1,50
360,200,7714,2,0,L|360:252,1,50
256,304,8571,2,0,L|256:252,1,50
148,200,9428,2,0,L|148:148,1,50
148,96,9856,53,0,0:0:0:0:
296,224,10285,5,0,0:0:0:0:
221,224,10715,1,0,0:0:0:0:
167,172,11143,1,0,0:0:0:0:
166,97,11571,1,0,0:0:0:0:
219,43,11999,1,0,0:0:0:0:
294,42,12428,1,0,0:0:0:0:
347,95,12857,1,0,0:0:0:0:
348,170,13285,5,0,0:0:0:0:
341,346,13714,6,0,B|433:226|433:226|305:226|305:226|361:154,1,350
272,160,15642,2,0,L|220:108,1,50
184,160,16285,2,0,L|92:68,1,100
68,72,17142,6,0,B|104:192|104:192|160:80|160:80|208:112,1,300
248,144,18642,1,0,0:0:0:0:
248,204,18857,2,0,B|248:256|248:256|300:308|300:308|352:256|352:256|352:200|352:200,1,250
352,144,20142,1,0,0:0:0:0:
216,76,20571,5,0,0:0:0:0:
196,152,21428,2,0,B|228:252|228:252|300:252,1,150
152,256,22714,1,0,0:0:0:0:
160,348,23142,2,0,L|212:348,1,50
280,348,23571,2,0,L|332:348,1,50
332,236,24000,6,0,B|332:120|332:120|292:120|292:120|260:88|260:88|228:120|228:120|168:120,1,300
76,88,25714,1,0,0:0:0:0:
124,180,26142,2,0,B|172:152|172:152|192:80,1,100
76,88,27000,1,0,0:0:0:0:
224,140,27428,6,0,P|292:144|244:196,1,150
332,108,28285,1,0,0:0:0:0:
368,216,28714,2,0,B|368:112|368:112|264:112|264:112|232:144|232:144|196:108|196:108|232:72,1,350
124,88,30428,1,0,0:0:0:0:
216,152,30857,6,0,P|232:224|260:160,1,150
176,256,31714,1,0,0:0:0:0:
228,104,32142,2,0,B|300:32|300:32|372:104|372:104|336:140|336:140|372:176|372:176|412:136,1,350
372,228,33857,1,0,0:0:0:0:
212,184,34285,6,0,P|156:180|208:224,1,150
104,172,35142,1,0,0:0:0:0:
324,84,35571,2,0,B|360:120|360:120|324:156|324:156|360:192,1,150
312,240,36428,2,0,B|276:204|276:204|240:240|240:240|204:204,1,150
152,164,37285,1,0,0:0:0:0:
188,100,37714,6,0,L|224:136,2,50
136,84,38785,1,0,0:0:0:0:
176,48,39000,1,0,0:0:0:0:
136,152,39428,2,0,L|188:152,1,50
232,192,40285,1,0,0:0:0:0:
328,152,40714,1,0,0:0:0:0:
304,252,41142,6,0,L|252:252,3,50
196,252,42000,1,0,0:0:0:0:
124,272,42428,2,0,L|88:236,1,50
160,156,43071,2,0,B|196:192|196:192|232:156,1,100
196,100,44142,1,0,0:0:0:0:
76,64,44571,6,0,L|256:64,1,150
376,64,45857,2,0,P|312:128|248:64,1,200
268,108,46500,1,0,0:0:0:0:
312,64,47571,1,0,0:0:0:0:
280,192,48000,6,0,P|256:264|232:192,1,200
220,236,48642,1,0,0:0:0:0:
256,88,49500,2,0,L|324:156,4,50
208,40,51000,1,0,0:0:0:0:
165,150,54857,6,0,P|157:226|173:250,1,100
252,192,55714,2,0,B|296:192|296:192|268:248|268:248|264:248,1,100
352,252,56571,2,0,P|304:124|216:136,1,200
272,208,57857,1,0,0:0:0:0:
180,128,58285,6,0,L|180:232,1,100
260,164,59142,2,0,L|332:236,1,100
332,120,60000,2,0,L|452:120,2,100
180,120,61285,1,0,0:0:0:0:
124,244,61714,6,0,L|124:140,1,100
200,64,62571,2,0,L|304:64,1,100
380,140,63428,2,0,L|380:240,1,100
256,192,64714,1,0,0:0:0:0:
212,216,65142,6,0,P|216:164|220:160,1,50
232,144,65571,2,0,P|284:148|288:152,1,50
304,168,66000,2,0,P|300:220|296:224,1,50
284,240,66428,2,0,P|232:236|228:232,1,50
364,192,66857,1,0,0:0:0:0:
256,84,67285,1,0,0:0:0:0:
148,192,67714,1,0,0:0:0:0:
256,300,68142,1,0,0:0:0:0:
256,340,75000,5,0,0:0:0:0:
256,252,75428,5,0,0:0:0:0:
211,232,75857,1,0,0:0:0:0:
196,185,76285,1,0,0:0:0:0:
220,143,76714,1,0,0:0:0:0:
268,133,77142,1,0,0:0:0:0:
308,161,77571,1,0,0:0:0:0:
313,210,78000,1,0,0:0:0:0:
280,246,78428,5,0,0:0:0:0:
256,312,78857,5,0,0:0:0:0:
166,272,79285,1,0,0:0:0:0:
136,179,79714,1,0,0:0:0:0:
185,94,80142,1,0,0:0:0:0:
281,74,80571,1,0,0:0:0:0:
360,131,81000,1,0,0:0:0:0:
370,229,81428,1,0,0:0:0:0:
304,301,81857,5,0,0:0:0:0:
