osu file format v14

[General]
AudioFilename: audio.mp3
AudioLeadIn: 0
PreviewTime: 62431
Countdown: 0
SampleSet: Drum
StackLeniency: 0.7
Mode: 0
LetterboxInBreaks: 0
WidescreenStoryboard: 1

[Editor]
Bookmarks: 577,10899,15415,21222,41867,52189,62512,67673,72835,81867,83157,84447
DistanceSpacing: 1.2
BeatDivisor: 4
GridSize: 32
TimelineZoom: 2

[Metadata]
Title:Kto Vse Eti Lyudi?
TitleUnicode:Кто Все Эти Люди?
Artist:PORNOFIL'MY
ArtistUnicode:ПОРНОФИЛЬМЫ
Creator:KeRLi_
Version:keeVY's Hard?
Source:
Tags:pornofilmy Russian dream. Part 1 Русская мечта. Часть 1 who are all these people русский рок rock панк punk maruoko daycore melwoine kesha kesha_174 keevy pantydev
BeatmapID:2158085
BeatmapSetID:1027950

[Difficulty]
HPDrainRate:4.4
CircleSize:3.4
OverallDifficulty:6
ApproachRate:8
SliderMultiplier:1.4
SliderTickRate:1

[Events]
//Background and Video events
0,0,"gb.jpg",0,0
//Break Periods
//Storyboard Layer 0 (Background)
//Storyboard Layer 1 (Fail)
//Storyboard Layer 2 (Pass)
//Storyboard Layer 3 (Foreground)
//Storyboard Layer 4 (Overlay)
//Storyboard Sound Samples

[TimingPoints]
577,322.58064516129,4,3,1,50,1,0
577,-111.111111111111,4,3,1,50,0,0
10818,-111.111111111111,4,3,1,50,0,0
10899,-100,4,3,1,50,0,0
11383,-100,4,3,1,50,0,0
11544,-100,4,3,1,50,0,0
11705,-100,4,3,1,50,0,0
11867,-100,4,3,1,50,0,0
12028,-100,4,3,1,50,0,0
12189,-100,4,3,1,50,0,0
12996,-100,4,3,1,50,0,0
13157,-100,4,3,1,50,0,0
13318,-100,4,3,1,50,0,0
13480,-100,4,3,1,55,0,0
13964,-100,4,3,1,55,0,0
14125,-100,4,3,1,55,0,0
14286,-100,4,3,1,55,0,0
14447,-100,4,3,1,55,0,0
14608,-100,4,3,1,55,0,0
14770,-100,4,3,1,55,0,0
15254,-100,4,3,1,55,0,0
15415,-100,4,3,1,55,0,0
15576,-100,4,3,1,55,0,0
15738,-100,4,3,1,55,0,0
15899,-100,4,3,1,55,0,0
16060,-100,4,3,1,60,0,0
16544,-100,4,3,1,60,0,0
16706,-100,4,3,1,60,0,0
16867,-100,4,3,1,60,0,0
17028,-100,4,3,1,60,0,0
17189,-100,4,3,1,60,0,0
17351,-100,4,3,1,60,0,0
17835,-100,4,3,1,60,0,0
17996,-100,4,3,1,60,0,0
18157,-100,4,3,1,60,0,0
18318,-100,4,3,1,60,0,0
18479,-100,4,3,1,60,0,0
18641,-100,4,3,1,65,0,0
21222,-90.9090909090909,4,3,1,70,0,0
21706,-90.9090909090909,4,3,1,70,0,0
21867,-90.9090909090909,4,3,1,70,0,0
22351,-90.9090909090909,4,3,1,70,0,0
22512,-90.9090909090909,4,3,1,70,0,0
22996,-90.9090909090909,4,3,1,70,0,0
23157,-90.9090909090909,4,3,1,70,0,0
24286,-90.9090909090909,4,3,1,70,0,0
24447,-90.9090909090909,4,3,1,70,0,0
24931,-90.9090909090909,4,3,1,70,0,0
25093,-90.9090909090909,4,3,1,70,0,0
25576,-90.9090909090909,4,3,1,70,0,0
25738,-90.9090909090909,4,3,1,70,0,0
26867,-90.9090909090909,4,3,1,70,0,0
27028,-90.9090909090909,4,3,1,70,0,0
27512,-90.9090909090909,4,3,1,70,0,0
27673,-90.9090909090909,4,3,1,70,0,0
28157,-90.9090909090909,4,3,1,70,0,0
28318,-90.9090909090909,4,3,1,70,0,0
28964,-100,4,3,1,70,0,0
29286,-83.3333333333333,4,3,1,70,0,0
29609,-100,4,3,1,70,0,0
29931,-83.3333333333333,4,3,1,70,0,0
30254,-100,4,3,1,70,0,0
30576,-83.3333333333333,4,3,1,70,0,0
30899,-100,4,3,1,70,0,0
31222,-83.3333333333333,4,3,1,70,0,0
32028,-90.9090909090909,4,3,1,70,0,0
32189,-90.9090909090909,4,3,1,70,0,0
32673,-90.9090909090909,4,3,1,70,0,0
32835,-90.9090909090909,4,3,1,70,0,0
33318,-90.9090909090909,4,3,1,70,0,0
33480,-90.9090909090909,4,3,1,70,0,0
34609,-90.9090909090909,4,3,1,70,0,0
34770,-90.9090909090909,4,3,1,70,0,0
35254,-90.9090909090909,4,3,1,70,0,0
35415,-90.9090909090909,4,3,1,70,0,0
35899,-90.9090909090909,4,3,1,70,0,0
36060,-90.9090909090909,4,3,1,70,0,0
37189,-90.9090909090909,4,3,1,70,0,0
37351,-90.9090909090909,4,3,1,70,0,0
37834,-90.9090909090909,4,3,1,70,0,0
37996,-90.9090909090909,4,3,1,70,0,0
38479,-90.9090909090909,4,3,1,70,0,0
38641,-90.9090909090909,4,3,1,70,0,0
41867,-100,4,3,1,60,0,0
42109,-90.9090909090909,4,3,1,60,0,0
42189,-100,4,3,1,60,0,0
42350,-100,4,3,1,60,0,0
42512,-100,4,3,1,60,0,0
42996,-100,4,3,1,60,0,0
43157,-100,4,3,1,60,0,0
44689,-100,4,3,1,60,0,0
44770,-100,4,3,1,60,0,0
44931,-100,4,3,1,60,0,0
45093,-100,4,3,1,60,0,0
45576,-100,4,3,1,60,0,0
45738,-100,4,3,1,60,0,0
45818,-100,4,3,1,60,0,0
45899,-100,4,3,1,60,0,0
45979,-100,4,3,1,60,0,0
46060,-100,4,3,1,60,0,0
46222,-100,4,3,1,60,0,0
46383,-100,4,3,1,60,0,0
47270,-100,4,3,1,60,0,0
47351,-100,4,3,1,60,0,0
47512,-100,4,3,1,60,0,0
47673,-100,4,3,1,60,0,0
48157,-100,4,3,1,60,0,0
48318,-100,4,3,1,60,0,0
50093,-100,4,3,1,60,0,0
50254,-100,4,3,1,60,0,0
50738,-100,4,3,1,60,0,0
50899,-100,4,3,1,60,0,0
52189,-100,4,3,1,70,0,0
52673,-100,4,3,1,70,0,0
52835,-100,4,3,1,70,0,0
53318,-100,4,3,1,70,0,0
53480,-100,4,3,1,70,0,0
53641,-100,4,3,1,70,0,0
53802,-100,4,3,1,70,0,0
53963,-100,4,3,1,70,0,0
54125,-100,4,3,1,70,0,0
54608,-100,4,3,1,70,0,0
54770,-100,4,3,1,70,0,0
55012,-100,4,3,1,70,0,0
55093,-100,4,3,1,70,0,0
55254,-100,4,3,1,70,0,0
55415,-100,4,3,1,70,0,0
55899,-100,4,3,1,70,0,0
56060,-100,4,3,1,70,0,0
56222,-100,4,3,1,70,0,0
56383,-100,4,3,1,70,0,0
56544,-100,4,3,1,70,0,0
56706,-100,4,3,1,70,0,0
57189,-100,4,3,1,70,0,0
57351,-100,4,3,1,70,0,0
57593,-100,4,3,1,70,0,0
57673,-100,4,3,1,70,0,0
57834,-100,4,3,1,70,0,0
57996,-100,4,3,1,70,0,0
58479,-100,4,3,1,70,0,0
58641,-100,4,3,1,70,0,0
58802,-100,4,3,1,70,0,0
58964,-100,4,3,1,70,0,0
59125,-100,4,3,1,70,0,0
59286,-100,4,3,1,70,0,0
59770,-100,4,3,1,70,0,0
59931,-100,4,3,1,70,0,0
60415,-100,4,3,1,70,0,0
60576,-100,4,3,1,70,0,0
61060,-100,4,3,1,70,0,0
61222,-83.3333333333333,4,3,1,70,0,0
62431,-83.3333333333333,4,3,1,70,0,0
62512,-125,4,3,1,70,0,0
63157,-125,4,3,1,70,0,0
64447,-125,4,3,1,70,0,0
65012,-125,4,3,1,70,0,0
65093,-125,4,3,1,70,0,0
65738,-125,4,3,1,70,0,0
67028,-125,4,3,1,70,0,0
67593,-125,4,3,1,70,0,0
67673,-125,4,3,1,70,0,0
70092,-125,4,3,1,70,0,0
70254,-100,4,3,1,70,0,0
72835,-90.9090909090909,4,3,1,70,0,1
73318,-90.9090909090909,4,3,1,70,0,1
73480,-90.9090909090909,4,3,1,70,0,1
73964,-90.9090909090909,4,3,1,70,0,1
74125,-90.9090909090909,4,3,1,70,0,1
74608,-90.9090909090909,4,3,1,70,0,1
74770,-90.9090909090909,4,3,1,70,0,1
75254,-90.9090909090909,4,3,1,70,0,1
75415,-90.9090909090909,4,3,1,70,0,1
75899,-90.9090909090909,4,3,1,70,0,1
76060,-90.9090909090909,4,3,1,70,0,1
76544,-90.9090909090909,4,3,1,70,0,1
76706,-90.9090909090909,4,3,1,70,0,1
77189,-90.9090909090909,4,3,1,70,0,1
77351,-90.9090909090909,4,3,1,70,0,1
77996,-83.3333333333333,4,3,1,70,0,1
80576,-83.3333333333333,4,3,1,70,0,0
83157,-117.647058823529,4,3,1,70,0,0

[Colours]
Combo1 : 255,162,117
Combo2 : 151,47,255
Combo3 : 255,255,176
Combo4 : 179,190,255

[HitObjects]
101,36,577,6,0,P|133:106|140:224,1,188.999994232178,4|2,0:2|0:2,0:0:0:0:
121,289,1222,2,0,P|155:300|201:295,1,62.9999980773926,2|2,0:2|0:2,0:0:0:0:
238,249,1544,2,0,P|289:248|322:259,1,62.9999980773926,2|2,0:2|0:2,0:0:0:0:
349,308,1867,2,0,P|322:251|334:165,2,125.999996154785,2|2|2,0:2|0:2|0:2,0:0:0:0:
489,250,2835,1,2,0:2:0:0:
480,99,3157,6,0,B|380:71|401:177|292:139,1,188.999994232178,4|2,0:2|0:2,0:0:0:0:
261,82,3802,2,0,P|245:36|242:7,1,62.9999980773926,2|2,0:2|0:2,0:0:0:0:
158,0,4125,2,0,P|142:46|139:75,1,62.9999980773926,2|2,0:2|0:2,0:0:0:0:
133,140,4447,2,0,P|103:94|26:87,2,125.999996154785,2|2|2,0:2|0:2|0:2,0:0:0:0:
55,162,5254,1,2,0:2:0:0:
55,162,5415,2,0,P|64:219|62:251,1,62.9999980773926,2|2,0:2|0:2,0:0:0:0:
69,303,5738,6,0,B|106:298|128:271|128:271|176:308|173:382,1,188.999994232178,4|2,0:2|0:2,0:0:0:0:
254,361,6383,2,0,P|297:343|330:343,1,62.9999980773926,2|2,0:2|0:2,0:0:0:0:
296,256,6706,2,0,P|253:238|220:238,1,62.9999980773926,2|2,0:2|0:2,0:0:0:0:
165,194,7028,2,0,P|225:168|243:85,2,125.999996154785,2|2|2,0:2|0:2|0:2,0:0:0:0:
83,194,7835,1,2,0:2:0:0:
40,122,7996,2,0,P|39:63|46:32,1,62.9999980773926,2|2,0:2|0:2,0:0:0:0:
98,5,8318,6,0,B|142:8|142:8|171:29|171:29|224:35,1,125.999996154785,4|2,0:2|0:2,0:0:0:0:
293,0,8802,1,2,0:2:0:0:
293,0,8964,2,0,L|309:78,1,62.9999980773926,2|2,0:2|0:2,0:0:0:0:
267,133,9286,2,0,L|259:209,1,62.9999980773926,2|2,0:2|0:2,0:0:0:0:
300,267,9609,1,4,0:2:0:0:
394,146,9931,5,2,0:2:0:0:
449,222,10093,1,2,0:2:0:0:
449,222,10173,1,2,0:2:0:0:
449,222,10254,2,0,P|432:266|434:292,1,62.9999980773926,2|2,0:2|0:2,0:0:0:0:
490,335,10576,2,0,P|450:318|380:331,1,94.499997116089,2|0,0:2|0:0,0:0:0:0:
365,345,10899,6,0,L|211:328,1,140,4|4,0:2|0:3,0:0:0:0:
153,373,11383,1,0,0:0:0:0:
153,373,11544,2,0,L|140:303,1,70,4|0,0:3|0:0,0:0:0:0:
78,246,11867,2,0,L|84:176,1,70,4|0,0:3|0:0,0:0:0:0:
137,111,12189,2,0,B|211:102|210:151|271:146,2,140,4|4|4,0:3|0:3|0:3,0:0:0:0:
84,176,12996,1,0,0:0:0:0:
84,176,13157,2,0,L|78:246,1,70,4|0,0:3|0:0,0:0:0:0:
125,315,13480,6,0,B|196:294|203:343|262:328,1,140,4|4,0:2|0:3,0:0:0:0:
319,267,13964,1,0,0:0:0:0:
319,267,14125,2,0,P|371:262|397:272,1,70,4|0,0:3|0:0,0:0:0:0:
450,322,14447,2,0,P|436:268|441:231,1,70,4|0,0:3|0:0,0:0:0:0:
478,181,14770,5,4,0:3:0:0:
423,116,14931,1,0,0:2:0:0:
367,52,15093,2,0,L|295:81,1,70,4|0,0:3|0:0,0:0:0:0:
249,143,15415,2,0,L|321:172,1,70,4|0,0:3|0:0,0:0:0:0:
361,238,15738,2,0,L|289:267,1,70,4|0,0:3|0:0,0:0:0:0:
251,335,16060,6,0,P|249:258|179:242,1,140,4|4,0:2|0:3,0:0:0:0:
127,282,16544,1,0,0:0:0:0:
127,282,16706,2,0,P|73:260|35:251,1,70,4|0,0:3|0:0,0:0:0:0:
55,173,17028,2,0,P|109:151|147:142,1,70,4|0,0:3|0:0,0:0:0:0:
196,111,17351,1,4,0:3:0:0:
196,111,17431,1,0,0:2:0:0:
196,111,17512,2,0,L|256:131,2,35,0|0|4,0:2|0:2|0:3,0:0:0:0:
138,48,17835,1,0,0:0:0:0:
138,48,17996,2,0,P|90:53|56:48,1,70,4|0,0:3|0:0,0:0:0:0:
1,0,18318,2,0,P|20:36|29:86,1,70,4|0,0:3|0:0,0:0:0:0:
16,147,18641,5,8,0:0:0:0:
16,147,18722,1,8,0:0:0:0:
16,147,18802,2,0,L|13:209,2,35,8|8|8,0:0|0:0|0:0,0:0:0:0:
100,149,19125,1,8,0:0:0:0:
166,200,19286,1,8,0:0:0:0:
166,200,19367,1,8,0:0:0:0:
166,200,19447,2,0,L|214:209,2,35,8|8|8,0:0|0:0|0:0,0:0:0:0:
87,230,19770,1,8,0:0:0:0:
43,301,19931,5,8,0:0:0:0:
43,301,20012,1,8,0:0:0:0:
43,301,20093,2,0,L|35:346,2,35,8|8|8,0:0|0:0|0:0,0:0:0:0:
119,336,20415,1,8,0:0:0:0:
183,282,20576,1,8,0:0:0:0:
183,282,20657,1,8,0:0:0:0:
183,282,20738,2,0,L|226:291,2,35,8|8|8,0:0|0:0|0:0,0:0:0:0:
166,200,21060,1,8,0:0:0:0:
238,148,21222,6,0,B|325:139|294:214|399:205,1,154.000004699707,4|8,0:2|0:0,0:0:0:0:
446,147,21706,1,0,0:0:0:0:
446,147,21867,2,0,P|424:197|424:239,1,77.0000023498536,4|4,0:0|0:0,0:0:0:0:
483,288,22189,1,8,0:0:0:0:
483,288,22351,1,0,0:0:0:0:
442,370,22512,6,0,L|360:352,1,77.0000023498536,4|4,0:3|0:3,0:0:0:0:
285,309,22835,2,0,L|205:332,1,77.0000023498536,8|0,0:0|0:0,0:0:0:0:
125,365,23157,2,0,L|41:338,1,77.0000023498536,4|4,0:3|0:3,0:0:0:0:
11,271,23480,1,8,0:0:0:0:
187,228,23802,6,0,P|126:206|86:115,1,154.000004699707,4|8,0:2|0:0,0:0:0:0:
122,45,24286,1,0,0:0:0:0:
122,45,24447,2,0,P|172:65|223:61,1,77.0000023498536,4|4,0:3|0:3,0:0:0:0:
273,17,24770,1,8,0:0:0:0:
364,25,24931,1,0,0:0:0:0:
429,90,25093,6,0,L|415:172,1,77.0000023498536,4|4,0:3|0:3,0:0:0:0:
451,251,25415,2,0,L|454:334,1,77.0000023498536,8|0,0:0|0:0,0:0:0:0:
367,362,25738,2,0,L|354:280,1,77.0000023498536,4|4,0:0|0:0,0:0:0:0:
295,218,26060,1,8,0:0:0:0:
214,368,26383,6,0,P|136:366|108:298,1,154.000004699707,4|8,0:2|0:0,0:0:0:0:
136,219,26867,1,0,0:0:0:0:
136,219,27028,2,0,P|129:152|131:122,1,77.0000023498536,4|4,0:0|0:0,0:0:0:0:
157,54,27351,1,8,0:0:0:0:
157,54,27512,1,0,0:0:0:0:
244,25,27673,6,0,L|327:34,1,77.0000023498536,4|4,0:3|0:3,0:0:0:0:
368,112,27996,2,0,L|285:121,1,77.0000023498536,8|0,0:3|0:0,0:0:0:0:
251,203,28318,2,0,L|334:212,1,77.0000023498536,4|4,0:0|0:0,0:0:0:0:
389,281,28641,1,8,0:0:0:0:
249,367,28964,6,0,P|243:318|223:280,1,70,4|4,0:0|0:0,0:0:0:0:
165,226,29286,2,0,P|159:275|139:313,1,83.9999974365235,8|4,0:0|0:0,0:0:0:0:
73,233,29609,6,0,P|79:184|99:146,1,70,4|4,0:0|0:0,0:0:0:0:
145,63,29931,2,0,P|151:112|171:150,1,83.9999974365235,8|4,0:0|0:0,0:0:0:0:
264,152,30254,6,0,P|280:101|285:57,1,70,4|4,0:0|0:0,0:0:0:0:
371,19,30576,2,0,P|387:70|392:114,1,83.9999974365235,8|4,0:0|0:0,0:0:0:0:
480,148,30899,6,0,P|464:199|459:243,1,70,4|4,0:0|0:0,0:0:0:0:
375,254,31222,2,0,P|359:203|354:159,1,83.9999974365235,8|4,0:0|0:0,0:0:0:0:
391,100,31544,6,0,P|345:164|249:134,1,167.999994873047,4|8,0:2|0:0,0:0:0:0:
229,66,32028,1,0,0:0:0:0:
229,66,32189,2,0,P|177:98|144:111,1,77.0000023498536,4|4,0:0|0:0,0:0:0:0:
89,45,32512,2,0,P|59:69|41:115,1,77.0000023498536,8|0,0:0|0:0,0:0:0:0:
91,191,32835,6,0,P|67:237|68:281,1,77.0000023498536,4|4,0:3|0:3,0:0:0:0:
144,306,33157,2,0,P|168:257|167:229,1,77.0000023498536,8|0,0:0|0:0,0:0:0:0:
250,196,33480,2,0,P|249:245|266:288,1,77.0000023498536,4|4,0:3|0:3,0:0:0:0:
353,289,33802,1,8,0:0:0:0:
250,196,34125,6,0,B|184:213|149:175|149:175|176:156|191:122,1,154.000004699707,4|8,0:2|0:0,0:0:0:0:
130,68,34609,1,0,0:0:0:0:
130,68,34770,2,0,P|173:33|216:27,1,77.0000023498536,4|4,0:3|0:3,0:0:0:0:
283,14,35093,2,0,P|316:39|360:65,1,77.0000023498536,8|0,0:0|0:0,0:0:0:0:
421,110,35415,5,4,0:3:0:0:
410,201,35576,1,4,0:3:0:0:
393,292,35738,2,0,P|326:271|290:270,1,77.0000023498536,8|0,0:0|0:0,0:0:0:0:
244,324,36060,2,0,P|181:343|137:347,1,77.0000023498536,4|4,0:0|0:0,0:0:0:0:
84,353,36383,1,8,0:0:0:0:
38,225,36706,6,0,B|124:183|129:268|213:203,1,154.000004699707,4|8,0:2|0:0,0:0:0:0:
140,139,37189,1,0,0:0:0:0:
140,139,37351,2,0,P|77:128|34:138,1,77.0000023498536,4|4,0:0|0:0,0:0:0:0:
91,41,37673,2,0,P|161:45|198:41,1,77.0000023498536,8|0,0:0|0:0,0:0:0:0:
252,7,37996,6,0,P|245:61|248:100,1,77.0000023498536,4|4,0:3|0:3,0:0:0:0:
296,160,38318,2,0,P|299:220|296:248,1,77.0000023498536,8|0,0:3|0:0,0:0:0:0:
376,285,38641,2,0,P|385:218|386:180,1,77.0000023498536,4|4,0:0|0:0,0:0:0:0:
453,145,38964,1,8,0:0:0:0:
464,312,39286,5,4,0:0:0:0:
376,285,39447,1,4,0:0:0:0:
288,254,39609,2,0,L|244:187,1,77.0000023498536,8|4,0:0|0:0,0:0:0:0:
249,97,39931,5,4,0:0:0:0:
161,125,40092,1,4,0:0:0:0:
73,155,40254,2,0,L|29:222,1,77.0000023498536,8|4,0:0|0:0,0:0:0:0:
19,310,40576,5,4,0:0:0:0:
19,310,40738,1,4,0:0:0:0:
19,310,40899,2,0,P|59:315|108:334,1,77.0000023498536,8|4,0:0|0:0,0:0:0:0:
154,256,41222,1,4,0:0:0:0:
154,256,41383,1,4,0:0:0:0:
154,256,41544,2,0,P|199:255|231:300,1,77.0000023498536,8|4,0:0|0:0,0:0:0:0:
234,357,41867,6,0,P|290:336|356:352,1,105,4|0,0:2|0:0,0:0:0:0:
360,374,42189,2,0,P|347:311|345:279,1,70,8|0,0:0|0:0,0:0:0:0:
402,242,42512,2,0,P|403:177|395:150,1,70,4|4,0:0|0:0,0:0:0:0:
379,91,42835,1,8,0:0:0:0:
379,91,42996,1,0,0:0:0:0:
430,24,43157,5,4,0:3:0:0:
430,24,43238,1,0,0:2:0:0:
430,24,43318,2,0,L|479:31,2,35,0|0|8,0:2|0:2|0:0,0:0:0:0:
346,14,43641,1,0,0:2:0:0:
346,14,43802,2,0,L|262:57,1,70,4|0,0:0|0:2,0:0:0:0:
202,22,44125,2,0,L|166:103,1,70,8|0,0:0|0:2,0:0:0:0:
102,131,44447,6,0,B|148:106|184:123|184:123|181:130|179:142,1,105,4|0,0:0|0:0,0:0:0:0:
178,184,44770,2,0,P|191:235|191:269,1,70,8|0,0:0|0:0,0:0:0:0:
269,285,45093,2,0,P|273:234|288:197,1,70,4|4,0:3|0:3,0:0:0:0:
349,174,45415,1,8,0:0:0:0:
349,174,45576,1,0,0:0:0:0:
428,226,45738,1,4,0:3:0:0:
428,226,45818,1,0,0:0:0:0:
428,226,45899,2,0,L|437:268,2,35,4|0|8,0:3|0:0|0:0,0:0:0:0:
480,160,46222,1,0,0:0:0:0:
480,160,46383,2,0,P|465:108|461:67,1,70,4|4,0:0|0:0,0:0:0:0:
399,36,46706,2,0,P|380:89|366:114,1,70,8|4,0:0|0:0,0:0:0:0:
303,146,47028,6,0,B|266:156|266:156|248:176|248:176|190:189,1,105,4|0,0:2|0:0,0:0:0:0:
174,160,47351,2,0,L|161:235,1,70,8|0,0:0|0:0,0:0:0:0:
207,299,47673,2,0,L|219:372,1,70,4|4,0:0|0:0,0:0:0:0:
302,369,47996,2,0,L|304:289,1,70,8|0,0:0|0:0,0:0:0:0:
354,231,48318,1,4,0:3:0:0:
354,231,48399,1,0,0:2:0:0:
354,231,48480,2,0,L|406:237,2,35,0|0|8,0:2|0:2|0:0,0:0:0:0:
287,179,48802,1,0,0:2:0:0:
287,179,48964,2,0,L|206:197,1,70,4|0,0:0|0:2,0:0:0:0:
158,252,49286,2,0,L|83:260,1,70,8|0,0:0|0:2,0:0:0:0:
34,324,49609,6,0,P|3:262|37:191,1,140,4|8,0:0|0:0,0:0:0:0:
107,173,50093,1,0,0:0:0:0:
107,173,50254,2,0,P|106:98|136:34,1,140,4|8,0:0|0:0,0:0:0:0:
212,13,50738,1,0,0:0:0:0:
212,13,50899,2,0,L|293:28,1,70,4|4,0:0|0:0,0:0:0:0:
321,99,51222,2,0,L|240:114,1,70,8|8,0:0|0:0,0:0:0:0:
199,177,51544,2,0,L|292:207,1,70,4|4,0:0|0:0,0:0:0:0:
344,228,51867,1,8,0:0:0:0:
320,308,52028,1,4,0:0:0:0:
320,308,52109,1,4,0:0:0:0:
320,308,52189,6,0,B|236:289|261:362|163:347,1,140,4|8,0:2|0:0,0:0:0:0:
113,317,52673,1,0,0:0:0:0:
32,342,52835,2,0,P|30:279|22:241,1,70,4|4,0:0|0:0,0:0:0:0:
59,193,53157,2,0,P|65:137|61:110,1,70,8|0,0:0|0:0,0:0:0:0:
46,40,53480,6,0,P|87:29|125:31,1,70,4|0,0:0|0:0,0:0:0:0:
191,62,53802,2,0,P|147:105|125:109,1,70,8|0,0:0|0:0,0:0:0:0:
161,188,54125,2,0,P|226:200|256:213,1,70,4|4,0:0|0:0,0:0:0:0:
251,282,54447,2,0,P|203:284|175:278,1,70,8|0,0:0|0:0,0:0:0:0:
311,217,54770,6,0,B|366:221|363:268|421:266,1,105,4|0,0:2|0:0,0:0:0:0:
442,250,55093,2,0,P|431:200|433:163,1,70,8|0,0:0|0:0,0:0:0:0:
473,108,55415,2,0,P|474:61|467:29,1,70,4|4,0:0|0:0,0:0:0:0:
388,14,55738,1,8,0:0:0:0:
311,48,55899,2,0,L|318:126,1,70,0|4,0:0|0:0,0:0:0:0:
250,168,56222,2,0,L|226:93,1,70,0|8,0:0|0:0,0:0:0:0:
158,55,56544,1,0,0:0:0:0:
158,55,56706,2,0,P|110:69|73:70,1,70,4|4,0:0|0:0,0:0:0:0:
18,27,57028,2,0,P|8:92|17:127,1,70,8|0,0:0|0:0,0:0:0:0:
68,154,57351,6,0,P|24:192|34:263,1,105,4|0,0:2|0:0,0:0:0:0:
50,265,57673,2,0,P|64:313|64:343,1,70,8|0,0:0|0:0,0:0:0:0:
143,362,57996,2,0,P|164:321|191:300,1,70,4|4,0:0|0:0,0:0:0:0:
264,320,58318,2,0,P|307:330|343:335,1,70,8|0,0:0|0:0,0:0:0:0:
412,308,58641,6,0,L|403:221,1,70,4|0,0:0|0:0,0:0:0:0:
353,171,58964,2,0,L|316:239,1,70,8|0,0:0|0:0,0:0:0:0:
235,232,59286,2,0,L|241:149,1,70,4|4,0:0|0:0,0:0:0:0:
172,111,59609,2,0,L|144:188,1,70,8|0,0:0|0:0,0:0:0:0:
76,220,59931,6,0,P|61:154|2:98,1,140,4|8,0:2|0:0,0:0:0:0:
51,28,60415,1,0,0:0:0:0:
133,10,60576,2,0,P|197:30|275:6,1,140,4|8,0:0|0:0,0:0:0:0:
344,45,61060,1,0,0:0:0:0:
344,45,61222,6,0,P|326:89|328:127,1,83.9999974365235,8|4,0:0|0:0,0:0:0:0:
392,202,61544,2,0,P|410:155|411:115,1,83.9999974365235,8|4,0:0|0:0,0:0:0:0:
500,169,61867,6,0,P|480:228|477:264,1,83.9999974365235,8|4,0:0|0:0,0:0:0:0:
502,346,62189,1,8,0:0:0:0:
400,349,62351,1,8,0:0:0:0:
400,349,62431,1,0,0:0:0:0:
400,349,62512,6,0,B|307:286|284:384|174:320,3,224,4|0|0|8,0:2|0:0|0:0|0:0,0:0:0:0:
243,250,64609,2,0,P|241:196|184:126,1,140,4|0,0:0|0:0,0:0:0:0:
163,109,65093,6,0,B|286:48|267:149|400:83,3,224,4|0|0|8,0:2|0:0|0:0|0:0,0:0:0:0:
398,9,67189,2,0,P|448:36|457:128,1,140,4|0,0:0|0:0,0:0:0:0:
448,143,67673,5,4,0:0:0:0:
448,143,67835,2,0,P|420:199|421:255,1,112,4|4,0:0|0:0,0:0:0:0:
451,298,68318,1,12,0:0:0:0:
451,298,68480,2,0,P|416:245|367:218,1,112,4|4,0:0|0:0,0:0:0:0:
324,149,68964,2,0,P|290:201|297:261,1,112,4|4,0:0|0:0,0:0:0:0:
353,314,69447,1,4,0:0:0:0:
295,373,69609,6,0,P|256:355|223:349,1,56,8|4,0:0|0:0,0:0:0:0:
168,384,69931,1,0,0:0:0:0:
78,301,70254,5,8,0:0:0:0:
78,301,70335,1,8,0:0:0:0:
78,301,70415,2,0,L|37:298,2,35,8|8|8,0:0|0:0|0:0,0:0:0:0:
134,238,70738,1,8,0:0:0:0:
212,199,70899,1,8,0:0:0:0:
212,199,70980,1,8,0:0:0:0:
212,199,71060,2,0,L|253:196,2,35,8|8|8,0:0|0:0|0:0,0:0:0:0:
152,131,71383,1,8,0:0:0:0:
98,74,71544,5,8,0:0:0:0:
98,74,71625,1,8,0:0:0:0:
98,74,71705,2,0,L|57:71,2,35,8|8|8,0:0|0:0|0:0,0:0:0:0:
171,29,72028,1,8,0:0:0:0:
261,33,72190,1,8,0:0:0:0:
261,33,72271,1,8,0:0:0:0:
261,33,72351,2,0,L|306:15,2,35,8|8|8,0:0|0:0|0:0,0:0:0:0:
252,114,72673,1,8,0:0:0:0:
297,194,72835,6,0,P|337:173|384:164,1,77.0000023498536,4|4,0:0|0:0,0:0:0:0:
421,221,73157,2,0,P|394:258|354:283,1,77.0000023498536,8|0,0:0|0:0,0:0:0:0:
348,366,73480,2,0,P|404:355|447:351,1,77.0000023498536,4|4,0:0|0:0,0:0:0:0:
511,381,73802,5,8,0:0:0:0:
503,288,73964,1,0,0:0:0:0:
493,196,74125,2,0,P|445:214|395:225,1,77.0000023498536,4|4,0:0|0:0,0:0:0:0:
347,163,74447,2,0,P|383:120|416:98,1,77.0000023498536,8|0,0:0|0:0,0:0:0:0:
476,53,74770,6,0,P|417:83|340:40,1,154.000004699707,4|8,0:0|0:0,0:0:0:0:
255,16,75254,1,0,0:0:0:0:
255,16,75335,1,0,0:0:0:0:
255,16,75415,2,0,L|268:108,1,77.0000023498536,4|4,0:0|0:0,0:0:0:0:
216,171,75738,2,0,L|175:94,1,77.0000023498536,8|0,0:0|0:0,0:0:0:0:
93,69,76060,2,0,L|98:163,1,77.0000023498536,4|4,0:0|0:0,0:0:0:0:
45,223,76383,5,8,0:0:0:0:
130,256,76544,1,0,0:0:0:0:
217,288,76706,2,0,L|302:275,1,77.0000023498536,4|4,0:0|0:0,0:0:0:0:
332,193,77028,2,0,L|220:170,1,77.0000023498536,8|0,0:0|0:0,0:0:0:0:
207,98,77351,2,0,L|367:42,1,154.000004699707,4|8,0:0|0:0,0:0:0:0:
441,21,77835,5,4,0:0:0:0:
441,21,77915,1,4,0:0:0:0:
441,21,77996,2,0,L|456:127,1,83.9999974365235,8|0,0:0|0:0,0:0:0:0:
467,203,78318,1,8,0:0:0:0:
372,239,78480,1,0,0:0:0:0:
276,271,78641,2,0,L|230:199,1,83.9999974365235,8|0,0:0|0:0,0:0:0:0:
129,190,78964,6,0,P|147:135|169:109,1,83.9999974365235,8|0,0:0|0:0,0:0:0:0:
262,124,79286,2,0,P|253:165|222:206,1,83.9999974365235,8|0,0:0|0:0,0:0:0:0:
306,266,79609,6,0,P|333:202|359:166,1,83.9999974365235,8|0,0:0|0:0,0:0:0:0:
441,175,79931,2,0,P|442:237|434:261,1,83.9999974365235,8|0,0:0|0:0,0:0:0:0:
371,336,80254,1,8,0:0:0:0:
272,355,80415,1,0,0:0:0:0:
172,372,80576,6,0,L|160:286,1,83.9999974365235,4|4,0:2|0:0,0:0:0:0:
111,200,80899,2,0,L|73:302,1,83.9999974365235,4|4,0:0|0:0,0:0:0:0:
18,357,81222,2,0,L|-3:266,1,83.9999974365235,8|4,0:0|0:0,0:0:0:0:
13,175,81544,5,4,0:0:0:0:
111,200,81706,1,4,0:0:0:0:
209,220,81867,1,4,0:2:0:0:
209,220,82512,1,4,0:2:0:0:
209,220,83157,6,0,B|171:185|111:200|111:200|172:152|228:161|282:183|315:244|405:224|466:192,1,476.00000907898,4|4,0:2|0:2,0:0:0:0:
