osu file format v14

[General]
AudioFilename: audio.mp3
AudioLeadIn: 0
PreviewTime: 62431
Countdown: 0
SampleSet: Drum
StackLeniency: 0.7
Mode: 0
LetterboxInBreaks: 0
WidescreenStoryboard: 1

[Editor]
Bookmarks: 577,10899,21222,41867,52189,62512,67673,72835,81867,83157
DistanceSpacing: 1
BeatDivisor: 2
GridSize: 32
TimelineZoom: 2

[Metadata]
Title:Kto Vse Eti Lyudi?
TitleUnicode:Кто Все Эти Люди?
Artist:PORNOFIL'MY
ArtistUnicode:ПОРНОФИЛЬМЫ
Creator:KeRLi_
Version:Panty's Normal?
Source:
Tags:pornofilmy Russian dream. Part 1 Русская мечта. Часть 1 who are all these people русский рок rock панк punk maruoko daycore melwoine kesha kesha_174 keevy pantydev
BeatmapID:2163999
BeatmapSetID:1027950

[Difficulty]
HPDrainRate:3.5
CircleSize:4
OverallDifficulty:4
ApproachRate:5
SliderMultiplier:0.95
SliderTickRate:1

[Events]
//Background and Video events
0,0,"gb.jpg",0,0
//Break Periods
//Storyboard Layer 0 (Background)
//Storyboard Layer 1 (Fail)
//Storyboard Layer 2 (Pass)
//Storyboard Layer 3 (Foreground)
//Storyboard Layer 4 (Overlay)
//Storyboard Sound Samples

[TimingPoints]
577,322.58064516129,4,3,1,50,1,0
9931,-100,4,3,1,50,0,0
10899,-100,4,3,1,50,0,0
11383,-100,4,3,1,70,0,0
11544,-100,4,3,1,50,0,0
11705,-100,4,3,1,70,0,0
11867,-100,4,3,1,50,0,0
12028,-100,4,3,1,70,0,0
12189,-100,4,3,1,50,0,0
13480,-100,4,3,1,55,0,0
13964,-100,4,3,1,70,0,0
14125,-100,4,3,1,55,0,0
14286,-100,4,3,1,70,0,0
14447,-100,4,3,1,55,0,0
14608,-100,4,3,1,70,0,0
14770,-100,4,3,1,55,0,0
16060,-100,4,3,1,60,0,0
16544,-100,4,3,1,70,0,0
16706,-100,4,3,1,60,0,0
16867,-100,4,3,1,70,0,0
17028,-100,4,3,1,60,0,0
17189,-100,4,3,1,70,0,0
17351,-100,4,3,1,60,0,0
18641,-100,4,3,1,65,0,0
21222,-100,4,3,1,70,0,0
21706,-100,4,3,1,80,0,0
21867,-100,4,3,1,70,0,0
22350,-100,4,3,1,80,0,0
22512,-100,4,3,1,70,0,0
24286,-100,4,3,1,80,0,0
24447,-100,4,3,1,70,0,0
24931,-100,4,3,1,80,0,0
25093,-100,4,3,1,70,0,0
26867,-100,4,3,1,80,0,0
27028,-100,4,3,1,70,0,0
27512,-100,4,3,1,80,0,0
27673,-100,4,3,1,70,0,0
28802,-100,4,3,1,70,0,0
31544,-100,4,3,1,70,0,0
32028,-100,4,3,1,80,0,0
32189,-100,4,3,1,70,0,0
32673,-100,4,3,1,80,0,0
32835,-100,4,3,1,70,0,0
34609,-100,4,3,1,80,0,0
34770,-100,4,3,1,70,0,0
35254,-100,4,3,1,80,0,0
35415,-100,4,3,1,70,0,0
37189,-100,4,3,1,80,0,0
37351,-100,4,3,1,70,0,0
37834,-100,4,3,1,80,0,0
37996,-100,4,3,1,70,0,0
39125,-100,4,3,1,70,0,0
41867,-100,4,3,1,60,0,0
42189,-100,4,3,1,60,0,0
42350,-100,4,3,1,70,0,0
42512,-100,4,3,1,60,0,0
42996,-100,4,3,1,70,0,0
43157,-100,4,3,1,60,0,0
44447,-100,4,3,1,60,0,0
44770,-100,4,3,1,60,0,0
44931,-100,4,3,1,70,0,0
45093,-100,4,3,1,60,0,0
45576,-100,4,3,1,70,0,0
45738,-100,4,3,1,60,0,0
46221,-100,4,3,1,70,0,0
46383,-100,4,3,1,60,0,0
47028,-100,4,3,1,60,0,0
47351,-100,4,3,1,60,0,0
47512,-100,4,3,1,70,0,0
47673,-100,4,3,1,60,0,0
48157,-100,4,3,1,70,0,0
48318,-100,4,3,1,60,0,0
49609,-100,4,3,1,60,0,0
49931,-100,4,3,1,60,0,0
50093,-100,4,3,1,70,0,0
50254,-100,4,3,1,60,0,0
50738,-100,4,3,1,70,0,0
50899,-100,4,3,1,60,0,0
52189,-100,4,3,1,70,0,0
52673,-100,4,3,1,80,0,0
52835,-100,4,3,1,70,0,0
53318,-100,4,3,1,80,0,0
53480,-100,4,3,1,70,0,0
54609,-100,4,3,1,80,0,0
54770,-100,4,3,1,70,0,0
55254,-100,4,3,1,80,0,0
55415,-100,4,3,1,70,0,0
55899,-100,4,3,1,80,0,0
56383,-100,4,3,1,70,0,0
57835,-100,4,3,1,80,0,0
57996,-100,4,3,1,70,0,0
58479,-100,4,3,1,80,0,0
58641,-100,4,3,1,70,0,0
60415,-100,4,3,1,80,0,0
60576,-100,4,3,1,70,0,0
62512,-100,4,3,1,70,0,0
63157,-100,4,3,1,35,0,0
64447,-100,4,3,1,70,0,0
65738,-100,4,3,1,35,0,0
67028,-100,4,3,1,70,0,0
67995,-100,4,3,1,75,0,0
68318,-100,4,3,1,70,0,0
68640,-100,4,3,1,75,0,0
68964,-100,4,3,1,70,0,0
69931,-100,4,3,1,75,0,0
70254,-100,4,3,1,70,0,0
72835,-100,4,3,1,70,0,1
73963,-100,4,3,1,80,0,1
74125,-100,4,3,1,70,0,1
75254,-100,4,3,1,80,0,1
75415,-100,4,3,1,70,0,1
75899,-100,4,3,1,80,0,1
76060,-100,4,3,1,70,0,1
76544,-100,4,3,1,80,0,1
76706,-100,4,3,1,70,0,1
80576,-100,4,3,1,70,0,0

[Colours]
Combo1 : 255,162,117
Combo2 : 151,47,255
Combo3 : 255,255,176
Combo4 : 179,190,255

[HitObjects]
126,64,577,5,4,0:2:0:0:
510,320,3157,5,4,0:2:0:0:
126,320,5738,5,4,0:2:0:0:
510,64,8318,5,4,0:2:0:0:
318,192,9609,6,0,L|222:192,1,95,4|2,0:2|0:2,0:0:0:0:
143,243,10254,2,0,P|139:270|152:303,2,47.5,2|2|2,0:2|0:2|0:2,0:0:0:0:
116,151,10899,6,0,L|108:52,1,95,4|4,0:2|0:3,0:0:0:0:
150,33,11383,1,0,0:0:0:0:
193,51,11544,2,0,P|213:55|258:48,1,47.5,4|0,0:3|0:0,0:0:0:0:
280,27,11867,2,0,P|300:23|345:30,1,47.5,4|0,0:3|0:0,0:0:0:0:
361,57,12189,2,0,P|412:79|465:69,2,95,4|4|4,0:3|0:3|0:3,0:0:0:0:
298,129,13157,1,4,0:3:0:0:
382,173,13480,6,0,L|397:285,1,95,4|4,0:2|0:3,0:0:0:0:
386,314,13964,1,0,0:0:0:0:
347,341,14125,2,0,P|313:348|284:338,1,47.5,4|0,0:3|0:0,0:0:0:0:
260,321,14447,2,0,P|226:314|197:324,1,47.5,4|0,0:3|0:0,0:0:0:0:
172,340,14770,2,0,P|153:294|162:240,2,95,4|4|4,0:3|0:3|0:3,0:0:0:0:
79,361,15738,1,4,0:3:0:0:
35,276,16060,6,0,P|54:230|45:176,1,95,4|4,0:2|0:3,0:0:0:0:
30,142,16544,1,0,0:0:0:0:
61,106,16706,2,0,L|130:113,1,47.5,4|0,0:3|0:0,0:0:0:0:
140,145,17028,2,0,L|209:138,1,47.5,4|0,0:3|0:0,0:0:0:0:
222,108,17351,2,0,P|239:73|226:13,2,95,4|4|4,0:3|0:3|0:3,0:0:0:0:
277,184,18318,1,4,0:3:0:0:
208,250,18641,6,0,P|199:313|207:352,1,95,8|8,0:0|0:0,0:0:0:0:
250,355,19125,1,8,0:0:0:0:
293,335,19286,2,0,L|384:361,1,95,8|8,0:0|0:0,0:0:0:0:
467,325,19931,2,0,L|477:260,1,47.5,8|8,0:0|0:0,0:0:0:0:
455,234,20254,2,0,L|445:169,1,47.5,8|8,0:0|0:0,0:0:0:0:
414,151,20576,2,0,P|414:83|424:57,1,95,8|8,0:0|0:0,0:0:0:0:
332,34,21222,6,0,L|215:40,1,95,4|8,0:2|0:0,0:0:0:0:
194,17,21706,1,0,0:0:0:0:
151,37,21867,2,0,L|133:126,1,47.5,4|4,0:0|0:0,0:0:0:0:
106,115,22189,2,0,L|124:204,1,47.5,8|0,0:0|0:0,0:0:0:0:
96,205,22512,2,0,P|108:265|90:314,2,95,4|8|4,0:3|0:0|0:3,0:0:0:0:
190,197,23480,2,0,L|278:205,1,47.5,8|4,0:0|0:3,0:0:0:0:
272,232,23802,6,0,L|404:240,1,95,4|8,0:2|0:0,0:0:0:0:
412,225,24286,1,0,0:0:0:0:
445,191,24447,2,0,L|516:198,2,47.5,4|4|8,0:3|0:3|0:0,0:0:0:0:
423,148,24931,1,0,0:0:0:0:
448,107,25093,2,0,P|476:60|475:2,2,95,4|8|4,0:3|0:0|0:0,0:0:0:0:
360,70,26060,2,0,L|299:64,1,47.5,8|4,0:0|0:0,0:0:0:0:
272,90,26383,6,0,P|216:95|176:134,1,95,4|8,0:2|0:0,0:0:0:0:
187,165,26867,1,0,0:0:0:0:
166,207,27028,2,0,P|139:194|112:174,2,47.5,4|4|8,0:0|0:0|0:0,0:0:0:0:
174,253,27512,1,0,0:0:0:0:
183,299,27673,2,0,L|68:285,2,95,4|8|4,0:3|0:3|0:0,0:0:0:0:
260,350,28641,2,0,L|325:355,1,47.5,8|4,0:0|0:0,0:0:0:0:
346,325,28964,6,0,P|376:320|411:330,1,47.5,4|4,0:0|0:0,0:0:0:0:
436,340,29286,2,0,P|450:288|436:220,1,95,8|4,0:0|0:0,0:0:0:0:
388,172,29931,2,0,P|374:120|388:52,1,95,8|4,0:0|0:0,0:0:0:0:
306,16,30576,2,0,L|205:25,1,95,8|4,0:0|0:0,0:0:0:0:
140,88,31222,2,0,L|82:80,1,47.5,8|4,0:0|0:0,0:0:0:0:
51,105,31544,6,0,L|61:224,1,95,4|8,0:2|0:0,0:0:0:0:
41,244,32028,1,0,0:0:0:0:
66,284,32189,2,0,P|91:284|126:288,1,47.5,4|4,0:0|0:0,0:0:0:0:
147,318,32512,2,0,P|172:318|207:314,1,47.5,8|0,0:0|0:0,0:0:0:0:
231,285,32835,2,0,P|216:233|221:168,2,95,4|8|4,0:3|0:0|0:3,0:0:0:0:
311,335,33802,2,0,L|373:340,1,47.5,8|4,0:0|0:3,0:0:0:0:
404,326,34125,6,0,P|419:274|414:209,1,95,4|8,0:2|0:0,0:0:0:0:
385,198,34609,1,0,0:0:0:0:
345,171,34770,2,0,P|341:145|349:117,2,47.5,4|4|8,0:3|0:3|0:0,0:0:0:0:
308,201,35254,1,0,0:0:0:0:
267,225,35415,2,0,L|146:212,2,95,4|8|4,0:3|0:0|0:0,0:0:0:0:
315,306,36383,2,0,L|310:362,1,47.5,8|4,0:0|0:0,0:0:0:0:
264,366,36706,6,0,L|169:355,1,95,4|8,0:2|0:0,0:0:0:0:
122,350,37189,1,0,0:0:0:0:
89,315,37351,2,0,L|85:244,1,47.5,4|4,0:0|0:0,0:0:0:0:
57,230,37673,2,0,L|61:159,1,47.5,8|0,0:0|0:0,0:0:0:0:
92,147,37996,2,0,P|152:139|206:164,2,95,4|8|4,0:3|0:3|0:0,0:0:0:0:
16,88,38964,2,0,L|20:31,1,47.5,8|4,0:0|0:0,0:0:0:0:
60,16,39286,6,0,P|89:16|123:28,1,47.5,4|4,0:0|0:0,0:0:0:0:
142,52,39609,2,0,P|202:60|256:35,1,95,8|4,0:0|0:0,0:0:0:0:
316,96,40254,2,0,P|376:88|430:113,1,95,8|4,0:0|0:0,0:0:0:0:
457,179,40899,2,0,L|452:301,1,95,8|4,0:0|0:0,0:0:0:0:
375,328,41544,2,0,L|318:321,1,47.5,8|4,0:0|0:0,0:0:0:0:
282,336,41867,5,4,0:2:0:0:
195,297,42189,2,0,L|131:304,1,47.5,8|0,0:0|0:0,0:0:0:0:
106,326,42512,2,0,L|42:319,1,47.5,4|4,0:0|0:0,0:0:0:0:
38,277,42835,2,0,P|33:256|39:222,1,47.5,8|0,0:0|0:0,0:0:0:0:
71,199,43157,2,0,L|78:72,2,95,4|8|4,0:3|0:0|0:0,0:0:0:0:
165,206,44125,1,8,0:0:0:0:
222,130,44447,6,0,P|284:123|337:150,1,95,4|8,0:0|0:0,0:0:0:0:
340,173,44931,1,0,0:0:0:0:
367,211,45093,2,0,B|381:264|381:264|354:323,1,95,4|8,0:3|0:0,0:0:0:0:
325,327,45576,1,0,0:0:0:0:
281,348,45738,2,0,L|200:334,1,47.5,4|4,0:3|0:3,0:0:0:0:
193,315,46060,2,0,L|112:329,1,47.5,8|0,0:0|0:0,0:0:0:0:
108,352,46383,1,4,0:0:0:0:
57,271,46706,1,8,0:0:0:0:
84,180,47028,6,0,L|91:47,1,95,4|8,0:2|0:0,0:0:0:0:
121,50,47512,1,0,0:0:0:0:
160,23,47673,2,0,L|243:33,1,47.5,4|4,0:0|0:0,0:0:0:0:
238,64,47996,2,0,L|321:54,1,47.5,8|0,0:0|0:0,0:0:0:0:
331,65,48318,2,0,P|357:104|342:173,1,95,4|8,0:3|0:0,0:0:0:0:
285,215,48964,2,0,L|291:262,1,47.5,4|0,0:0|0:2,0:0:0:0:
262,300,49286,1,8,0:0:0:0:
176,340,49609,6,0,P|108:338|73:293,1,95,4|8,0:0|0:0,0:0:0:0:
57,287,50093,1,0,0:0:0:0:
74,242,50254,2,0,L|78:114,1,95,4|8,0:0|0:0,0:0:0:0:
56,103,50738,1,0,0:0:0:0:
86,66,50899,2,0,L|144:67,1,47.5,4|4,0:0|0:0,0:0:0:0:
172,38,51222,2,0,P|243:57|257:89,1,95,8|4,0:0|0:0,0:0:0:0:
291,157,51867,1,8,0:0:0:0:
372,108,52189,6,0,L|487:111,1,95,4|8,0:2|0:0,0:0:0:0:
501,143,52673,1,0,0:0:0:0:
487,188,52835,2,0,L|480:268,1,47.5,4|4,0:0|0:0,0:0:0:0:
456,274,53157,2,0,L|463:354,1,47.5,8|0,0:0|0:0,0:0:0:0:
430,358,53480,2,0,L|316:354,1,95,4|8,0:0|0:0,0:0:0:0:
253,306,54125,2,0,L|139:310,1,95,4|8,0:0|0:0,0:0:0:0:
124,343,54609,1,0,0:0:0:0:
77,331,54770,6,0,P|33:281|42:227,1,95,4|8,0:2|0:0,0:0:0:0:
63,219,55254,1,0,0:0:0:0:
94,183,55415,2,0,L|76:54,1,95,4|8,0:0|0:0,0:0:0:0:
107,49,55899,2,0,P|181:43|211:74,1,95
218,93,56383,1,8,0:0:0:0:
308,63,56706,2,0,L|385:54,1,47.5,4|4,0:0|0:0,0:0:0:0:
396,80,57028,1,8,0:0:0:0:
474,134,57351,6,0,L|451:267,1,95,4|8,0:2|0:0,0:0:0:0:
475,272,57835,1,0,0:0:0:0:
444,308,57996,2,0,P|416:299|373:299,1,47.5,4|4,0:0|0:0,0:0:0:0:
363,329,58318,2,0,P|335:338|292:338,1,47.5,8|0,0:0|0:0,0:0:0:0:
275,317,58641,2,0,L|258:223,1,95,4|8,0:0|0:0,0:0:0:0:
196,151,59286,2,0,P|169:144|109:163,1,47.5,4|4,0:0|0:0,0:0:0:0:
120,182,59609,1,8,0:0:0:0:
45,122,59931,6,0,L|50:22,1,95,4|8,0:2|0:0,0:0:0:0:
94,10,60415,1,0,0:0:0:0:
135,32,60576,2,0,B|163:49|163:49|257:39,1,95,4|8,0:0|0:0,0:0:0:0:
333,49,61222,1,8,0:0:0:0:
324,143,61544,2,0,L|319:215,1,47.5,8|4,0:0|0:0,0:0:0:0:
283,220,61867,2,0,L|279:267,1,47.5,8|4,0:0|0:0,0:0:0:0:
243,297,62189,2,0,L|239:344,1,47.5,8|8,0:0|0:0,0:0:0:0:
199,369,62512,1,4,0:2:0:0:
105,203,63157,5,0,0:0:0:0:
273,115,63802,1,0,0:0:0:0:
101,33,64447,2,0,L|24:33,1,47.5,8|4,0:0|0:0,0:0:0:0:
22,171,65093,5,4,0:2:0:0:
116,335,65738,1,0,0:0:0:0:
244,195,66383,1,0,0:0:0:0:
368,338,67028,2,0,L|439:338,1,47.5,8|4,0:0|0:0,0:0:0:0:
451,199,67673,6,0,P|458:119|440:78,1,95,4|0,0:0|0:0,0:0:0:0:
372,58,68318,2,0,L|261:84,1,95,12|0,0:0|0:0,0:0:0:0:
186,100,68964,2,0,L|75:74,1,95,4|4,0:0|0:0,0:0:0:0:
28,148,69609,2,0,P|20:194|31:240,1,95,8|0,0:0|0:0,0:0:0:0:
102,304,70254,6,0,L|222:318,1,95,8|8,0:0|0:0,0:0:0:0:
232,346,70738,1,8,0:0:0:0:
278,357,70899,2,0,L|374:349,1,95,8|8,0:0|0:0,0:0:0:0:
423,268,71544,2,0,P|438:200|420:143,1,95,8|8,0:0|0:0,0:0:0:0:
402,140,72028,1,8,0:0:0:0:
363,112,72189,2,0,L|279:134,1,47.5,8|8,0:0|0:0,0:0:0:0:
286,160,72512,2,0,L|202:138,1,47.5,8|8,0:0|0:0,0:0:0:0:
189,161,72835,6,0,P|161:225|176:278,1,95,4|8,0:0|0:0,0:0:0:0:
187,340,73480,2,0,L|114:342,1,47.5,4|4,0:0|0:0,0:0:0:0:
92,341,73802,2,0,P|75:314|69:290,1,47.5,8|0,0:0|0:0,0:0:0:0:
50,256,74125,2,0,L|46:128,2,95,4|8|4,0:0|0:0|0:0,0:0:0:0:
145,253,75093,2,0,L|214:255,1,47.5,8|0,0:0|0:0,0:0:0:0:
229,283,75415,6,0,P|291:275|313:215,1,95,4|8,0:0|0:0,0:0:0:0:
332,210,75899,1,0,0:0:0:0:
301,173,76060,2,0,L|288:91,1,47.5,4|4,0:0|0:0,0:0:0:0:
247,114,76383,2,0,L|260:32,1,47.5,8|0,0:0|0:0,0:0:0:0:
225,29,76706,2,0,B|170:45|170:45|106:33,2,95,4|8|4,0:0|0:0|0:0,0:0:0:0:
317,7,77673,2,0,L|380:10,1,47.5,8|4,0:0|0:0,0:0:0:0:
408,27,77996,6,0,P|434:91|431:130,1,95,8|8,0:0|0:0,0:0:0:0:
411,208,78641,2,0,L|347:207,1,47.5,8|0,0:0|0:0,0:0:0:0:
353,253,78964,2,0,L|289:254,1,47.5,8|0,0:0|0:0,0:0:0:0:
270,286,79286,2,0,P|257:339|191:348,2,95,8|8|8,0:0|0:0|0:0,0:0:0:0:
230,258,80093,1,0,0:0:0:0:
231,163,80415,1,0,0:0:0:0:
231,163,80576,6,0,L|227:74,1,47.5,4|4,0:2|0:0,0:0:0:0:
193,83,80899,1,4,0:0:0:0:
278,41,81222,2,0,P|297:48|336:51,1,47.5,8|4,0:0|0:0,0:0:0:0:
353,88,81544,2,0,P|372:81|411:78,1,47.5,4|4,0:0|0:0,0:0:0:0:
443,95,81867,5,4,0:2:0:0:
449,284,82512,1,4,0:2:0:0:
259,281,83157,1,4,0:2:0:0:
253,8,84447,5,4,0:2:0:0:
