osu file format v14

[General]
AudioFilename: audio.mp3
AudioLeadIn: 0
PreviewTime: 62431
Countdown: 0
SampleSet: Drum
StackLeniency: 0.4
Mode: 0
LetterboxInBreaks: 0
WidescreenStoryboard: 1

[Editor]
Bookmarks: 577,10899,21222,41867,52189,62512,72835,83157,84770
DistanceSpacing: 1.2
BeatDivisor: 4
GridSize: 4
TimelineZoom: 1.7

[Metadata]
Title:Kto Vse Eti Lyudi?
TitleUnicode:Кто Все Эти Люди?
Artist:PORNOFIL'MY
ArtistUnicode:ПОРНОФИЛЬМЫ
Creator:KeRLi_
Version:Maruoko's Extra?
Source:
Tags:pornofilmy Russian dream. Part 1 Русская мечта. Часть 1 who are all these people русский рок rock панк punk maruoko daycore melwoine kesha kesha_174 keevy pantydev
BeatmapID:2149448
BeatmapSetID:1027950

[Difficulty]
HPDrainRate:5
CircleSize:4
OverallDifficulty:9
ApproachRate:9.3
SliderMultiplier:1.9
SliderTickRate:1

[Events]
//Background and Video events
0,0,"gb.jpg",0,0
//Break Periods
//Storyboard Layer 0 (Background)
//Storyboard Layer 1 (Fail)
//Storyboard Layer 2 (Pass)
//Storyboard Layer 3 (Foreground)
//Storyboard Layer 4 (Overlay)
//Storyboard Sound Samples

[TimingPoints]
577,322.58064516129,4,3,1,50,1,0
577,-100,4,3,1,50,0,0
899,-100,4,3,1,70,0,0
1060,-133.333333333333,4,3,1,50,0,0
2109,-133.333333333333,4,3,1,5,0,0
2189,-133.333333333333,4,3,1,50,0,0
2431,-133.333333333333,4,3,1,5,0,0
2512,-133.333333333333,4,3,1,50,0,0
2754,-133.333333333333,4,3,1,5,0,0
2835,-133.333333333333,4,3,1,50,0,0
3076,-133.333333333333,4,3,1,5,0,0
3157,-100,4,3,1,50,0,0
3479,-100,4,3,1,70,0,0
3641,-133.333333333333,4,3,1,50,0,0
4689,-133.333333333333,4,3,1,5,0,0
4770,-133.333333333333,4,3,1,50,0,0
5012,-133.333333333333,4,3,1,5,0,0
5093,-133.333333333333,4,3,1,50,0,0
5335,-133.333333333333,4,3,1,5,0,0
5415,-133.333333333333,4,3,1,50,0,0
5657,-133.333333333333,4,3,1,5,0,0
5738,-100,4,3,1,50,0,0
6060,-100,4,3,1,70,0,0
6222,-133.333333333333,4,3,1,50,0,0
7270,-133.333333333333,4,3,1,5,0,0
7351,-133.333333333333,4,3,1,50,0,0
7593,-133.333333333333,4,3,1,5,0,0
7673,-133.333333333333,4,3,1,50,0,0
7915,-133.333333333333,4,3,1,5,0,0
7996,-133.333333333333,4,3,1,50,0,0
8238,-133.333333333333,4,3,1,5,0,0
8318,-100,4,3,1,50,0,0
8802,-133.333333333333,4,3,1,50,0,0
9609,-133.333333333333,4,3,1,50,0,0
9931,-133.333333333333,4,3,1,50,0,0
10899,-100,4,3,1,50,0,0
11141,-100,4,3,1,5,0,0
11222,-100,4,3,1,50,0,0
11383,-100,4,3,1,70,0,0
11544,-100,4,3,1,50,0,0
11706,-100,4,3,1,70,0,0
11867,-100,4,3,1,50,0,0
12028,-100,4,3,1,70,0,0
12189,-100,4,3,1,50,0,0
12673,-100,4,3,1,70,0,0
12835,-100,4,3,1,50,0,0
12996,-100,4,3,1,70,0,0
13157,-100,4,3,1,50,0,0
13318,-100,4,3,1,70,0,0
13480,-100,4,3,1,55,0,0
13722,-100,4,3,1,5,0,0
13802,-100,4,3,1,55,0,0
13964,-100,4,3,1,70,0,0
14125,-100,4,3,1,55,0,0
14286,-100,4,3,1,70,0,0
14447,-100,4,3,1,55,0,0
14608,-100,4,3,1,70,0,0
14770,-100,4,3,1,55,0,0
15254,-100,4,3,1,70,0,0
15415,-100,4,3,1,55,0,0
15576,-100,4,3,1,70,0,0
15738,-100,4,3,1,55,0,0
15899,-100,4,3,1,70,0,0
16060,-100,4,3,1,60,0,0
16302,-100,4,3,1,5,0,0
16383,-100,4,3,1,60,0,0
16544,-100,4,3,1,70,0,0
16706,-100,4,3,1,60,0,0
16867,-100,4,3,1,70,0,0
17028,-100,4,3,1,60,0,0
17189,-100,4,3,1,70,0,0
17351,-100,4,3,1,60,0,0
17835,-100,4,3,1,70,0,0
17996,-100,4,3,1,60,0,0
18157,-100,4,3,1,70,0,0
18318,-100,4,3,1,60,0,0
18480,-100,4,3,1,70,0,0
18641,-100,4,3,1,65,0,0
21222,-100,4,3,1,70,0,0
21464,-100,4,3,1,5,0,0
21544,-100,4,3,1,70,0,0
21706,-100,4,3,1,80,0,0
21867,-100,4,3,1,70,0,0
22351,-100,4,3,1,80,0,0
22512,-100,4,3,1,70,0,0
22996,-100,4,3,1,80,0,0
23157,-100,4,3,1,70,0,0
24044,-100,4,3,1,5,0,0
24125,-100,4,3,1,70,0,0
24286,-100,4,3,1,80,0,0
24447,-100,4,3,1,70,0,0
24931,-100,4,3,1,80,0,0
25093,-100,4,3,1,70,0,0
25576,-100,4,3,1,80,0,0
25738,-100,4,3,1,70,0,0
26625,-100,4,3,1,5,0,0
26706,-100,4,3,1,70,0,0
26867,-100,4,3,1,80,0,0
27028,-100,4,3,1,70,0,0
27512,-100,4,3,1,80,0,0
27673,-100,4,3,1,70,0,0
28157,-100,4,3,1,80,0,0
28318,-100,4,3,1,70,0,0
28802,-100,4,3,1,70,0,0
31544,-100,4,3,1,70,0,0
31786,-100,4,3,1,5,0,0
31867,-100,4,3,1,70,0,0
32028,-100,4,3,1,80,0,0
32189,-100,4,3,1,70,0,0
32673,-100,4,3,1,80,0,0
32835,-100,4,3,1,70,0,0
33318,-100,4,3,1,80,0,0
33480,-100,4,3,1,70,0,0
34367,-100,4,3,1,5,0,0
34447,-100,4,3,1,70,0,0
34609,-100,4,3,1,80,0,0
34770,-100,4,3,1,70,0,0
35254,-100,4,3,1,80,0,0
35415,-100,4,3,1,70,0,0
35899,-100,4,3,1,80,0,0
36060,-100,4,3,1,70,0,0
36947,-100,4,3,1,5,0,0
37028,-100,4,3,1,70,0,0
37189,-100,4,3,1,80,0,0
37351,-100,4,3,1,70,0,0
37835,-100,4,3,1,80,0,0
37996,-100,4,3,1,70,0,0
38479,-100,4,3,1,80,0,0
38641,-100,4,3,1,70,0,0
39125,-100,4,3,1,70,0,0
41867,-100,4,3,1,60,0,0
42109,-100,4,3,1,5,0,0
42189,-133.333333333333,4,3,1,60,0,0
42351,-133.333333333333,4,3,1,70,0,0
42512,-133.333333333333,4,3,1,60,0,0
42996,-133.333333333333,4,3,1,70,0,0
43157,-133.333333333333,4,3,1,60,0,0
44447,-100,4,3,1,60,0,0
44689,-100,4,3,1,5,0,0
44770,-133.333333333333,4,3,1,60,0,0
44931,-133.333333333333,4,3,1,70,0,0
45093,-133.333333333333,4,3,1,60,0,0
45576,-133.333333333333,4,3,1,70,0,0
45738,-133.333333333333,4,3,1,60,0,0
45819,-133.333333333333,4,3,1,70,0,0
45899,-133.333333333333,4,3,1,60,0,0
46222,-133.333333333333,4,3,1,70,0,0
46383,-133.333333333333,4,3,1,60,0,0
47028,-100,4,3,1,60,0,0
47270,-100,4,3,1,5,0,0
47351,-133.333333333333,4,3,1,60,0,0
47512,-133.333333333333,4,3,1,70,0,0
47673,-133.333333333333,4,3,1,60,0,0
48157,-133.333333333333,4,3,1,70,0,0
48318,-133.333333333333,4,3,1,60,0,0
49609,-100,4,3,1,60,0,0
49851,-100,4,3,1,5,0,0
49931,-133.333333333333,4,3,1,60,0,0
50093,-133.333333333333,4,3,1,70,0,0
50254,-133.333333333333,4,3,1,60,0,0
50738,-133.333333333333,4,3,1,70,0,0
50899,-133.333333333333,4,3,1,60,0,0
52189,-100,4,3,1,70,0,0
52431,-100,4,3,1,5,0,0
52512,-100,4,3,1,70,0,0
52673,-100,4,3,1,80,0,0
52835,-100,4,3,1,70,0,0
53318,-100,4,3,1,80,0,0
53480,-100,4,3,1,70,0,0
53641,-100,4,3,1,80,0,0
53802,-100,4,3,1,70,0,0
53963,-100,4,3,1,80,0,0
54125,-100,4,3,1,70,0,0
54608,-100,4,3,1,80,0,0
54770,-100,4,3,1,70,0,0
55012,-100,4,3,1,5,0,0
55093,-100,4,3,1,70,0,0
55254,-100,4,3,1,80,0,0
55415,-100,4,3,1,70,0,0
55899,-100,4,3,1,80,0,0
56060,-100,4,3,1,70,0,0
56222,-100,4,3,1,80,0,0
56383,-100,4,3,1,70,0,0
56544,-100,4,3,1,80,0,0
56706,-100,4,3,1,70,0,0
57189,-100,4,3,1,80,0,0
57351,-100,4,3,1,70,0,0
57593,-100,4,3,1,5,0,0
57673,-100,4,3,1,70,0,0
57835,-100,4,3,1,80,0,0
57996,-100,4,3,1,70,0,0
58480,-100,4,3,1,80,0,0
58641,-100,4,3,1,70,0,0
58802,-100,4,3,1,80,0,0
58964,-100,4,3,1,70,0,0
59125,-100,4,3,1,80,0,0
59286,-100,4,3,1,70,0,0
59770,-100,4,3,1,80,0,0
59931,-100,4,3,1,70,0,0
60173,-100,4,3,1,5,0,0
60254,-100,4,3,1,70,0,0
60415,-100,4,3,1,80,0,0
60576,-100,4,3,1,70,0,0
61060,-100,4,3,1,80,0,0
61222,-100,4,3,1,70,0,0
62512,-200,4,3,1,70,0,0
63076,-200,4,3,1,5,0,0
63157,-200,4,3,1,35,0,0
63722,-200,4,3,1,5,0,0
63802,-200,4,3,1,35,0,0
64367,-200,4,3,1,5,0,0
64447,-200,4,3,1,70,0,0
65657,-200,4,3,1,5,0,0
65738,-200,4,3,1,35,0,0
66302,-200,4,3,1,5,0,0
66383,-200,4,3,1,35,0,0
66947,-200,4,3,1,5,0,0
67028,-200,4,3,1,70,0,0
70093,-200,4,3,1,75,0,0
70254,-200,4,3,1,70,0,0
70899,-133.333333333333,4,3,1,70,0,0
71544,-100,4,3,1,70,0,0
72189,-80,4,3,1,70,0,0
72835,-80,4,3,1,70,0,1
73318,-80,4,3,1,80,0,1
73480,-80,4,3,1,70,0,1
73964,-80,4,3,1,80,0,1
74125,-80,4,3,1,70,0,1
74608,-80,4,3,1,80,0,1
74770,-80,4,3,1,70,0,1
75254,-80,4,3,1,80,0,1
75415,-80,4,3,1,70,0,1
75899,-80,4,3,1,80,0,1
76060,-80,4,3,1,70,0,1
76544,-80,4,3,1,80,0,1
76706,-80,4,3,1,70,0,1
77189,-80,4,3,1,80,0,1
77351,-80,4,3,1,70,0,1
80496,-80,4,3,1,80,0,1
80576,-80,4,3,1,70,0,1
81867,-133.333333333333,4,3,1,70,0,0
82189,-133.333333333333,4,3,1,5,0,0
82512,-133.333333333333,4,3,1,70,0,0
82835,-133.333333333333,4,3,1,5,0,0
83157,-250,4,3,1,70,0,0
84367,-250,4,3,1,5,0,0
84447,-166.666666666667,4,3,1,70,0,0
84770,-166.666666666667,4,3,1,5,0,0

[Colours]
Combo1 : 255,162,117
Combo2 : 151,47,255
Combo3 : 255,255,176
Combo4 : 179,190,255

[HitObjects]
203,251,577,6,0,B|117:243|117:243|105:249|105:249|-15:238,1,190,4|0,0:2|0:0,0:0:0:0:
1,97,1060,5,2,0:2:0:0:
1,97,1222,2,0,L|87:90,1,71.2500027179719,2|2,0:2|0:2,0:0:0:0:
126,162,1544,2,0,L|198:168,1,71.2500027179719,2|2,0:2|0:2,0:0:0:0:
316,84,1867,6,0,B|296:104|296:104|300:196,1,106.875004076958,2|0,0:2|0:0,0:0:0:0:
332,248,2189,2,0,B|388:232|388:232|441:239,1,106.875004076958,2|0,0:2|0:0,0:0:0:0:
500,284,2512,2,0,B|468:240|468:240|488:192,1,106.875004076958,2|0,0:2|0:0,0:0:0:0:
436,140,2835,2,0,B|468:184|468:184|448:232,1,106.875004076958,2|0,0:2|0:0,0:0:0:0:
332,248,3157,6,0,B|246:255|246:255|234:249|234:249|113:260,1,190,4|0,0:2|0:0,0:0:0:0:
68,384,3641,5,2,0:2:0:0:
68,384,3802,2,0,L|72:312,1,71.2500027179719,2|2,0:2|0:2,0:0:0:0:
8,228,4125,2,0,L|4:156,1,71.2500027179719,2|2,0:2|0:2,0:0:0:0:
140,36,4447,6,0,L|133:154,1,106.875004076958,2|0,0:2|0:0,0:0:0:0:
165,214,4770,2,0,B|181:198|181:198|277:206,1,106.875004076958,2|0,0:2|0:0,0:0:0:0:
320,259,5093,2,0,B|348:211|348:211|324:159,1,106.875004076958,2|0,0:2|0:0,0:0:0:0:
277,102,5415,2,0,B|249:54|249:54|269:2,1,106.875004076958,2|0,0:2|0:0,0:0:0:0:
396,20,5738,6,0,B|388:105|388:105|380:116|380:116|369:237,1,190,4|0,0:2|0:0,0:0:0:0:
320,339,6222,5,2,0:2:0:0:
320,339,6383,2,0,L|232:335,1,71.2500027179719,2|2,0:2|0:2,0:0:0:0:
180,264,6706,2,0,L|92:268,1,71.2500027179719,2|2,0:2|0:2,0:0:0:0:
87,117,7028,2,0,B|92:92|92:92|153:86|153:86|167:114,1,106.875004076958,2|0,0:2|0:0,0:0:0:0:
185,181,7351,2,0,L|73:193,1,106.875004076958,2|0,0:2|0:0,0:0:0:0:
8,153,7673,2,0,L|20:37,1,106.875004076958,2|0,0:2|0:0,0:0:0:0:
92,13,7996,2,0,L|198:1,1,106.875004076958,2|0,0:2|0:0,0:0:0:0:
304,64,8318,6,0,B|311:149|311:149|319:160|319:160|330:281,1,190,4|2,0:2|0:2,0:0:0:0:
482,334,8802,1,2,0:2:0:0:
482,334,8964,2,0,L|486:254,1,71.2500027179719,2|2,0:2|0:2,0:0:0:0:
405,173,9286,2,0,L|408:244,1,71.2500027179719,2|2,0:2|0:2,0:0:0:0:
256,380,9609,1,4,0:2:0:0:
256,380,9931,5,2,0:2:0:0:
180,344,10093,1,2,0:2:0:0:
176,336,10173,1,2,0:2:0:0:
176,328,10254,1,2,0:2:0:0:
256,295,10415,1,2,0:2:0:0:
336,347,10576,1,2,0:2:0:0:
11,305,10899,6,0,B|17:208|17:208|30:233|55:244,1,142.5,4|0,0:2|0:0,0:0:0:0:
120,252,11222,1,4,0:3:0:0:
83,91,11383,5,0,0:0:0:0:
84,176,11544,1,4,0:3:0:0:
128,248,11706,1,0,0:0:0:0:
119,14,11867,5,4,0:3:0:0:
92,96,12028,1,0,0:0:0:0:
160,152,12189,1,4,0:3:0:0:
165,154,12270,1,0,0:2:0:0:
170,155,12351,1,0,0:2:0:0:
175,155,12431,1,0,0:2:0:0:
180,154,12512,5,4,0:3:0:0:
252,96,12673,1,0,0:0:0:0:
324,228,12835,1,4,0:3:0:0:
252,170,12996,1,0,0:0:0:0:
180,302,13157,1,4,0:3:0:0:
252,244,13318,1,0,0:0:0:0:
392,360,13480,6,0,B|416:340|456:332|456:332|416:336|376:320,1,142.5,4|0,0:2|0:0,0:0:0:0:
319,354,13802,1,4,0:3:0:0:
133,375,13964,5,0,0:0:0:0:
180,302,14125,1,4,0:3:0:0:
141,225,14286,1,0,0:0:0:0:
43,360,14447,5,4,0:3:0:0:
129,364,14608,1,0,0:0:0:0:
9,264,14770,1,4,0:3:0:0:
7,269,14851,1,0,0:2:0:0:
6,274,14932,1,0,0:2:0:0:
6,278,15012,1,0,0:2:0:0:
7,284,15093,5,4,0:3:0:0:
92,296,15254,1,0,0:0:0:0:
42,193,15415,1,4,0:3:0:0:
127,205,15576,1,0,0:0:0:0:
77,102,15738,1,4,0:3:0:0:
162,114,15899,1,0,0:0:0:0:
283,249,16060,6,0,B|274:137|274:137|301:163,1,142.5,4|0,0:2|0:0,0:0:0:0:
354,205,16383,1,4,0:3:0:0:
429,49,16544,5,0,0:0:0:0:
360,112,16706,1,4,0:3:0:0:
363,206,16867,1,0,0:0:0:0:
508,302,17028,5,4,0:3:0:0:
512,209,17189,1,0,0:0:0:0:
451,139,17351,1,4,0:3:0:0:
446,138,17432,1,0,0:2:0:0:
441,138,17512,1,0,0:2:0:0:
436,139,17593,1,0,0:2:0:0:
431,141,17674,5,4,0:3:0:0:
363,206,17835,1,0,0:0:0:0:
281,162,17996,1,4,0:3:0:0:
360,112,18157,1,0,0:0:0:0:
255,294,18318,1,4,0:3:0:0:
157,278,18480,1,0,0:0:0:0:
79,214,18641,5,8,0:0:0:0:
84,178,18721,1,8,0:0:0:0:
103,147,18802,1,8,0:0:0:0:
134,128,18882,1,8,0:0:0:0:
169,123,18963,1,8,0:0:0:0:
204,133,19044,1,8,0:0:0:0:
230,157,19124,1,8,0:0:0:0:
244,190,19205,1,8,0:0:0:0:
243,226,19286,5,8,0:0:0:0:
242,261,19366,1,8,0:0:0:0:
255,294,19447,1,8,0:0:0:0:
283,319,19527,1,8,0:0:0:0:
317,328,19608,1,8,0:0:0:0:
352,324,19689,1,8,0:0:0:0:
382,304,19770,1,8,0:0:0:0:
401,274,19850,1,8,0:0:0:0:
406,238,19931,5,8,0:0:0:0:
371,239,20011,1,8,0:0:0:0:
341,258,20092,1,8,0:0:0:0:
322,289,20172,1,8,0:0:0:0:
322,325,20253,1,8,0:0:0:0:
339,357,20334,1,8,0:0:0:0:
369,376,20414,1,8,0:0:0:0:
404,379,20495,1,8,0:0:0:0:
437,364,20576,5,8,0:0:0:0:
436,328,20656,1,8,0:0:0:0:
435,292,20737,1,8,0:0:0:0:
434,256,20817,1,8,0:0:0:0:
433,220,20899,2,0,L|430:153,1,47.5,8|8,0:0|0:0,0:0:0:0:
336,80,21060,1,8,0:0:0:0:
336,80,21141,1,8,0:0:0:0:
336,80,21222,6,0,B|292:60|256:84|256:84|216:112|184:96,1,142.5,4|0,0:2|0:0,0:0:0:0:
124,82,21544,1,8,0:0:0:0:
301,156,21706,5,0,0:0:0:0:
115,193,21867,1,4,0:0:0:0:
315,157,22028,1,4,0:0:0:0:
50,133,22189,1,8,0:0:0:0:
213,233,22351,1,0,0:0:0:0:
74,324,22512,2,0,L|78:230,1,95,4|4,0:3|0:3,0:0:0:0:
226,146,22835,2,0,L|231:240,1,95,8|0,0:0|0:0,0:0:0:0:
147,372,23157,2,0,L|152:277,1,95,4|4,0:3|0:3,0:0:0:0:
305,194,23480,2,0,L|309:288,1,95,8|4,0:0|0:3,0:0:0:0:
476,378,23802,6,0,B|470:317|470:317|486:284|486:284|480:223,1,142.5,4|0,0:2|0:0,0:0:0:0:
471,161,24125,1,8,0:0:0:0:
393,340,24286,5,0,0:0:0:0:
376,143,24447,1,4,0:3:0:0:
509,290,24609,1,4,0:3:0:0:
468,149,24770,1,8,0:0:0:0:
264,261,24931,1,0,0:0:0:0:
361,173,25093,6,0,L|474:164,1,95,4|4,0:3|0:3,0:0:0:0:
277,342,25415,2,0,L|164:333,1,95,8|0,0:0|0:0,0:0:0:0:
365,164,25738,2,0,L|489:154,1,95,4|4,0:0|0:0,0:0:0:0:
272,350,26060,2,0,L|148:340,1,95,8|4,0:0|0:0,0:0:0:0:
47,150,26383,6,0,B|60:135|72:112|72:112|80:217,1,142.5,4|0,0:2|0:0,0:0:0:0:
88,286,26706,1,8,0:0:0:0:
160,116,26867,5,0,0:0:0:0:
11,256,27028,1,4,0:0:0:0:
214,240,27189,1,4,0:0:0:0:
9,87,27351,1,8,0:0:0:0:
79,208,27512,1,0,0:0:0:0:
160,116,27673,6,0,L|264:107,1,95,4|4,0:3|0:3,0:0:0:0:
398,231,27996,2,0,L|294:222,1,95,8|0,0:3|0:0,0:0:0:0:
112,207,28318,2,0,L|226:197,1,95,4|4,0:0|0:0,0:0:0:0:
373,333,28641,6,0,L|258:323,1,95,8|4,0:0|0:0,0:0:0:0:
200,341,28883,1,4,0:0:0:0:
183,340,28963,1,4,0:0:0:0:
303,222,29125,1,4,0:0:0:0:
66,123,29286,6,0,L|180:132,1,95,8|4,0:0|0:0,0:0:0:0:
239,115,29528,1,4,0:0:0:0:
256,116,29608,1,4,0:0:0:0:
136,234,29770,1,4,0:0:0:0:
373,333,29931,6,0,L|258:323,1,95,8|4,0:0|0:0,0:0:0:0:
200,341,30173,1,4,0:0:0:0:
183,340,30253,1,4,0:0:0:0:
303,222,30415,1,4,0:0:0:0:
66,123,30576,6,0,L|180:132,1,95,8|4,0:0|0:0,0:0:0:0:
239,115,30818,1,4,0:0:0:0:
256,116,30898,1,4,0:0:0:0:
136,234,31060,1,4,0:0:0:0:
373,333,31222,1,8,0:0:0:0:
336,144,31383,1,4,0:0:0:0:
183,340,31544,6,0,B|73:335|73:335|53:298,1,142.5,4|0,0:2|0:0,0:0:0:0:
35,233,31867,1,8,0:0:0:0:
234,274,32028,5,0,0:0:0:0:
114,128,32189,1,4,0:0:0:0:
247,285,32351,1,4,0:0:0:0:
236,54,32512,1,8,0:0:0:0:
167,206,32673,1,0,0:0:0:0:
312,162,32835,6,0,L|317:58,1,95,4|4,0:3|0:3,0:0:0:0:
431,8,33157,2,0,L|435:102,1,95,8|0,0:0|0:0,0:0:0:0:
389,293,33480,6,0,L|394:189,1,95,4|4,0:3|0:3,0:0:0:0:
508,139,33802,2,0,L|512:233,1,95,8|4,0:0|0:3,0:0:0:0:
297,376,34125,6,0,B|274:349|274:349|162:344,1,142.5,4|0,0:2|0:0,0:0:0:0:
96,382,34447,1,8,0:0:0:0:
229,268,34609,5,0,0:0:0:0:
20,294,34770,1,4,0:3:0:0:
247,262,34931,1,4,0:3:0:0:
44,126,35093,1,8,0:0:0:0:
107,290,35254,1,0,0:0:0:0:
216,177,35415,6,0,L|329:165,1,95,4|4,0:3|0:3,0:0:0:0:
471,314,35738,2,0,L|358:302,1,95,8|0,0:0|0:0,0:0:0:0:
212,168,36060,2,0,L|336:154,1,95,4|4,0:0|0:0,0:0:0:0:
476,324,36383,2,0,L|352:311,1,95,8|4,0:0|0:0,0:0:0:0:
204,363,36706,6,0,B|162:376|133:349|133:349|102:323|61:342,1,142.5,4|0,0:2|0:0,0:0:0:0:
4,383,37028,1,8,0:0:0:0:
198,283,37189,5,0,0:0:0:0:
12,181,37351,1,4,0:0:0:0:
95,377,37512,1,4,0:0:0:0:
123,118,37673,1,8,0:0:0:0:
49,268,37835,1,0,0:0:0:0:
230,187,37996,6,0,L|215:285,1,95,4|4,0:3|0:3,0:0:0:0:
346,340,38318,2,0,L|331:246,1,95,8|0,0:3|0:0,0:0:0:0:
339,59,38641,2,0,L|343:156,1,95,4|4,0:0|0:0,0:0:0:0:
492,207,38963,6,0,L|495:112,1,95,8|4,0:0|0:0,0:0:0:0:
467,35,39206,1,4,0:0:0:0:
468,13,39286,1,4,0:0:0:0:
325,71,39447,1,4,0:0:0:0:
135,9,39609,6,0,L|131:103,1,95,8|4,0:0|0:0,0:0:0:0:
160,181,39852,1,4,0:0:0:0:
159,203,39932,1,4,0:0:0:0:
302,145,40093,1,4,0:0:0:0:
492,207,40254,6,0,L|495:112,1,95,8|4,0:0|0:0,0:0:0:0:
467,35,40497,1,4,0:0:0:0:
468,13,40577,1,4,0:0:0:0:
325,71,40738,1,4,0:0:0:0:
135,9,40900,6,0,L|131:103,1,95,8|4,0:0|0:0,0:0:0:0:
160,181,41141,1,4,0:0:0:0:
159,203,41223,1,4,0:0:0:0:
302,145,41384,1,4,0:0:0:0:
421,258,41544,1,8,0:0:0:0:
297,164,41706,1,4,0:0:0:0:
192,345,41867,6,0,B|115:361|115:361|38:334,1,142.5,4|0,0:2|0:0,0:0:0:0:
4,281,42189,1,8,0:0:0:0:
4,281,42351,1,0,0:0:0:0:
121,277,42512,1,4,0:0:0:0:
4,264,42673,1,4,0:0:0:0:
158,207,42835,1,8,0:0:0:0:
158,207,42996,1,0,0:0:0:0:
113,115,43157,5,4,0:3:0:0:
113,102,43238,1,0,0:2:0:0:
115,90,43318,1,0,0:2:0:0:
119,78,43399,1,0,0:2:0:0:
125,66,43480,2,0,P|173:58|211:71,1,71.2500027179719,8|0,0:0|0:2,0:0:0:0:
296,128,43802,2,0,L|304:228,1,71.2500027179719,4|0,0:0|0:2,0:0:0:0:
192,345,44125,2,0,L|199:250,1,71.2500027179719,8|0,0:0|0:2,0:0:0:0:
444,204,44447,6,0,B|417:197|400:173|400:173|416:216|409:275,1,142.5,4|0,0:0|0:0,0:0:0:0:
391,333,44770,1,8,0:0:0:0:
391,333,44931,1,0,0:0:0:0:
303,222,45093,2,0,P|265:195|229:192,1,71.2500027179719,4|4,0:3|0:3,0:0:0:0:
69,216,45415,1,8,0:0:0:0:
109,101,45576,1,0,0:0:0:0:
64,234,45738,5,4,0:3:0:0:
64,247,45819,1,0,0:0:0:0:
66,259,45899,1,4,0:3:0:0:
244,272,46060,1,8,0:0:0:0:
152,212,46222,1,0,0:0:0:0:
116,336,46383,2,0,L|196:332,1,71.2500027179719,4|4,0:0|0:0,0:0:0:0:
384,320,46706,2,0,L|293:316,1,71.2500027179719,8|4,0:0|0:0,0:0:0:0:
244,58,47028,6,0,B|236:108|236:108|260:148|260:148|252:216,1,142.5,4|0,0:2|0:0,0:0:0:0:
244,272,47351,1,8,0:0:0:0:
244,272,47512,1,0,0:0:0:0:
180,160,47673,1,4,0:0:0:0:
324,192,47835,1,4,0:0:0:0:
136,240,47996,1,8,0:0:0:0:
136,240,48157,1,0,0:0:0:0:
52,200,48318,5,4,0:3:0:0:
39,200,48399,1,0,0:2:0:0:
27,202,48479,1,0,0:2:0:0:
15,206,48560,1,0,0:2:0:0:
3,212,48641,2,0,L|6:303,1,71.2500027179719,8|0,0:0|0:2,0:0:0:0:
96,380,48964,1,4,0:0:0:0:
96,380,49125,1,0,0:2:0:0:
136,240,49286,2,0,L|138:161,1,71.2500027179719,8|0,0:0|0:2,0:0:0:0:
40,24,49609,6,0,B|79:12|113:33|113:33|120:28|120:28|156:46|193:30,1,142.5,4|0,0:0|0:0,0:0:0:0:
252,16,49931,1,8,0:0:0:0:
252,16,50093,1,0,0:0:0:0:
152,136,50254,2,0,L|149:212,1,71.2500027179719,4|4,0:0|0:0,0:0:0:0:
196,320,50576,1,8,0:0:0:0:
196,320,50738,1,0,0:0:0:0:
292,113,50899,2,0,L|295:203,1,71.2500027179719,4|4,0:0|0:0,0:0:0:0:
196,336,51222,5,8,0:0:0:0:
128,232,51383,1,8,0:0:0:0:
280,308,51544,1,4,0:0:0:0:
280,308,51706,1,4,0:0:0:0:
92,328,51867,1,8,0:0:0:0:
322,383,52028,1,4,0:0:0:0:
322,383,52109,1,4,0:0:0:0:
322,383,52189,6,0,P|358:347|350:259,1,142.5,4|0,0:2|0:0,0:0:0:0:
296,208,52512,1,8,0:0:0:0:
296,208,52673,1,0,0:0:0:0:
196,304,52835,1,4,0:0:0:0:
312,196,52996,1,4,0:0:0:0:
128,232,53157,2,0,L|24:228,1,95,8|0,0:0|0:0,0:0:0:0:
316,92,53480,6,0,P|332:148|324:188,1,95,4|0,0:0|0:0,0:0:0:0:
120,104,53802,2,0,P|114:57|129:12,1,95,8|0,0:0|0:0,0:0:0:0:
328,88,54125,2,0,P|345:148|337:191,1,95,4|4,0:0|0:0,0:0:0:0:
108,108,54447,2,0,P|102:58|118:10,1,95,8|0,0:0|0:0,0:0:0:0:
424,57,54770,6,0,P|452:142|436:210,1,142.5,4|0,0:2|0:0,0:0:0:0:
398,261,55093,1,8,0:0:0:0:
398,261,55254,1,0,0:0:0:0:
262,146,55415,2,0,L|378:134,1,95,4|4,0:0|0:0,0:0:0:0:
332,312,55738,5,8,0:0:0:0:
332,312,55899,2,0,L|216:300,1,95,0|4,0:0|0:0,0:0:0:0:
64,256,56222,2,0,L|180:244,1,95,0|8,0:0|0:0,0:0:0:0:
176,352,56544,1,0,0:0:0:0:
20,324,56706,1,4,0:0:0:0:
192,356,56867,1,4,0:0:0:0:
96,168,57028,2,0,L|-20:156,1,95,8|0,0:0|0:0,0:0:0:0:
164,64,57351,6,0,B|224:60|224:60|256:80|256:80|324:76,1,142.5,4|0,0:2|0:0,0:0:0:0:
380,68,57673,1,8,0:0:0:0:
380,68,57835,1,0,0:0:0:0:
272,4,57996,1,4,0:0:0:0:
208,136,58157,1,4,0:0:0:0:
80,32,58318,1,8,0:0:0:0:
80,32,58480,1,0,0:0:0:0:
216,152,58641,6,0,L|324:148,1,95,4|0,0:0|0:0,0:0:0:0:
116,228,58964,2,0,L|8:224,1,95,8|0,0:0|0:0,0:0:0:0:
272,236,59286,2,0,L|380:232,1,95,4|4,0:0|0:0,0:0:0:0:
172,312,59609,2,0,L|64:308,1,95,8|0,0:0|0:0,0:0:0:0:
432,352,59931,6,0,B|456:328|456:328|452:208,1,142.5,4|0,0:2|0:0,0:0:0:0:
448,140,60254,1,8,0:0:0:0:
448,140,60415,1,0,0:0:0:0:
368,256,60576,5,4,0:0:0:0:
460,120,60738,1,4,0:0:0:0:
296,16,60899,2,0,L|303:110,1,95,8|0,0:0|0:0,0:0:0:0:
264,224,61222,5,8,0:0:0:0:
208,64,61383,1,4,0:0:0:0:
172,272,61544,1,8,0:0:0:0:
288,116,61706,1,4,0:0:0:0:
260,328,61867,1,8,0:0:0:0:
148,140,62028,1,4,0:0:0:0:
368,236,62189,5,8,0:0:0:0:
124,364,62351,1,8,0:0:0:0:
384,224,62512,6,0,B|357:246|344:276|344:276|348:224|332:172,1,166.25,4|0,0:2|0:0,0:0:0:0:
288,116,63157,2,0,P|308:200|316:284,1,166.25
256,332,63802,2,0,P|216:288|120:320,1,166.25
92,384,64447,5,8,0:0:0:0:
212,192,64609,1,4,0:0:0:0:
29,73,65093,6,0,B|69:85|105:53|105:53|145:21|189:33,1,166.25,4|0,0:2|0:0,0:0:0:0:
233,93,65738,2,0,P|293:109|381:61,1,166.25
445,17,66383,2,0,P|409:57|413:165,1,166.25
469,221,67028,5,8,0:0:0:0:
297,33,67189,1,4,0:0:0:0:
281,337,67673,5,4,0:0:0:0:
377,261,67835,1,4,0:0:0:0:
381,269,68157,5,4,0:0:0:0:
205,277,68319,1,12,0:0:0:0:
285,193,68480,1,4,0:0:0:0:
289,201,68802,5,4,0:0:0:0:
193,125,68964,1,4,0:0:0:0:
189,133,69286,5,4,0:0:0:0:
285,57,69448,1,4,0:0:0:0:
193,225,69609,1,8,0:0:0:0:
337,129,69770,1,4,0:0:0:0:
333,137,70093,5,0,0:0:0:0:
512,16,70254,5,8,0:0:0:0:
508,38,70334,1,8,0:0:0:0:
504,62,70415,1,8,0:0:0:0:
500,86,70495,1,8,0:0:0:0:
497,109,70576,1,8,0:0:0:0:
493,132,70657,1,8,0:0:0:0:
490,156,70737,1,8,0:0:0:0:
487,179,70818,1,8,0:0:0:0:
483,203,70899,5,8,0:0:0:0:
456,179,70979,1,8,0:0:0:0:
421,172,71060,1,8,0:0:0:0:
387,182,71140,1,8,0:0:0:0:
363,207,71222,1,8,0:0:0:0:
338,232,71302,1,8,0:0:0:0:
305,242,71383,1,8,0:0:0:0:
270,235,71463,1,8,0:0:0:0:
243,212,71544,5,8,0:0:0:0:
282,185,71624,1,8,0:0:0:0:
328,185,71705,1,8,0:0:0:0:
367,212,71786,1,8,0:0:0:0:
384,255,71866,1,8,0:0:0:0:
374,301,71947,1,8,0:0:0:0:
339,333,72027,1,8,0:0:0:0:
293,340,72108,1,8,0:0:0:0:
251,320,72189,5,8,0:0:0:0:
246,260,72269,1,8,0:0:0:0:
242,201,72350,1,8,0:0:0:0:
238,142,72430,1,8,0:0:0:0:
233,83,72512,1,8,0:0:0:0:
194,40,72592,1,8,0:0:0:0:
137,36,72673,1,8,0:0:0:0:
92,73,72753,1,8,0:0:0:0:
85,130,72835,5,4,0:0:0:0:
304,108,72996,1,4,0:0:0:0:
16,40,73157,1,8,0:0:0:0:
16,40,73318,1,0,0:0:0:0:
162,110,73480,1,4,0:0:0:0:
8,180,73641,1,4,0:0:0:0:
164,368,73802,5,8,0:0:0:0:
164,368,73964,1,0,0:0:0:0:
100,220,74125,1,4,0:0:0:0:
4,350,74286,1,4,0:0:0:0:
260,238,74447,2,0,B|322:226|322:226|398:244,1,118.75,8|0,0:0|0:0,0:0:0:0:
162,110,74770,2,0,B|107:122|107:122|45:110,1,118.75,4|4,0:0|0:0,0:0:0:0:
267,39,75093,1,8,0:0:0:0:
267,39,75254,1,0,0:0:0:0:
260,238,75415,6,0,L|252:356,1,118.75,4|4,0:0|0:0,0:0:0:0:
380,211,75738,1,8,0:0:0:0:
380,211,75899,1,0,0:0:0:0:
201,183,76060,1,4,0:0:0:0:
401,217,76222,1,4,0:0:0:0:
174,384,76383,1,8,0:0:0:0:
174,384,76544,1,0,0:0:0:0:
42,209,76706,6,0,L|47:91,1,118.75,4|4,0:0|0:0,0:0:0:0:
273,244,77028,2,0,L|268:362,1,118.75,8|0,0:0|0:0,0:0:0:0:
28,200,77351,2,0,L|33:82,1,118.75,4|4,0:0|0:0,0:0:0:0:
243,35,77673,1,8,0:0:0:0:
145,197,77835,1,4,0:0:0:0:
145,197,77915,1,4,0:0:0:0:
145,197,77996,5,8,0:0:0:0:
369,118,78157,1,0,0:0:0:0:
130,82,78318,1,8,0:0:0:0:
385,116,78480,1,0,0:0:0:0:
201,293,78641,1,8,0:0:0:0:
243,35,78802,1,0,0:0:0:0:
351,271,78964,1,8,0:0:0:0:
60,162,79125,1,0,0:0:0:0:
343,43,79286,5,8,0:0:0:0:
46,164,79447,1,0,0:0:0:0:
373,193,79609,1,8,0:0:0:0:
150,83,79770,1,0,0:0:0:0:
284,350,79931,1,8,0:0:0:0:
284,110,80093,1,0,0:0:0:0:
102,270,80254,1,8,0:0:0:0:
358,286,80415,1,0,0:0:0:0:
358,286,80496,1,0,0:0:0:0:
358,286,80576,5,4,0:2:0:0:
207,203,80738,1,4,0:0:0:0:
199,307,80899,1,4,0:0:0:0:
199,307,81060,1,4,0:0:0:0:
425,170,81222,5,8,0:0:0:0:
312,183,81383,1,4,0:0:0:0:
491,263,81544,1,4,0:0:0:0:
500,274,81624,1,4,0:0:0:0:
507,287,81705,1,4,0:0:0:0:
512,301,81785,1,4,0:0:0:0:
512,337,81867,6,0,B|470:316|437:341|437:341|408:366|368:358,1,142.500005435944,4|0,0:2|0:0,0:0:0:0:
0,241,82512,6,0,B|42:220|75:245|75:245|104:270|144:262,1,142.500005435944,4|0,0:2|0:0,0:0:0:0:
428,92,83157,6,0,B|378:63|332:92|332:92|288:120|236:92|236:92|250:41|292:36,1,285,4|0,0:2|0:0,0:0:0:0:
379,156,84447,6,0,L|385:283,1,113.999996520996,4|0,0:2|0:0,0:0:0:0:
