osu file format v14

[General]
AudioFilename: audio.mp3
AudioLeadIn: 0
PreviewTime: 62431
Countdown: 0
SampleSet: Drum
StackLeniency: 0.7
Mode: 0
LetterboxInBreaks: 0
WidescreenStoryboard: 0

[Editor]
Bookmarks: 577,10899,21222,31544,41867,52189,62512,72835,81867
DistanceSpacing: 1.2
BeatDivisor: 4
GridSize: 4
TimelineZoom: 2.2

[Metadata]
Title:Kto Vse Eti Lyudi?
TitleUnicode:Кто Все Эти Люди?
Artist:PORNOFIL'MY
ArtistUnicode:ПОРНОФИЛЬМЫ
Creator:KeRLi_
Version:Expert?
Source:
Tags:pornofilmy Russian dream. Part 1 Русская мечта. Часть 1 who are all these people русский рок rock панк punk maruoko daycore melwoine kesha kesha_174 keevy pantydev
BeatmapID:2149447
BeatmapSetID:1027950

[Difficulty]
HPDrainRate:5
CircleSize:3.6
OverallDifficulty:8.6
ApproachRate:9.2
SliderMultiplier:1.7
SliderTickRate:1

[Events]
//Background and Video events
0,0,"gb.jpg",0,0
//Break Periods
//Storyboard Layer 0 (Background)
//Storyboard Layer 1 (Fail)
//Storyboard Layer 2 (Pass)
//Storyboard Layer 3 (Foreground)
//Storyboard Layer 4 (Overlay)
//Storyboard Sound Samples

[TimingPoints]
577,322.58064516129,4,3,1,50,1,0
577,-133.333333333333,4,3,1,50,0,0
1060,-133.333333333333,4,3,1,50,0,0
2350,-133.333333333333,4,3,1,60,0,0
2512,-133.333333333333,4,3,1,50,0,0
2673,-133.333333333333,4,3,1,60,0,0
2835,-133.333333333333,4,3,1,50,0,0
2996,-133.333333333333,4,3,1,60,0,0
3157,-133.333333333333,4,3,1,50,0,0
3641,-133.333333333333,4,3,1,50,0,0
5738,-133.333333333333,4,3,1,50,0,0
6222,-133.333333333333,4,3,1,50,0,0
7512,-133.333333333333,4,3,1,60,0,0
7673,-133.333333333333,4,3,1,50,0,0
8318,-133.333333333333,4,3,1,50,0,0
8641,-133.333333333333,4,3,1,50,0,0
9609,-133.333333333333,4,3,1,50,0,0
9931,-133.333333333333,4,3,1,50,0,0
10899,-100,4,3,1,50,0,0
11383,-100,4,3,1,70,0,0
11544,-100,4,3,1,50,0,0
11705,-100,4,3,1,70,0,0
11867,-100,4,3,1,50,0,0
12028,-100,4,3,1,70,0,0
12189,-100,4,3,1,50,0,0
12673,-100,4,3,1,70,0,0
12835,-100,4,3,1,50,0,0
12996,-100,4,3,1,70,0,0
13157,-100,4,3,1,50,0,0
13318,-100,4,3,1,70,0,0
13480,-100,4,3,1,55,0,0
13964,-100,4,3,1,70,0,0
14125,-100,4,3,1,55,0,0
14286,-100,4,3,1,70,0,0
14447,-100,4,3,1,55,0,0
14608,-100,4,3,1,70,0,0
14770,-100,4,3,1,55,0,0
15254,-100,4,3,1,70,0,0
15415,-100,4,3,1,55,0,0
15576,-100,4,3,1,70,0,0
15738,-100,4,3,1,55,0,0
15899,-100,4,3,1,70,0,0
16060,-100,4,3,1,60,0,0
16544,-100,4,3,1,70,0,0
16706,-100,4,3,1,60,0,0
16867,-100,4,3,1,70,0,0
17028,-100,4,3,1,60,0,0
17189,-100,4,3,1,70,0,0
17351,-100,4,3,1,60,0,0
17834,-100,4,3,1,70,0,0
17996,-100,4,3,1,60,0,0
18157,-100,4,3,1,70,0,0
18318,-100,4,3,1,60,0,0
18479,-100,4,3,1,70,0,0
18641,-100,4,3,1,65,0,0
21222,-100,4,3,1,70,0,0
21464,-100,4,3,1,5,0,0
21544,-100,4,3,1,70,0,0
21706,-100,4,3,1,80,0,0
21867,-100,4,3,1,70,0,0
22351,-100,4,3,1,80,0,0
22512,-100,4,3,1,70,0,0
22996,-100,4,3,1,80,0,0
23157,-100,4,3,1,70,0,0
24044,-100,4,3,1,5,0,0
24125,-100,4,3,1,70,0,0
24286,-100,4,3,1,80,0,0
24447,-100,4,3,1,70,0,0
24931,-100,4,3,1,80,0,0
25093,-100,4,3,1,70,0,0
25576,-100,4,3,1,80,0,0
25738,-100,4,3,1,70,0,0
26625,-100,4,3,1,5,0,0
26706,-100,4,3,1,70,0,0
26867,-100,4,3,1,80,0,0
27028,-100,4,3,1,70,0,0
27512,-100,4,3,1,80,0,0
27673,-100,4,3,1,70,0,0
28157,-100,4,3,1,80,0,0
28318,-100,4,3,1,70,0,0
28802,-100,4,3,1,70,0,0
31544,-100,4,3,1,70,0,0
31786,-100,4,3,1,5,0,0
31867,-100,4,3,1,70,0,0
32028,-100,4,3,1,80,0,0
32189,-100,4,3,1,70,0,0
32674,-100,4,3,1,80,0,0
32835,-100,4,3,1,70,0,0
33318,-100,4,3,1,80,0,0
33480,-100,4,3,1,70,0,0
34367,-100,4,3,1,5,0,0
34447,-100,4,3,1,70,0,0
34609,-100,4,3,1,80,0,0
34770,-100,4,3,1,70,0,0
35254,-100,4,3,1,80,0,0
35415,-100,4,3,1,70,0,0
35899,-100,4,3,1,80,0,0
36060,-100,4,3,1,70,0,0
36947,-100,4,3,1,5,0,0
37028,-100,4,3,1,70,0,0
37189,-100,4,3,1,80,0,0
37351,-100,4,3,1,70,0,0
37834,-100,4,3,1,80,0,0
37996,-100,4,3,1,70,0,0
38479,-100,4,3,1,80,0,0
38641,-100,4,3,1,70,0,0
39125,-100,4,3,1,70,0,0
41867,-100,4,3,1,60,0,0
42109,-100,4,3,1,5,0,0
42189,-100,4,3,1,60,0,0
42350,-100,4,3,1,70,0,0
42512,-100,4,3,1,60,0,0
42996,-100,4,3,1,70,0,0
43157,-100,4,3,1,60,0,0
44447,-100,4,3,1,60,0,0
44689,-100,4,3,1,5,0,0
44770,-100,4,3,1,60,0,0
44931,-100,4,3,1,70,0,0
45093,-100,4,3,1,60,0,0
45576,-100,4,3,1,70,0,0
45738,-100,4,3,1,60,0,0
45818,-100,4,3,1,70,0,0
45899,-100,4,3,1,60,0,0
46222,-100,4,3,1,70,0,0
46383,-100,4,3,1,60,0,0
47028,-100,4,3,1,60,0,0
47270,-100,4,3,1,5,0,0
47351,-100,4,3,1,60,0,0
47512,-100,4,3,1,70,0,0
47673,-100,4,3,1,60,0,0
48157,-100,4,3,1,70,0,0
48318,-100,4,3,1,60,0,0
49609,-100,4,3,1,60,0,0
49851,-100,4,3,1,5,0,0
49931,-100,4,3,1,60,0,0
50092,-100,4,3,1,75,0,0
50254,-100,4,3,1,60,0,0
50737,-100,4,3,1,75,0,0
50899,-100,4,3,1,60,0,0
52189,-100,4,3,1,70,0,0
52431,-100,4,3,1,5,0,0
52512,-100,4,3,1,70,0,0
52673,-100,4,3,1,75,0,0
52835,-100,4,3,1,70,0,0
53318,-100,4,3,1,75,0,0
53480,-100,4,3,1,70,0,0
53641,-100,4,3,1,75,0,0
53802,-100,4,3,1,70,0,0
53963,-100,4,3,1,75,0,0
54125,-100,4,3,1,70,0,0
54608,-100,4,3,1,75,0,0
54770,-100,4,3,1,70,0,0
55012,-100,4,3,1,5,0,0
55093,-100,4,3,1,70,0,0
55254,-100,4,3,1,75,0,0
55415,-100,4,3,1,70,0,0
55899,-100,4,3,1,75,0,0
56060,-100,4,3,1,70,0,0
56222,-100,4,3,1,75,0,0
56383,-100,4,3,1,70,0,0
56544,-100,4,3,1,75,0,0
56706,-100,4,3,1,70,0,0
57189,-100,4,3,1,75,0,0
57351,-100,4,3,1,70,0,0
57593,-100,4,3,1,5,0,0
57673,-100,4,3,1,70,0,0
57835,-100,4,3,1,75,0,0
57996,-100,4,3,1,70,0,0
58480,-100,4,3,1,75,0,0
58641,-100,4,3,1,70,0,0
58802,-100,4,3,1,75,0,0
58964,-100,4,3,1,70,0,0
59125,-100,4,3,1,75,0,0
59286,-100,4,3,1,70,0,0
59770,-100,4,3,1,75,0,0
59931,-100,4,3,1,70,0,0
60173,-100,4,3,1,5,0,0
60254,-100,4,3,1,70,0,0
60415,-100,4,3,1,75,0,0
60576,-100,4,3,1,70,0,0
61060,-100,4,3,1,75,0,0
61222,-100,4,3,1,70,0,0
70093,-100,4,3,1,75,0,0
70254,-117.647058823529,4,3,1,70,0,0
70899,-100,4,3,1,70,0,0
72835,-80,4,3,1,70,0,1
73318,-80,4,3,1,80,0,1
73480,-80,4,3,1,70,0,1
73964,-80,4,3,1,80,0,1
74125,-80,4,3,1,70,0,1
74608,-80,4,3,1,80,0,1
74770,-80,4,3,1,70,0,1
75254,-80,4,3,1,80,0,1
75415,-80,4,3,1,70,0,1
75899,-80,4,3,1,80,0,1
76060,-80,4,3,1,70,0,1
76544,-80,4,3,1,80,0,1
76706,-80,4,3,1,70,0,1
77189,-80,4,3,1,80,0,1
77351,-80,4,3,1,70,0,1
80576,-133.333333333333,4,3,1,70,0,1
81867,-133.333333333333,4,3,1,70,0,0
82189,-133.333333333333,4,3,1,5,0,0
82512,-133.333333333333,4,3,1,70,0,0
82835,-133.333333333333,4,3,1,5,0,0
83157,-166.666666666667,4,3,1,70,0,0
84367,-166.666666666667,4,3,1,5,0,0
84447,-166.666666666667,4,3,1,70,0,0
84770,-166.666666666667,4,3,1,5,0,0

[Colours]
Combo1 : 255,162,117
Combo2 : 151,47,255
Combo3 : 255,255,176
Combo4 : 179,190,255

[HitObjects]
76,151,577,5,4,0:2:0:0:
76,151,1060,5,2,0:2:0:0:
12,199,1222,2,0,L|8:279,1,63.7500024318696,2|2,0:2|0:2,0:0:0:0:
91,347,1544,2,0,L|87:283,1,63.7500024318696,2|2,0:2|0:2,0:0:0:0:
76,151,1867,1,2,0:2:0:0:
171,279,2189,6,0,L|175:343,1,63.7500024318696,2|0,0:2|0:0,0:0:0:0:
254,274,2512,2,0,L|258:338,1,63.7500024318696,2|0,0:2|0:0,0:0:0:0:
337,269,2835,2,0,L|341:333,1,63.7500024318696,2|0,0:2|0:0,0:0:0:0:
411,91,3157,1,4,0:2:0:0:
411,91,3641,5,2,0:2:0:0:
475,139,3802,2,0,L|471:219,1,63.7500024318696,2|2,0:2|0:2,0:0:0:0:
339,179,4125,2,0,L|335:115,1,63.7500024318696,2|2,0:2|0:2,0:0:0:0:
215,43,4447,6,0,L|151:46,1,63.7500024318696,2|2,0:2|0:2,0:0:0:0:
187,127,4770,2,0,L|123:130,1,63.7500024318696,2|2,0:2|0:2,0:0:0:0:
159,211,5093,2,0,L|95:214,1,63.7500024318696,2|2,0:2|0:2,0:0:0:0:
131,295,5415,2,0,L|67:298,1,63.7500024318696,2|2,0:2|0:2,0:0:0:0:
310,383,5738,1,4,0:2:0:0:
310,383,6221,5,2,0:2:0:0:
358,319,6383,2,0,L|438:315,1,63.7500024318696,2|2,0:2|0:2,0:0:0:0:
485,234,6706,2,0,L|405:230,1,63.7500024318696,2|2,0:2|0:2,0:0:0:0:
289,226,7028,1,2,0:2:0:0:
426,156,7351,6,0,L|506:160,1,63.7500024318696,2|0,0:2|0:0,0:0:0:0:
430,81,7673,2,0,L|510:85,1,63.7500024318696,2|2,0:2|0:2,0:0:0:0:
434,6,7996,2,0,L|514:10,1,63.7500024318696,2|2,0:2|0:2,0:0:0:0:
246,78,8318,1,4,0:2:0:0:
246,78,8641,6,0,L|166:74,1,63.7500024318696,2|2,0:2|0:2,0:0:0:0:
242,153,8963,2,0,L|162:149,1,63.7500024318696,2|2,0:2|0:2,0:0:0:0:
238,228,9286,2,0,L|158:224,1,63.7500024318696,2|2,0:2|0:2,0:0:0:0:
426,156,9608,1,4,0:2:0:0:
426,156,9931,5,2,0:2:0:0:
378,223,10093,1,2,0:2:0:0:
378,223,10173,1,2,0:2:0:0:
378,223,10254,1,2,0:2:0:0:
343,147,10415,1,2,0:2:0:0:
461,232,10576,1,2,0:2:0:0:
229,304,10899,6,0,B|155:300|155:300|135:311|135:311|50:307,1,170,4|4,0:2|0:3,0:0:0:0:
13,220,11383,1,0,0:0:0:0:
13,220,11544,2,0,L|115:226,1,85,4|0,0:3|0:0,0:0:0:0:
196,154,11867,2,0,L|94:148,1,85,4|0,0:3|0:0,0:0:0:0:
12,68,12189,1,4,0:3:0:0:
12,68,12270,1,0,0:2:0:0:
12,68,12351,1,0,0:2:0:0:
12,68,12431,1,0,0:2:0:0:
12,68,12512,6,0,L|96:72,1,85,4|0,0:3|0:0,0:0:0:0:
196,19,12835,2,0,L|280:14,1,85,4|0,0:3|0:0,0:0:0:0:
380,68,13157,2,0,L|464:73,1,85,4|0,0:3|0:0,0:0:0:0:
480,281,13480,6,0,B|406:285|406:285|386:274|386:274|301:278,1,170,4|4,0:2|0:3,0:0:0:0:
195,356,13964,1,0,0:0:0:0:
195,356,14125,2,0,L|291:352,1,85,4|0,0:3|0:0,0:0:0:0:
192,263,14447,2,0,L|95:266,1,85,4|0,0:3|0:0,0:0:0:0:
192,172,14770,1,4,0:3:0:0:
192,172,14851,1,0,0:2:0:0:
192,172,14931,1,0,0:2:0:0:
192,172,15012,1,0,0:2:0:0:
192,172,15093,6,0,L|288:168,1,85,4|0,0:3|0:0,0:0:0:0:
417,121,15415,2,0,L|320:117,1,85,4|0,0:3|0:0,0:0:0:0:
188,182,15738,2,0,L|284:178,1,85,4|0,0:3|0:0,0:0:0:0:
492,70,16060,6,0,B|472:45|472:45|328:39,1,170,4|4,0:2|0:3,0:0:0:0:
231,87,16544,1,0,0:0:0:0:
231,87,16706,2,0,L|135:83,1,85,4|0,0:3|0:0,0:0:0:0:
29,174,17028,2,0,L|125:170,1,85,4|0,0:3|0:0,0:0:0:0:
230,263,17351,1,4,0:3:0:0:
230,263,17431,1,0,0:2:0:0:
230,263,17512,1,0,0:2:0:0:
230,263,17593,1,0,0:2:0:0:
230,263,17673,6,0,L|134:259,1,85,4|0,0:3|0:0,0:0:0:0:
326,357,17996,2,0,L|230:361,1,85,4|0,0:3|0:0,0:0:0:0:
422,263,18318,2,0,L|326:259,1,85,4|0,0:3|0:0,0:0:0:0:
141,168,18641,5,8,0:0:0:0:
167,139,18721,1,8,0:0:0:0:
202,127,18802,1,8,0:0:0:0:
239,133,18882,1,8,0:0:0:0:
269,156,18964,2,0,L|270:207,3,42.5,8|8|8|8,0:0|0:0|0:0|0:0,0:0:0:0:
500,127,19286,5,8,0:0:0:0:
473,98,19366,1,8,0:0:0:0:
438,85,19447,1,8,0:0:0:0:
401,91,19527,1,8,0:0:0:0:
371,115,19609,2,0,L|370:165,3,42.5,8|8|8|8,0:0|0:0|0:0|0:0,0:0:0:0:
320,331,19931,5,8,0:0:0:0:
320,296,20011,1,8,0:0:0:0:
320,262,20092,1,8,0:0:0:0:
320,228,20172,1,8,0:0:0:0:
320,194,20253,1,8,0:0:0:0:
320,160,20334,1,8,0:0:0:0:
320,126,20414,1,8,0:0:0:0:
305,95,20495,1,8,0:0:0:0:
280,73,20576,5,8,0:0:0:0:
248,62,20656,1,8,0:0:0:0:
215,65,20737,1,8,0:0:0:0:
184,80,20818,1,8,0:0:0:0:
163,106,20899,2,0,L|161:149,3,42.5,8|8|8|8,0:0|0:0|0:0|0:0,0:0:0:0:
26,302,21222,6,0,B|30:203|30:203|52:186,1,127.5,4|0,0:2|0:0,0:0:0:0:
73,174,21544,1,8,0:0:0:0:
151,310,21706,1,0,0:0:0:0:
55,376,21867,5,4,0:0:0:0:
34,383,22028,1,4,0:0:0:0:
228,361,22189,1,8,0:0:0:0:
249,368,22351,1,0,0:0:0:0:
162,210,22512,6,0,L|165:299,1,85,4|4,0:3|0:3,0:0:0:0:
337,161,22835,2,0,L|334:250,1,85,8|0,0:0|0:0,0:0:0:0:
175,105,23157,2,0,L|178:194,1,85,4|4,0:3|0:3,0:0:0:0:
350,56,23480,2,0,L|347:145,1,85,8|4,0:0|0:3,0:0:0:0:
168,323,23802,6,0,B|225:286|225:286|302:293,1,127.5,4|0,0:2|0:0,0:0:0:0:
312,295,24125,1,8,0:0:0:0:
428,383,24286,1,0,0:0:0:0:
484,277,24447,5,4,0:3:0:0:
490,254,24608,1,4,0:3:0:0:
359,220,24770,1,8,0:0:0:0:
353,197,24931,1,0,0:0:0:0:
436,39,25093,6,0,L|428:147,1,85,4|4,0:3|0:3,0:0:0:0:
252,163,25415,2,0,L|245:78,1,85,8|0,0:0|0:0,0:0:0:0:
448,35,25738,2,0,L|440:143,1,85,4|4,0:0|0:0,0:0:0:0:
240,167,26060,2,0,L|233:82,1,85,8|4,0:0|0:0,0:0:0:0:
368,263,26383,6,0,B|272:251|272:251|296:279,1,127.5,4|0,0:2|0:0,0:0:0:0:
308,295,26706,1,8,0:0:0:0:
156,359,26867,1,0,0:0:0:0:
173,234,27028,5,4,0:0:0:0:
181,254,27189,1,4,0:0:0:0:
56,167,27351,1,8,0:0:0:0:
48,187,27512,1,0,0:0:0:0:
212,131,27673,6,0,L|220:43,1,85,4|4,0:3|0:3,0:0:0:0:
304,243,27996,2,0,L|311:158,1,85,8|0,0:3|0:0,0:0:0:0:
496,103,28318,2,0,L|488:15,1,85,4|4,0:0|0:0,0:0:0:0:
404,215,28641,2,0,L|396:130,1,85,8|4,0:0|0:0,0:0:0:0:
392,103,28883,1,4,0:0:0:0:
392,103,28964,1,4,0:0:0:0:
313,222,29125,1,4,0:0:0:0:
467,286,29286,5,8,0:0:0:0:
404,215,29447,1,4,0:0:0:0:
404,215,29528,1,4,0:0:0:0:
404,215,29609,1,4,0:0:0:0:
364,348,29770,1,4,0:0:0:0:
219,214,29931,5,8,0:0:0:0:
310,186,30093,1,4,0:0:0:0:
310,186,30173,1,4,0:0:0:0:
310,186,30254,1,4,0:0:0:0:
229,310,30415,1,4,0:0:0:0:
88,183,30576,5,8,0:0:0:0:
24,279,30738,1,4,0:0:0:0:
24,279,30818,1,4,0:0:0:0:
24,279,30899,1,4,0:0:0:0:
219,214,31060,1,4,0:0:0:0:
14,131,31222,5,8,0:0:0:0:
128,299,31383,1,4,0:0:0:0:
180,63,31544,6,0,B|192:51|200:27|200:27|212:123,1,127.5,4|0,0:2|0:0,0:0:0:0:
216,139,31867,1,8,0:0:0:0:
308,27,32028,1,0,0:0:0:0:
368,125,32189,5,4,0:0:0:0:
388,133,32351,1,4,0:0:0:0:
260,211,32512,1,8,0:0:0:0:
244,223,32674,1,0,0:0:0:0:
400,279,32835,6,0,L|488:267,1,85,4|4,0:3|0:3,0:0:0:0:
276,367,33157,2,0,L|364:379,1,85,8|0,0:0|0:0,0:0:0:0:
152,279,33480,2,0,L|240:267,1,85,4|4,0:3|0:3,0:0:0:0:
28,367,33802,2,0,L|116:379,1,85,8|4,0:0|0:3,0:0:0:0:
218,184,34125,6,0,B|113:199|113:199|92:228,1,127.5,4|0,0:2|0:0,0:0:0:0:
89,237,34447,1,8,0:0:0:0:
236,267,34609,1,0,0:0:0:0:
304,135,34770,5,4,0:3:0:0:
297,113,34931,1,4,0:3:0:0:
173,49,35093,1,8,0:0:0:0:
180,27,35254,1,0,0:0:0:0:
61,152,35415,6,0,L|56:59,1,85,4|4,0:3|0:3,0:0:0:0:
168,279,35738,2,0,L|173:186,1,85,8|0,0:0|0:0,0:0:0:0:
48,147,36060,2,0,L|43:54,1,85,4|4,0:0|0:0,0:0:0:0:
156,287,36383,2,0,L|161:194,1,85,8|4,0:0|0:0,0:0:0:0:
0,367,36706,6,0,B|60:339|60:339|136:371,1,127.5,4|0,0:2|0:0,0:0:0:0:
140,375,37028,1,8,0:0:0:0:
252,295,37189,1,0,0:0:0:0:
376,365,37351,5,4,0:0:0:0:
396,373,37512,1,4,0:0:0:0:
460,247,37673,1,8,0:0:0:0:
480,239,37834,1,0,0:0:0:0:
340,183,37996,6,0,L|236:175,1,85,4|4,0:3|0:3,0:0:0:0:
12,239,38318,2,0,L|116:247,1,85,8|0,0:3|0:0,0:0:0:0:
148,47,38641,2,0,L|140:151,1,85,4|4,0:0|0:0,0:0:0:0:
204,375,38964,2,0,L|212:271,1,85,8|4,0:0|0:0,0:0:0:0:
212,267,39206,1,4,0:0:0:0:
212,267,39286,1,4,0:0:0:0:
109,354,39447,1,4,0:0:0:0:
302,320,39609,5,8,0:0:0:0:
288,215,39770,1,4,0:0:0:0:
288,215,39851,1,4,0:0:0:0:
288,215,39931,1,4,0:0:0:0:
204,375,40093,1,4,0:0:0:0:
444,227,40254,5,8,0:0:0:0:
464,355,40415,1,4,0:0:0:0:
464,355,40496,1,4,0:0:0:0:
464,355,40576,1,4,0:0:0:0:
363,259,40738,1,4,0:0:0:0:
511,129,40899,5,8,0:0:0:0:
472,247,41060,1,4,0:0:0:0:
472,247,41141,1,4,0:0:0:0:
472,247,41222,1,4,0:0:0:0:
360,151,41383,1,4,0:0:0:0:
235,220,41544,5,8,0:0:0:0:
363,259,41706,1,4,0:0:0:0:
360,51,41867,6,0,B|320:39|290:64|290:64|264:90|228:83,1,127.5,4|0,0:2|0:0,0:0:0:0:
216,79,42189,2,0,P|172:63|124:67,1,85,8|0,0:0|0:0,0:0:0:0:
62,157,42512,1,4,0:0:0:0:
62,157,42673,1,4,0:0:0:0:
216,255,42835,2,0,P|172:239|124:243,1,85,8|0,0:0|0:0,0:0:0:0:
96,319,43157,5,4,0:3:0:0:
100,331,43238,1,0,0:2:0:0:
104,343,43318,1,0,0:2:0:0:
108,355,43399,1,0,0:2:0:0:
112,367,43480,5,8,0:0:0:0:
12,339,43641,1,0,0:2:0:0:
216,351,43802,1,4,0:0:0:0:
116,379,43963,1,0,0:2:0:0:
320,368,44125,1,8,0:0:0:0:
220,340,44286,1,0,0:2:0:0:
312,223,44447,6,0,B|320:167|316:123|316:123|328:143|344:155,1,127.5,4|0,0:0|0:0,0:0:0:0:
360,151,44770,2,0,P|379:102|384:62,1,85,8|0,0:0|0:0,0:0:0:0:
244,39,45093,1,4,0:3:0:0:
244,39,45254,1,4,0:3:0:0:
180,155,45415,2,0,P|221:161|264:156,1,85,8|0,0:0|0:0,0:0:0:0:
244,39,45738,5,4,0:3:0:0:
232,34,45818,1,0,0:0:0:0:
221,35,45899,1,4,0:3:0:0:
112,84,46060,5,8,0:0:0:0:
104,191,46222,1,0,0:0:0:0:
24,291,46383,1,4,0:0:0:0:
16,184,46545,1,4,0:0:0:0:
168,251,46706,1,8,0:0:0:0:
176,358,46868,1,4,0:0:0:0:
28,319,47028,6,0,B|84:295|132:303|132:303|144:335,1,127.5,4|0,0:2|0:0,0:0:0:0:
152,343,47351,2,0,P|212:339|252:331,1,85,8|0,0:0|0:0,0:0:0:0:
352,269,47673,1,4,0:0:0:0:
340,364,47835,1,4,0:0:0:0:
436,216,47996,2,0,P|385:183|348:166,1,85,8|0,0:0|0:0,0:0:0:0:
220,187,48318,5,4,0:3:0:0:
216,199,48399,1,0,0:2:0:0:
212,211,48479,1,0,0:2:0:0:
208,223,48560,1,0,0:2:0:0:
204,235,48641,5,8,0:0:0:0:
236,334,48802,1,0,0:2:0:0:
120,219,48964,1,4,0:0:0:0:
125,322,49125,1,0,0:2:0:0:
43,181,49286,1,8,0:0:0:0:
21,282,49447,1,0,0:2:0:0:
144,91,49609,6,0,B|104:55|40:75|40:75|56:91,1,127.5,4|0,0:0|0:0,0:0:0:0:
64,115,49931,2,0,P|72:175|72:203,1,85,8|0,0:0|0:0,0:0:0:0:
231,166,50254,1,4,0:0:0:0:
199,258,50415,1,4,0:0:0:0:
342,114,50576,2,0,P|350:174|350:202,1,85,8|0,0:0|0:0,0:0:0:0:
340,287,50899,5,4,0:0:0:0:
340,287,51060,1,4,0:0:0:0:
452,151,51222,1,8,0:0:0:0:
256,163,51383,1,8,0:0:0:0:
432,251,51544,5,4,0:0:0:0:
432,251,51706,1,4,0:0:0:0:
342,114,51867,1,8,0:0:0:0:
204,315,52028,1,4,0:0:0:0:
204,315,52109,1,4,0:0:0:0:
204,315,52189,6,0,B|184:291|146:285|146:285|116:295|84:327,1,127.5,4|0,0:2|0:0,0:0:0:0:
80,339,52512,1,8,0:0:0:0:
80,339,52673,1,0,0:0:0:0:
140,207,52835,1,4,0:0:0:0:
4,267,52996,1,4,0:0:0:0:
208,335,53157,2,0,L|304:327,1,85,8|0,0:0|0:0,0:0:0:0:
384,191,53480,6,0,P|368:239|364:279,1,85,4|0,0:0|0:0,0:0:0:0:
488,111,53802,2,0,P|504:159|508:199,1,85,8|0,0:0|0:0,0:0:0:0:
280,103,54125,2,0,P|264:151|260:191,1,85,4|4,0:0|0:0,0:0:0:0:
384,23,54447,2,0,P|400:71|404:111,1,85,8|0,0:0|0:0,0:0:0:0:
180,195,54770,6,0,B|152:171|152:171|104:171|68:207,1,127.5,4|0,0:2|0:0,0:0:0:0:
56,223,55093,1,8,0:0:0:0:
56,223,55254,1,0,0:0:0:0:
144,351,55415,2,0,P|152:295|132:255,1,85,4|4,0:0|0:0,0:0:0:0:
32,355,55738,1,8,0:0:0:0:
240,383,55899,2,0,P|270:335|269:290,1,85,0|4,0:0|0:0,0:0:0:0:
180,195,56222,6,0,L|68:183,1,85,0|8,0:0|0:0,0:0:0:0:
24,127,56544,1,0,0:0:0:0:
24,127,56706,1,4,0:0:0:0:
8,239,56867,1,4,0:0:0:0:
156,111,57028,2,0,L|268:99,1,85,8|0,0:0|0:0,0:0:0:0:
364,243,57351,6,0,B|336:235|328:211|328:211|332:123,1,127.5,4|0,0:2|0:0,0:0:0:0:
336,107,57673,1,8,0:0:0:0:
336,107,57835,1,0,0:0:0:0:
432,167,57996,1,4,0:0:0:0:
292,215,58157,1,4,0:0:0:0:
408,335,58318,1,8,0:0:0:0:
408,335,58480,1,0,0:0:0:0:
280,327,58641,6,0,P|232:307|192:307,1,85,4|0,0:0|0:0,0:0:0:0:
80,367,58964,2,0,P|100:319|100:279,1,85,8|0,0:0|0:0,0:0:0:0:
40,167,59286,2,0,P|88:187|128:187,1,85,4|4,0:0|0:0,0:0:0:0:
240,127,59609,2,0,P|220:175|220:215,1,85,8|0,0:0|0:0,0:0:0:0:
452,211,59931,6,0,P|400:175|324:179,1,127.5,4|0,0:2|0:0,0:0:0:0:
316,187,60254,1,8,0:0:0:0:
316,187,60415,1,0,0:0:0:0:
368,347,60576,2,0,L|374:262,1,85,4|4,0:0|0:0,0:0:0:0:
218,207,60899,2,0,L|211:291,1,85,8|0,0:0|0:0,0:0:0:0:
76,379,61222,5,8,0:0:0:0:
88,175,61383,1,4,0:0:0:0:
172,383,61544,1,8,0:0:0:0:
0,214,61705,1,4,0:0:0:0:
247,332,61867,1,8,0:0:0:0:
5,308,62028,1,4,0:0:0:0:
241,193,62189,5,8,0:0:0:0:
76,379,62351,1,8,0:0:0:0:
177,104,62512,5,4,0:2:0:0:
252,179,64447,5,8,0:0:0:0:
304,15,64609,1,4,0:0:0:0:
368,306,65093,5,4,0:2:0:0:
368,306,67028,5,8,0:0:0:0:
252,179,67190,1,4,0:0:0:0:
36,343,67673,5,4,0:0:0:0:
128,327,67835,1,4,0:0:0:0:
282,261,68157,5,4,0:0:0:0:
190,245,68319,1,12,0:0:0:0:
298,265,68480,1,4,0:0:0:0:
406,81,68802,5,4,0:0:0:0:
314,97,68964,1,4,0:0:0:0:
160,163,69286,5,4,0:0:0:0:
252,179,69448,1,4,0:0:0:0:
144,159,69609,1,8,0:0:0:0:
268,183,69770,1,4,0:0:0:0:
128,327,70093,5,0,0:0:0:0:
36,343,70254,2,0,L|40:295,7,36.1250006890297,8|8|8|8|8|8|8|8,0:0|0:0|0:0|0:0|0:0|0:0|0:0|0:0,0:0:0:0:
117,227,70899,2,0,L|113:179,7,42.5,8|8|8|8|8|8|8|8,0:0|0:0|0:0|0:0|0:0|0:0|0:0|0:0,0:0:0:0:
52,103,71544,5,8,0:0:0:0:
79,78,71624,1,8,0:0:0:0:
116,72,71705,1,8,0:0:0:0:
150,85,71786,1,8,0:0:0:0:
173,113,71867,1,8,0:0:0:0:
195,141,71947,1,8,0:0:0:0:
230,154,72028,1,8,0:0:0:0:
266,148,72108,1,8,0:0:0:0:
294,124,72189,6,0,L|285:71,1,42.5,8|8,0:0|0:0,0:0:0:0:
203,238,72351,2,0,L|195:279,1,42.5,8|8,0:0|0:0,0:0:0:0:
387,87,72512,2,0,L|356:42,1,42.5,8|8,0:0|0:0,0:0:0:0:
293,234,72674,2,0,L|304:274,1,42.5,8|8,0:0|0:0,0:0:0:0:
127,184,72835,5,4,0:0:0:0:
379,110,72996,1,4,0:0:0:0:
115,188,73157,1,8,0:0:0:0:
122,25,73318,1,0,0:0:0:0:
203,238,73480,1,4,0:0:0:0:
231,17,73641,1,4,0:0:0:0:
42,223,73802,5,8,0:0:0:0:
173,94,73964,1,0,0:0:0:0:
295,197,74125,1,4,0:0:0:0:
26,226,74286,1,4,0:0:0:0:
283,280,74447,2,0,L|416:267,1,106.25,8|0,0:0|0:0,0:0:0:0:
235,138,74770,2,0,L|102:125,1,106.25,4|4,0:0|0:0,0:0:0:0:
135,321,75093,1,8,0:0:0:0:
135,321,75254,1,0,0:0:0:0:
295,197,75415,6,0,L|428:184,1,106.25,4|4,0:0|0:0,0:0:0:0:
255,363,75738,2,0,L|122:350,1,106.25,8|0,0:0|0:0,0:0:0:0:
216,219,76060,1,4,0:0:0:0:
336,375,76222,1,4,0:0:0:0:
136,203,76383,1,8,0:0:0:0:
354,291,76544,1,0,0:0:0:0:
400,108,76706,6,0,L|295:119,1,106.25,4|4,0:0|0:0,0:0:0:0:
223,380,77028,2,0,L|268:284,1,106.25,8|0,0:0|0:0,0:0:0:0:
77,92,77351,2,0,L|139:179,1,106.25,4|4,0:0|0:0,0:0:0:0:
263,263,77673,1,8,0:0:0:0:
376,98,77835,1,4,0:0:0:0:
376,98,77915,1,4,0:0:0:0:
376,98,77996,5,8,0:0:0:0:
401,247,78157,1,0,0:0:0:0:
252,272,78318,1,8,0:0:0:0:
227,124,78480,1,0,0:0:0:0:
415,248,78641,1,8,0:0:0:0:
160,213,78802,1,0,0:0:0:0:
386,87,78964,1,8,0:0:0:0:
282,351,79125,1,0,0:0:0:0:
302,76,79286,5,8,0:0:0:0:
384,340,79447,1,0,0:0:0:0:
140,210,79609,1,8,0:0:0:0:
325,221,79770,1,0,0:0:0:0:
142,351,79931,1,8,0:0:0:0:
163,103,80093,1,0,0:0:0:0:
284,320,80254,1,8,0:0:0:0:
120,202,80415,1,0,0:0:0:0:
298,128,80576,6,0,L|377:121,1,63.7500024318696,4|4,0:2|0:0,0:0:0:0:
438,233,80899,2,0,L|359:226,1,63.7500024318696,4|4,0:0|0:0,0:0:0:0:
245,195,81222,1,8,0:0:0:0:
288,296,81383,1,4,0:0:0:0:
447,143,81544,2,0,L|450:99,3,31.8750012159348,4|4|4|4,0:0|0:0|0:0|0:0,0:0:0:0:
400,37,81867,6,0,B|347:32|347:32|320:43|320:43|257:37,1,127.500004863739,4|0,0:2|0:0,0:0:0:0:
15,82,82512,6,0,B|60:78|60:78|87:89|87:89|140:84,1,127.500004863739,4|0,0:2|0:0,0:0:0:0:
367,204,83157,6,0,B|324:224|280:211|280:211|269:205|269:205|260:221|260:221|224:176|162:182|118:230|136:299|190:325|242:301,1,382.499988327027,4|0,0:2|0:0,0:0:0:0:
297,352,84447,6,0,P|341:338|410:345,1,101.999996887207,4|0,0:2|0:0,0:0:0:0:
