osu file format v14

[General]
AudioFilename: audio.mp3
AudioLeadIn: 0
PreviewTime: 62431
Countdown: 0
SampleSet: Drum
StackLeniency: 0.2
Mode: 0
LetterboxInBreaks: 0
WidescreenStoryboard: 1

[Editor]
Bookmarks: 577,10899,21222,52189,62512,72835,84447
DistanceSpacing: 1.4
BeatDivisor: 4
GridSize: 16
TimelineZoom: 2.2

[Metadata]
Title:Kto Vse Eti Lyudi?
TitleUnicode:Кто Все Эти Люди?
Artist:PORNOFIL'MY
ArtistUnicode:ПОРНОФИЛЬМЫ
Creator:KeRLi_
Version:Collab Another?
Source:
Tags:pornofilmy Russian dream. Part 1 Русская мечта. Часть 1 who are all these people русский рок rock панк punk maruoko daycore melwoine kesha kesha_174 keevy pantydev
BeatmapID:2163449
BeatmapSetID:1027950

[Difficulty]
HPDrainRate:5
CircleSize:4.2
OverallDifficulty:8.1
ApproachRate:9.1
SliderMultiplier:1.6
SliderTickRate:1

[Events]
//Background and Video events
0,0,"gb.jpg",0,0
//Break Periods
//Storyboard Layer 0 (Background)
//Storyboard Layer 1 (Fail)
//Storyboard Layer 2 (Pass)
//Storyboard Layer 3 (Foreground)
//Storyboard Layer 4 (Overlay)
//Storyboard Sound Samples

[TimingPoints]
577,322.58064516129,4,3,1,50,1,0
577,-111.111111111111,4,3,1,50,0,0
899,-111.111111111111,4,3,1,70,0,0
1060,-133.333333333333,4,3,1,50,0,0
3157,-111.111111111111,4,3,1,50,0,0
3479,-111.111111111111,4,3,1,70,0,0
3641,-133.333333333333,4,3,1,50,0,0
5738,-111.111111111111,4,3,1,50,0,0
6060,-111.111111111111,4,3,1,70,0,0
6222,-133.333333333333,4,3,1,50,0,0
8318,-100,4,3,1,50,0,0
8560,-100,4,3,1,5,0,0
8641,-133.333333333333,4,3,1,50,0,0
9609,-200,4,3,1,50,0,0
9931,-133.333333333333,4,3,1,50,0,0
10899,-100,4,3,1,50,0,0
11060,-100,4,3,1,70,0,0
11222,-100,4,3,1,50,0,0
11383,-100,4,3,1,70,0,0
11544,-100,4,3,1,50,0,0
11705,-100,4,3,1,70,0,0
11867,-100,4,3,1,50,0,0
12028,-100,4,3,1,70,0,0
12189,-100,4,3,1,50,0,0
12673,-100,4,3,1,70,0,0
12835,-100,4,3,1,50,0,0
12996,-100,4,3,1,70,0,0
13157,-100,4,3,1,50,0,0
13318,-100,4,3,1,70,0,0
13480,-100,4,3,1,55,0,0
13964,-100,4,3,1,70,0,0
14125,-100,4,3,1,55,0,0
14286,-100,4,3,1,70,0,0
14447,-100,4,3,1,55,0,0
14608,-100,4,3,1,70,0,0
14770,-100,4,3,1,55,0,0
15254,-100,4,3,1,70,0,0
15415,-100,4,3,1,55,0,0
15576,-100,4,3,1,70,0,0
15738,-100,4,3,1,55,0,0
15899,-100,4,3,1,70,0,0
16060,-100,4,3,1,60,0,0
16221,-100,4,3,1,70,0,0
16383,-100,4,3,1,60,0,0
16544,-100,4,3,1,70,0,0
16706,-100,4,3,1,60,0,0
16867,-100,4,3,1,70,0,0
17028,-100,4,3,1,60,0,0
17189,-100,4,3,1,70,0,0
17350,-100,4,3,1,60,0,0
17835,-100,4,3,1,70,0,0
17996,-100,4,3,1,60,0,0
18157,-100,4,3,1,70,0,0
18318,-100,4,3,1,60,0,0
18479,-100,4,3,1,70,0,0
18641,-100,4,3,1,65,0,0
21222,-100,4,3,1,70,0,0
21706,-100,4,3,1,80,0,0
21867,-100,4,3,1,70,0,0
22350,-100,4,3,1,80,0,0
22512,-100,4,3,1,70,0,0
22996,-100,4,3,1,80,0,0
23157,-100,4,3,1,70,0,0
24286,-100,4,3,1,80,0,0
24447,-100,4,3,1,70,0,0
24931,-100,4,3,1,80,0,0
25093,-100,4,3,1,70,0,0
25576,-100,4,3,1,80,0,0
25738,-100,4,3,1,70,0,0
26867,-100,4,3,1,80,0,0
27028,-100,4,3,1,70,0,0
27512,-100,4,3,1,80,0,0
27673,-100,4,3,1,70,0,0
28158,-100,4,3,1,80,0,0
28318,-100,4,3,1,70,0,0
28802,-100,4,3,1,70,0,0
31544,-100,4,3,1,70,0,0
32028,-100,4,3,1,80,0,0
32189,-100,4,3,1,70,0,0
32673,-100,4,3,1,80,0,0
32835,-100,4,3,1,70,0,0
33318,-100,4,3,1,80,0,0
33480,-100,4,3,1,70,0,0
34609,-100,4,3,1,80,0,0
34770,-100,4,3,1,70,0,0
35254,-100,4,3,1,80,0,0
35415,-100,4,3,1,70,0,0
35899,-100,4,3,1,80,0,0
36060,-100,4,3,1,70,0,0
37189,-100,4,3,1,80,0,0
37351,-100,4,3,1,70,0,0
37834,-100,4,3,1,80,0,0
37996,-100,4,3,1,70,0,0
38479,-100,4,3,1,80,0,0
38641,-100,4,3,1,70,0,0
39125,-100,4,3,1,70,0,0
41867,-100,4,3,1,60,0,0
42109,-100,4,3,1,5,0,0
42189,-100,4,3,1,60,0,0
42350,-100,4,3,1,70,0,0
42512,-100,4,3,1,60,0,0
42996,-100,4,3,1,70,0,0
43157,-100,4,3,1,60,0,0
44447,-100,4,3,1,60,0,0
44689,-100,4,3,1,5,0,0
44770,-100,4,3,1,60,0,0
44931,-100,4,3,1,70,0,0
45093,-100,4,3,1,60,0,0
45576,-100,4,3,1,70,0,0
45738,-100,4,3,1,60,0,0
45818,-100,4,3,1,70,0,0
45899,-100,4,3,1,60,0,0
46222,-100,4,3,1,70,0,0
46383,-100,4,3,1,60,0,0
47028,-100,4,3,1,60,0,0
47270,-100,4,3,1,5,0,0
47351,-100,4,3,1,60,0,0
47512,-100,4,3,1,70,0,0
47673,-100,4,3,1,60,0,0
48157,-100,4,3,1,70,0,0
48318,-100,4,3,1,60,0,0
49609,-100,4,3,1,60,0,0
49851,-100,4,3,1,5,0,0
49931,-100,4,3,1,60,0,0
50092,-100,4,3,1,75,0,0
50254,-100,4,3,1,60,0,0
50738,-100,4,3,1,75,0,0
50899,-100,4,3,1,60,0,0
52189,-83.3333333333333,4,3,1,70,0,0
52673,-83.3333333333333,4,3,1,75,0,0
52835,-83.3333333333333,4,3,1,70,0,0
53399,-83.3333333333333,4,3,1,5,0,0
53480,-83.3333333333333,4,3,1,70,0,0
53641,-83.3333333333333,4,3,1,75,0,0
53802,-83.3333333333333,4,3,1,70,0,0
53963,-83.3333333333333,4,3,1,75,0,0
54125,-83.3333333333333,4,3,1,70,0,0
54609,-83.3333333333333,4,3,1,75,0,0
54770,-83.3333333333333,4,3,1,70,0,0
55254,-83.3333333333333,4,3,1,75,0,0
55415,-83.3333333333333,4,3,1,70,0,0
55899,-83.3333333333333,4,3,1,75,0,0
56383,-83.3333333333333,4,3,1,70,0,0
56544,-83.3333333333333,4,3,1,75,0,0
56705,-83.3333333333333,4,3,1,70,0,0
57189,-83.3333333333333,4,3,1,75,0,0
57351,-83.3333333333333,4,3,1,70,0,0
57835,-83.3333333333333,4,3,1,75,0,0
57996,-83.3333333333333,4,3,1,70,0,0
58480,-83.3333333333333,4,3,1,75,0,0
58641,-83.3333333333333,4,3,1,70,0,0
58802,-83.3333333333333,4,3,1,75,0,0
58964,-83.3333333333333,4,3,1,70,0,0
59125,-83.3333333333333,4,3,1,75,0,0
59286,-83.3333333333333,4,3,1,70,0,0
59770,-83.3333333333333,4,3,1,75,0,0
59931,-83.3333333333333,4,3,1,70,0,0
60415,-83.3333333333333,4,3,1,75,0,0
60576,-83.3333333333333,4,3,1,70,0,0
61060,-83.3333333333333,4,3,1,75,0,0
61222,-83.3333333333333,4,3,1,70,0,0
62431,-83.3333333333333,4,3,1,75,0,0
62512,-200,4,3,1,70,0,0
62996,-200,4,3,1,5,0,0
63157,-200,4,3,1,35,0,0
63641,-200,4,3,1,5,0,0
63802,-200,4,3,1,35,0,0
64286,-200,4,3,1,5,0,0
64447,-200,4,3,1,70,0,0
64770,-200,4,3,1,5,0,0
65093,-200,4,3,1,70,0,0
65576,-200,4,3,1,5,0,0
65738,-200,4,3,1,35,0,0
66222,-200,4,3,1,5,0,0
66383,-200,4,3,1,35,0,0
66867,-200,4,3,1,5,0,0
67028,-200,4,3,1,70,0,0
67512,-200,4,3,1,5,0,0
67673,-200,4,3,1,70,0,0
70093,-200,4,3,1,75,0,0
70254,-117.647058823529,4,3,1,70,0,0
70899,-100,4,3,1,70,0,0
72835,-74.0740740740741,4,3,1,70,0,1
73318,-74.0740740740741,4,3,1,80,0,1
73480,-74.0740740740741,4,3,1,70,0,1
73964,-74.0740740740741,4,3,1,80,0,1
74125,-74.0740740740741,4,3,1,70,0,1
74608,-74.0740740740741,4,3,1,80,0,1
74770,-74.0740740740741,4,3,1,70,0,1
75012,-74.0740740740741,4,3,1,5,0,1
75093,-74.0740740740741,4,3,1,70,0,1
75254,-74.0740740740741,4,3,1,80,0,1
75415,-74.0740740740741,4,3,1,70,0,1
75899,-74.0740740740741,4,3,1,80,0,1
76060,-74.0740740740741,4,3,1,70,0,1
76545,-74.0740740740741,4,3,1,80,0,1
76706,-74.0740740740741,4,3,1,70,0,1
77189,-74.0740740740741,4,3,1,80,0,1
77351,-74.0740740740741,4,3,1,70,0,1
80576,-133.333333333333,4,3,1,70,0,1
81867,-133.333333333333,4,3,1,70,0,0
82189,-133.333333333333,4,3,1,5,0,0
82512,-133.333333333333,4,3,1,70,0,0
82835,-133.333333333333,4,3,1,5,0,0
83157,-166.666666666667,4,3,1,70,0,0
84447,-166.666666666667,4,3,1,70,0,0

[Colours]
Combo1 : 255,162,117
Combo2 : 151,47,255
Combo3 : 255,255,176
Combo4 : 179,190,255

[HitObjects]
222,108,577,6,0,B|195:69|195:69|143:54|87:82,1,143.999995605469,4|0,0:2|0:0,0:0:0:0:
33,155,1060,1,2,0:2:0:0:
33,155,1222,2,0,L|36:218,1,60.0000022888184,2|2,0:2|0:2,0:0:0:0:
111,283,1544,2,0,L|108:346,1,60.0000022888184,2|2,0:2|0:2,0:0:0:0:
222,371,1867,6,0,P|287:343|357:337,1,120.000004577637,2|2,0:2|0:2,0:0:0:0:
509,270,2512,2,0,P|446:261|388:235,1,120.000004577637,2|2,0:2|0:2,0:0:0:0:
318,21,3157,6,0,B|313:89|313:89|323:106|323:106|318:180,1,143.999995605469,4|0,0:2|0:0,0:0:0:0:
246,226,3641,1,2,0:2:0:0:
246,226,3802,2,0,P|193:211|171:211,1,60.0000022888184,2|2,0:2|0:2,0:0:0:0:
92,202,4125,2,0,P|123:197|153:186,1,60.0000022888184,2|2,0:2|0:2,0:0:0:0:
9,149,4447,6,0,P|-13:196|9:273,2,120.000004577637,2|2|2,0:2|0:2|0:2,0:0:0:0:
9,149,5415,1,2,0:2:0:0:
154,65,5738,6,0,B|212:33|278:51|278:51|284:93,1,143.999995605469,4|0,0:2|0:0,0:0:0:0:
357,135,6222,1,2,0:2:0:0:
357,135,6383,2,0,L|361:67,1,60.0000022888184,2|2,0:2|0:2,0:0:0:0:
455,54,6706,2,0,L|458:117,1,60.0000022888184,2|2,0:2|0:2,0:0:0:0:
450,253,7028,6,0,B|411:258|387:237|387:237|358:214|323:225,1,120.000004577637,2|2,0:2|0:2,0:0:0:0:
145,330,7673,2,0,P|194:295|263:329,1,120.000004577637,2|2,0:2|0:2,0:0:0:0:
19,360,8318,6,0,B|22:260|22:260|50:241,1,120,4|0,0:2|0:0,0:0:0:0:
75,226,8641,2,0,L|148:228,1,60.0000022888184,2|2,0:2|0:2,0:0:0:0:
171,146,8964,2,0,L|107:147,1,60.0000022888184,2|2,0:2|0:2,0:0:0:0:
69,66,9286,2,0,L|132:67,1,60.0000022888184,2|2,0:2|0:2,0:0:0:0:
273,149,9609,5,4,0:2:0:0:
273,149,9931,5,2,0:2:0:0:
345,111,10093,1,2,0:2:0:0:
345,111,10173,1,2,0:2:0:0:
345,111,10254,1,2,0:2:0:0:
416,155,10415,1,2,0:2:0:0:
499,109,10576,1,2,0:2:0:0:
158,126,10899,6,0,B|147:85|147:85|174:30,1,80,4|0,0:2|0:0,0:0:0:0:
250,275,11222,2,0,B|219:305|219:305|158:309,1,80,4|0,0:3|0:0,0:0:0:0:
334,123,11544,2,0,B|375:134|375:134|410:185,1,80,4|0,0:3|0:0,0:0:0:0:
247,176,11867,1,4,0:3:0:0:
247,176,12028,1,0,0:0:0:0:
69,101,12189,6,0,L|66:155,1,40,4|0,0:3|0:2,0:0:0:0:
72,149,12351,2,0,L|74:109,1,40,0|0,0:2|0:2,0:0:0:0:
27,28,12512,2,0,P|109:25|120:32,1,80,4|0,0:3|0:0,0:0:0:0:
241,76,12835,2,0,P|159:79|148:72,1,80,4|0,0:3|0:0,0:0:0:0:
311,26,13157,1,4,0:3:0:0:
321,110,13318,1,0,0:0:0:0:
337,269,13480,6,0,L|320:100,1,160,4|4,0:2|0:3,0:0:0:0:
390,341,13964,1,0,0:0:0:0:
390,341,14125,2,0,P|327:355|305:349,1,80,4|0,0:3|0:0,0:0:0:0:
286,198,14447,2,0,P|349:184|371:190,1,80,4|0,0:3|0:0,0:0:0:0:
254,221,14770,6,0,P|275:203|295:193,1,40,4|0,0:3|0:2,0:0:0:0:
246,206,14931,2,0,P|270:194|292:189,1,40,0|0,0:2|0:2,0:0:0:0:
254,302,15093,2,0,P|204:285|184:260,1,80,4|0,0:3|0:0,0:0:0:0:
156,106,15415,2,0,P|166:157|154:187,1,80,4|0,0:3|0:0,0:0:0:0:
38,286,15738,2,0,P|77:251|109:246,1,80,4|0,0:3|0:0,0:0:0:0:
324,218,16060,6,0,L|232:203,1,80,4|0,0:2|0:0,0:0:0:0:
403,190,16383,2,0,P|402:251|375:283,1,80,4|0,0:3|0:0,0:0:0:0:
286,337,16706,1,4,0:3:0:0:
286,337,16867,1,0,0:0:0:0:
245,205,17028,2,0,P|246:144|273:112,1,80,4|0,0:3|0:0,0:0:0:0:
136,258,17350,6,0,P|134:285|136:301,1,40,4|0,0:3|0:2,0:0:0:0:
131,248,17512,2,0,P|129:228|131:208,1,40,0|0,0:2|0:2,0:0:0:0:
187,364,17673,1,4,0:3:0:0:
187,364,17835,1,0,0:0:0:0:
52,253,17996,2,0,P|94:257|145:240,1,80,4|0,0:3|0:0,0:0:0:0:
296,276,18318,2,0,P|254:272|203:289,1,80,4|0,0:3|0:0,0:0:0:0:
408,314,18641,5,8,0:0:0:0:
401,295,18721,1,8,0:0:0:0:
400,275,18802,1,8,0:0:0:0:
405,256,18882,1,8,0:0:0:0:
416,239,18963,5,8,0:0:0:0:
427,222,19044,1,8,0:0:0:0:
428,202,19125,1,8,0:0:0:0:
423,183,19205,1,8,0:0:0:0:
409,166,19286,6,0,L|338:161,3,40,8|8|8|8,0:0|0:0|0:0|0:0,0:0:0:0:
293,118,19609,2,0,L|222:123,3,40,8|8|8|8,0:0|0:0|0:0|0:0,0:0:0:0:
168,88,19931,5,8,0:0:0:0:
161,107,20011,1,8,0:0:0:0:
160,126,20092,1,8,0:0:0:0:
164,146,20172,1,8,0:0:0:0:
172,165,20254,5,8,0:0:0:0:
175,185,20334,1,8,0:0:0:0:
174,205,20415,1,8,0:0:0:0:
168,224,20495,1,8,0:0:0:0:
158,241,20576,6,0,P|154:263|172:315,3,40,8|8|8|8,0:0|0:0|0:0|0:0,0:0:0:0:
239,346,20899,2,0,P|240:326|236:306,3,40,8|8|8|8,0:0|0:0|0:0|0:0,0:0:0:0:
347,231,21222,6,0,B|317:286|330:352|330:352|339:338|357:326,1,160,4|8,0:2|0:0,0:0:0:0:
453,219,21706,1,0,0:0:0:0:
453,219,21867,2,0,P|450:179|441:140,1,80,4|4,0:0|0:0,0:0:0:0:
339,45,22189,2,0,P|330:84|327:123,1,80,8|0,0:0|0:0,0:0:0:0:
227,179,22512,6,0,P|197:152|164:129,1,80,4|4,0:3|0:3,0:0:0:0:
119,234,22835,1,8,0:0:0:0:
132,328,22996,1,0,0:0:0:0:
0,218,23157,2,0,P|21:184|46:153,1,80,4|4,0:3|0:3,0:0:0:0:
164,129,23480,1,8,0:0:0:0:
96,243,23641,1,4,0:3:0:0:
220,291,23802,6,0,B|259:263|259:263|334:280|334:280|351:315,1,160,4|8,0:2|0:0,0:0:0:0:
468,371,24286,1,0,0:0:0:0:
468,371,24447,2,0,P|459:318|459:275,1,80,4|4,0:3|0:3,0:0:0:0:
502,136,24770,1,8,0:0:0:0:
381,216,24931,1,0,0:0:0:0:
426,85,25093,6,0,P|466:56|508:39,1,80,4|4,0:3|0:3,0:0:0:0:
339,136,25415,1,8,0:0:0:0:
305,62,25576,1,0,0:0:0:0:
244,145,25738,1,4,0:0:0:0:
278,219,25899,1,4,0:0:0:0:
188,211,26060,2,0,P|141:195|105:190,1,80,8|4,0:0|0:0,0:0:0:0:
4,344,26383,6,0,B|45:294|113:302|113:302|126:345,1,160,4|8,0:2|0:0,0:0:0:0:
289,357,26867,1,0,0:0:0:0:
195,367,27028,2,0,P|229:347|269:343,1,80,4|4,0:0|0:0,0:0:0:0:
421,324,27351,2,0,P|381:320|347:299,1,80,8|0,0:0|0:0,0:0:0:0:
434,145,27673,5,4,0:3:0:0:
410,235,27835,1,4,0:3:0:0:
322,176,27996,1,8,0:3:0:0:
346,86,28158,1,0,0:0:0:0:
493,89,28318,2,0,P|510:132|511:182,1,80,4|4,0:0|0:0,0:0:0:0:
226,196,28641,2,0,P|230:156|245:119,1,80,8|4,0:0|0:0,0:0:0:0:
271,96,28883,1,4,0:0:0:0:
271,96,28964,5,4,0:0:0:0:
162,108,29125,1,4,0:0:0:0:
76,39,29286,1,8,0:0:0:0:
89,149,29447,5,4,0:0:0:0:
89,149,29528,1,4,0:0:0:0:
89,149,29609,1,4,0:0:0:0:
20,235,29770,1,4,0:0:0:0:
130,223,29931,1,8,0:0:0:0:
216,292,30093,5,4,0:0:0:0:
216,292,30173,1,4,0:0:0:0:
216,292,30254,1,4,0:0:0:0:
204,183,30415,1,4,0:0:0:0:
272,97,30576,1,8,0:0:0:0:
162,108,30738,5,4,0:0:0:0:
162,108,30818,1,4,0:0:0:0:
162,108,30899,1,4,0:0:0:0:
76,39,31060,1,4,0:0:0:0:
89,149,31221,1,8,0:0:0:0:
204,183,31383,1,4,0:0:0:0:
281,51,31544,6,0,B|381:49|331:112|450:115,1,160,4|8,0:2|0:0,0:0:0:0:
296,218,32028,1,0,0:0:0:0:
296,218,32189,2,0,P|286:143|289:114,1,80,4|4,0:0|0:0,0:0:0:0:
444,212,32512,2,0,P|384:258|357:270,1,80,8|0,0:0|0:0,0:0:0:0:
222,187,32835,6,0,P|291:215|315:232,1,80,4|4,0:3|0:3,0:0:0:0:
153,243,33157,1,8,0:0:0:0:
136,156,33318,1,0,0:0:0:0:
208,319,33480,2,0,P|161:336|110:328,1,80,4|4,0:3|0:3,0:0:0:0:
153,243,33802,1,8,0:0:0:0:
299,338,33964,1,4,0:3:0:0:
323,168,34125,6,0,B|329:146|356:120|356:120|306:149|234:151,1,160,4|8,0:2|0:0,0:0:0:0:
82,156,34609,1,0,0:0:0:0:
82,156,34770,2,0,P|69:91|72:45,1,80,4|4,0:3|0:3,0:0:0:0:
170,184,35093,1,8,0:0:0:0:
196,46,35254,1,0,0:0:0:0:
207,257,35415,6,0,P|128:254|105:230,1,80,4|4,0:3|0:3,0:0:0:0:
278,204,35738,1,8,0:0:0:0:
288,291,35899,1,0,0:0:0:0:
372,335,36060,1,4,0:0:0:0:
382,248,36221,1,4,0:0:0:0:
452,303,36383,2,0,P|469:265|457:206,1,80,8|4,0:0|0:0,0:0:0:0:
383,95,36706,6,0,P|362:158|395:267,1,160,4|8,0:2|0:0,0:0:0:0:
472,78,37189,1,0,0:0:0:0:
333,20,37351,2,0,P|371:9|410:12,1,80,4|4,0:0|0:0,0:0:0:0:
282,102,37673,2,0,P|243:113|204:110,1,80,8|0,0:0|0:0,0:0:0:0:
108,68,37996,5,4,0:3:0:0:
76,166,38157,1,4,0:3:0:0:
172,208,38318,1,8,0:3:0:0:
204,110,38479,1,0,0:0:0:0:
11,114,38641,2,0,P|-7:158|8:218,1,80,4|4,0:0|0:0,0:0:0:0:
169,321,38964,2,0,P|187:277|172:217,1,80,8|4,0:0|0:0,0:0:0:0:
176,212,39206,1,4,0:0:0:0:
176,212,39286,5,4,0:0:0:0:
278,229,39447,1,4,0:0:0:0:
379,252,39609,1,8,0:0:0:0:
357,150,39770,5,4,0:0:0:0:
357,150,39851,1,4,0:0:0:0:
357,150,39931,1,4,0:0:0:0:
316,53,40093,1,4,0:0:0:0:
241,125,40254,1,8,0:0:0:0:
278,229,40415,5,4,0:0:0:0:
278,229,40496,1,4,0:0:0:0:
278,229,40576,1,4,0:0:0:0:
357,150,40738,1,4,0:0:0:0:
316,53,40899,1,8,0:0:0:0:
241,125,41060,5,4,0:0:0:0:
241,125,41141,1,4,0:0:0:0:
241,125,41222,1,4,0:0:0:0:
278,229,41383,1,4,0:0:0:0:
357,150,41544,1,8,0:0:0:0:
316,53,41706,1,4,0:0:0:0:
154,99,41867,6,0,B|62:104|62:104|40:135,1,120,4|0,0:2|0:0,0:0:0:0:
27,137,42189,2,0,L|33:223,1,80,8|0,0:0|0:0,0:0:0:0:
96,286,42512,2,0,L|90:372,1,80,4|4,0:0|0:0,0:0:0:0:
169,198,42835,1,8,0:0:0:0:
222,259,42996,1,0,0:0:0:0:
286,207,43157,6,0,L|325:209,1,40,4|0,0:3|0:2,0:0:0:0:
290,196,43318,2,0,L|329:198,1,40,0|0,0:2|0:2,0:0:0:0:
397,240,43480,2,0,P|446:233|485:235,1,80,8|0,0:0|0:2,0:0:0:0:
348,328,43802,2,0,P|308:328|268:321,1,80,4|0,0:0|0:2,0:0:0:0:
145,208,44125,2,0,L|147:287,1,80,8|0,0:0|0:2,0:0:0:0:
79,134,44447,6,0,P|139:107|208:131,1,120,4|0,0:0|0:0,0:0:0:0:
209,115,44770,2,0,P|257:116|297:107,1,80,8|0,0:0|0:0,0:0:0:0:
381,96,45093,2,0,P|341:89|301:90,1,80,4|4,0:3|0:3,0:0:0:0:
415,170,45415,1,8,0:0:0:0:
467,108,45576,1,0,0:0:0:0:
493,184,45738,5,4,0:3:0:0:
492,191,45818,1,0,0:0:0:0:
489,198,45899,1,4,0:3:0:0:
363,245,46060,1,8,0:0:0:0:
443,266,46222,1,0,0:0:0:0:
383,331,46383,2,0,L|291:322,1,80,4|4,0:0|0:0,0:0:0:0:
225,251,46706,2,0,L|133:260,1,80,8|4,0:0|0:0,0:0:0:0:
40,377,47028,6,0,B|63:357|63:357|56:260,1,120,4|0,0:2|0:0,0:0:0:0:
68,256,47351,2,0,L|70:172,1,80,8|0,0:0|0:0,0:0:0:0:
7,101,47673,2,0,L|5:17,1,80,4|4,0:0|0:0,0:0:0:0:
139,96,47996,1,8,0:0:0:0:
211,55,48157,1,0,0:0:0:0:
272,113,48318,6,0,L|311:110,1,40,4|0,0:3|0:2,0:0:0:0:
276,124,48479,2,0,L|315:121,1,40,0|0,0:2|0:2,0:0:0:0:
380,76,48641,2,0,P|430:69|475:72,1,80,8|0,0:0|0:2,0:0:0:0:
500,174,48964,2,0,P|450:167|405:170,1,80,4|0,0:0|0:2,0:0:0:0:
347,268,49286,2,0,L|351:373,1,80,8|0,0:0|0:2,0:0:0:0:
84,371,49609,6,0,P|129:333|187:340,1,120,4|0,0:0|0:0,0:0:0:0:
195,356,49931,2,0,L|285:352,1,80,8|0,0:0|0:0,0:0:0:0:
334,280,50254,2,0,L|244:276,1,80,4|4,0:0|0:0,0:0:0:0:
179,228,50576,5,8,0:0:0:0:
179,228,50738,1,0,0:0:0:0:
263,156,50899,1,4,0:0:0:0:
185,138,51060,1,4,0:0:0:0:
334,280,51222,5,8,0:0:0:0:
470,177,51383,1,8,0:0:0:0:
417,276,51544,5,4,0:0:0:0:
495,258,51705,1,4,0:0:0:0:
332,310,51867,5,8,0:0:0:0:
344,90,52028,1,4,0:0:0:0:
344,90,52109,1,4,0:0:0:0:
344,90,52189,6,0,B|323:55|291:61|291:61|312:127|285:201,1,191.999994140625,4|8,0:2|0:0,0:0:0:0:
204,266,52673,1,0,0:0:0:0:
194,131,52835,1,4,0:0:0:0:
140,55,52996,1,4,0:0:0:0:
143,195,53157,2,0,B|64:193|95:250|-9:236,1,143.999995605469,8|0,0:0|0:0,0:0:0:0:
0,220,53480,6,0,P|37:259|34:342,1,95.9999970703126,4|0,0:0|0:0,0:0:0:0:
328,242,53802,2,0,P|291:281|294:364,1,95.9999970703126,8|0,0:0|0:0,0:0:0:0:
377,171,54125,1,4,0:0:0:0:
414,250,54286,1,4,0:0:0:0:
288,163,54447,1,8,0:0:0:0:
426,100,54609,1,0,0:0:0:0:
426,100,54689,1,0,0:0:0:0:
426,100,54770,6,0,B|320:92|374:24|237:30,1,191.999994140625,4|8,0:2|0:0,0:0:0:0:
180,128,55254,1,0,0:0:0:0:
180,128,55415,2,0,P|248:117|321:121,1,95.9999970703126,4|4,0:0|0:0,0:0:0:0:
136,209,55738,1,8,0:0:0:0:
196,5,55899,6,0,B|207:67|181:129|181:129|232:129|277:176,1,191.999994140625
379,84,56383,1,8,0:0:0:0:
379,84,56544,2,0,P|330:78|257:81,1,95.9999970703126,0|4,0:0|0:0,0:0:0:0:
453,24,56867,2,0,P|428:80|436:228,1,191.999994140625,4|0,0:0|0:0,0:0:0:0:
490,374,57351,6,0,B|369:372|448:319|302:309,1,191.999994140625,4|8,0:2|0:0,0:0:0:0:
160,255,57835,1,0,0:0:0:0:
239,201,57996,1,4,0:0:0:0:
86,185,58157,1,4,0:0:0:0:
90,319,58318,1,8,0:0:0:0:
243,335,58480,1,0,0:0:0:0:
239,201,58641,6,0,P|299:187|360:209,1,95.9999970703126,4|0,0:0|0:0,0:0:0:0:
139,114,58964,2,0,P|79:100|18:122,1,95.9999970703126,8|0,0:0|0:0,0:0:0:0:
147,201,59286,1,4,0:0:0:0:
229,109,59447,1,4,0:0:0:0:
157,293,59609,1,8,0:0:0:0:
239,201,59770,1,0,0:0:0:0:
76,264,59931,6,0,P|76:324|202:368,1,191.999994140625,4|8,0:2|0:0,0:0:0:0:
156,292,60415,1,0,0:0:0:0:
343,274,60576,2,0,P|246:265|141:301,1,191.999994140625,4|8,0:0|0:0,0:0:0:0:
300,351,61060,1,0,0:0:0:0:
386,179,61222,5,8,0:0:0:0:
466,342,61383,1,4,0:0:0:0:
390,384,61544,5,8,0:0:0:0:
470,221,61705,1,4,0:0:0:0:
386,179,61867,5,8,0:0:0:0:
466,342,62028,1,4,0:0:0:0:
389,298,62189,5,8,0:0:0:0:
468,136,62351,1,8,0:0:0:0:
468,136,62431,1,0,0:0:0:0:
468,136,62512,6,0,P|415:97|351:99,1,120,4|0,0:2|0:0,0:0:0:0:
277,244,63157,2,0,L|257:113,1,120
55,108,63802,6,0,P|108:147|172:145,1,120
209,65,64447,1,8,0:0:0:0:
82,20,64609,2,0,B|31:27,1,40,4|0,0:0|0:0,0:0:0:0:
53,252,65093,6,0,L|58:124,1,120,4|0,0:2|0:0,0:0:0:0:
82,373,65738,2,0,L|76:245,1,120
281,338,66383,2,0,P|223:361|167:336,1,120
226,260,67028,1,8,0:0:0:0:
361,301,67189,2,0,L|356:385,1,80,4|0,0:0|0:0,0:0:0:0:
467,309,67673,5,4,0:0:0:0:
456,233,67835,1,4,0:0:0:0:
466,235,68157,5,4,0:0:0:0:
301,222,68318,1,12,0:0:0:0:
370,185,68480,1,4,0:0:0:0:
361,180,68802,5,4,0:0:0:0:
430,143,68964,1,4,0:0:0:0:
429,153,69286,5,4,0:0:0:0:
360,116,69448,1,4,0:0:0:0:
231,269,69609,5,8,0:0:0:0:
300,232,69770,1,4,0:0:0:0:
301,222,70093,5,0,0:0:0:0:
409,367,70254,5,8,0:0:0:0:
409,339,70334,1,8,0:0:0:0:
410,312,70415,1,8,0:0:0:0:
410,285,70495,1,8,0:0:0:0:
411,258,70576,2,0,L|413:205,3,34.0000006484985,8|8|8|8,0:0|0:0|0:0|0:0,0:0:0:0:
397,132,70899,5,8,0:0:0:0:
368,117,70979,1,8,0:0:0:0:
337,112,71060,1,8,0:0:0:0:
305,117,71140,1,8,0:0:0:0:
277,131,71222,2,0,P|240:142|226:143,3,40,8|8|8|8,0:0|0:0|0:0|0:0,0:0:0:0:
130,118,71544,5,8,0:0:0:0:
146,156,71624,1,8,0:0:0:0:
139,197,71705,1,8,0:0:0:0:
110,227,71785,1,8,0:0:0:0:
69,236,71866,1,8,0:0:0:0:
30,220,71947,1,8,0:0:0:0:
6,185,72027,1,8,0:0:0:0:
6,143,72108,1,8,0:0:0:0:
30,109,72189,2,0,L|80:105,3,40,8|8|8|8,0:0|0:0|0:0|0:0,0:0:0:0:
155,206,72512,2,0,L|205:210,3,40,8|8|8|8,0:0|0:0|0:0|0:0,0:0:0:0:
337,289,72834,5,4,0:0:0:0:
337,289,72996,1,4,0:0:0:0:
427,170,73157,5,8,0:0:0:0:
427,170,73318,1,0,0:0:0:0:
312,107,73480,5,4,0:0:0:0:
312,107,73641,1,4,0:0:0:0:
426,258,73802,5,8,0:0:0:0:
403,68,73964,1,0,0:0:0:0:
253,184,74125,5,4,0:0:0:0:
427,170,74286,1,4,0:0:0:0:
229,82,74447,5,8,0:0:0:0:
403,68,74608,1,0,0:0:0:0:
276,273,74770,6,0,B|230:282|197:253|197:253|181:296|110:301,1,162.000000617981,4|0,0:0|0:0,0:0:0:0:
57,277,75093,1,8,0:0:0:0:
57,277,75254,1,0,0:0:0:0:
103,80,75415,5,4,0:0:0:0:
103,80,75576,1,4,0:0:0:0:
253,184,75738,5,8,0:0:0:0:
253,184,75899,1,0,0:0:0:0:
77,184,76060,5,4,0:0:0:0:
230,88,76222,1,4,0:0:0:0:
103,80,76383,5,8,0:0:0:0:
253,184,76545,1,0,0:0:0:0:
113,271,76706,6,0,B|171:287|171:287|237:270,1,108.000000411987,4|4,0:0|0:0,0:0:0:0:
232,4,77028,2,0,B|174:-12|174:-12|108:5,1,108.000000411987,8|0,0:0|0:0,0:0:0:0:
344,223,77351,2,0,P|340:141|191:104,1,216.000000823975,4|8,0:0|0:0,0:0:0:0:
253,184,77835,1,4,0:0:0:0:
254,189,77915,1,4,0:0:0:0:
253,194,77996,5,8,0:0:0:0:
291,37,78157,1,0,0:0:0:0:
419,170,78318,5,8,0:0:0:0:
381,13,78479,1,0,0:0:0:0:
253,113,78641,5,8,0:0:0:0:
412,88,78802,1,0,0:0:0:0:
321,223,78964,5,8,0:0:0:0:
174,154,79125,1,0,0:0:0:0:
329,109,79286,5,8,0:0:0:0:
306,301,79447,1,0,0:0:0:0:
180,236,79609,5,8,0:0:0:0:
261,165,79770,1,0,0:0:0:0:
199,325,79931,5,8,0:0:0:0:
70,208,80093,1,0,0:0:0:0:
190,84,80254,5,8,0:0:0:0:
180,236,80415,1,0,0:0:0:0:
263,226,80576,6,0,P|252:198|216:164,1,60.0000022888184,4|4,0:2|0:0,0:0:0:0:
353,311,80899,2,0,P|336:335|325:363,1,60.0000022888184,4|4,0:0|0:0,0:0:0:0:
349,190,81222,1,8,0:0:0:0:
349,190,81383,1,4,0:0:0:0:
220,335,81544,5,4,0:0:0:0:
176,344,81624,1,4,0:0:0:0:
133,332,81705,1,4,0:0:0:0:
102,301,81785,1,4,0:0:0:0:
90,258,81867,6,0,P|121:226|176:276,1,120.000004577637,4|0,0:2|0:0,0:0:0:0:
261,263,82512,2,0,P|230:295|175:245,1,120.000004577637,4|0,0:2|0:0,0:0:0:0:
439,252,83157,6,0,B|456:211|427:164|396:164|347:167|331:204|337:255|337:255|348:304|325:331|284:336|252:311|249:279|266:249,1,383.99998828125,4|4,0:2|0:2,0:0:0:0:
