osu file format v14

[General]
AudioFilename: audio.mp3
AudioLeadIn: 0
PreviewTime: 94478
Countdown: 0
SampleSet: Soft
StackLeniency: 0.7
Mode: 0
LetterboxInBreaks: 0
WidescreenStoryboard: 1

[Editor]
Bookmarks: 300,27342,54384,67905,81426,94947,108469,121990,135511,149032,153263,162553,169314,182835,196356,202905,209877,225088,238609,252130,265652
DistanceSpacing: 0.4
BeatDivisor: 6
GridSize: 32
TimelineZoom: 1.299999

[Metadata]
Title:i
TitleUnicode:i
Artist:POP ART TOWN
ArtistUnicode:POP ART TOWN
Creator:flake
Version:HYPER
Source:
Tags:moph irohas mugiwarasekai lecandy pat japanese alternative rock pop alt j-pop j-rock jpop jrock cat walk records sensation 2nd second album
BeatmapID:3371357
BeatmapSetID:1635846

[Difficulty]
HPDrainRate:4.5
CircleSize:3.6
OverallDifficulty:6
ApproachRate:7.5
SliderMultiplier:2
SliderTickRate:1

[Events]
//Background and Video events
0,0,"i background 2.jpg",0,0
//Break Periods
2,125576,134692
2,225094,230185
//Storyboard Layer 0 (Background)
//Storyboard Layer 1 (Fail)
//Storyboard Layer 2 (Pass)
//Storyboard Layer 3 (Foreground)
//Storyboard Layer 4 (Overlay)
//Storyboard Sound Samples

[TimingPoints]
306,422.535211267606,4,2,1,60,1,0
306,-133.333333333333,4,2,1,60,0,0
6644,-133.333333333333,4,2,1,70,0,0
12136,-133.333333333333,4,2,1,85,0,0
13404,-166.666666666667,4,2,1,40,0,0
13827,-100,4,2,1,80,0,0
15252,-100,4,2,5,5,0,0
15306,-100,4,2,1,80,0,0
17365,-100,4,2,5,5,0,0
17418,-100,4,2,1,80,0,0
17787,-100,4,2,5,5,0,0
17840,-100,4,2,1,80,0,0
18210,-100,4,2,5,5,0,0
18263,-100,4,2,1,80,0,0
25816,-100,4,2,5,5,0,0
25869,-100,4,2,1,80,0,0
27506,-100,4,2,5,5,0,0
27559,-100,4,2,1,80,0,0
27928,-100,4,2,5,5,0,0
27981,-100,4,2,1,80,0,0
28773,-100,4,2,5,5,0,0
28827,-100,4,2,1,80,0,0
30886,-100,4,2,5,5,0,0
30939,-100,4,2,1,80,0,0
31309,-100,4,2,5,5,0,0
31362,-100,4,2,1,80,0,0
32999,-100,4,2,5,5,0,0
33052,-100,4,2,1,80,0,0
34900,-100,4,2,5,5,0,0
34953,-100,4,2,1,80,0,0
35745,-100,4,2,5,5,0,0
35798,-100,4,2,1,80,0,0
54390,-133.333333333333,4,2,1,70,0,0
54601,-133.333333333333,4,2,1,65,0,0
67435,-133.333333333333,4,2,5,5,0,0
67489,-133.333333333333,4,2,1,70,0,0
80323,-133.333333333333,4,2,5,5,0,0
80376,-133.333333333333,4,2,1,70,0,0
87294,-133.333333333333,4,2,5,5,0,0
87348,-133.333333333333,4,2,1,70,0,0
93263,-133.333333333333,4,2,1,85,0,0
94531,-133.333333333333,4,2,1,40,0,0
94953,-100,4,2,1,80,0,0
96379,-100,4,2,5,5,0,0
96432,-100,4,2,1,80,0,0
98492,-100,4,2,5,5,0,0
98545,-100,4,2,1,80,0,0
98914,-100,4,2,5,5,0,0
98967,-100,4,2,1,80,0,0
100604,-100,4,2,5,5,0,0
100658,-100,4,2,1,80,0,0
106203,-100,4,2,5,5,0,0
106256,-100,4,2,1,80,0,0
106942,-100,4,2,5,5,0,0
106995,-100,4,2,1,80,0,0
107576,-100,4,2,5,5,0,0
107629,-100,4,2,1,80,0,0
108633,-100,4,2,5,5,0,0
108686,-100,4,2,1,80,0,0
109055,-100,4,2,5,5,0,0
109108,-100,4,2,1,80,0,0
112013,-100,4,2,5,5,0,0
112066,-100,4,2,1,80,0,0
112435,-100,4,2,5,5,0,0
112489,-100,4,2,1,80,0,0
113280,-100,4,2,5,5,0,0
113334,-100,4,2,1,80,0,0
116872,-100,4,2,5,5,0,0
116925,-100,4,2,1,80,0,0
118562,-100,4,2,5,5,0,0
118615,-100,4,2,1,80,0,0
119407,-100,4,2,5,5,0,0
119460,-100,4,2,1,80,0,0
122207,-100,4,2,1,65,0,0
128334,-100,4,2,1,70,0,0
135517,-133.333333333333,4,2,1,60,0,0
136309,-133.333333333333,4,2,5,5,0,0
136362,-133.333333333333,4,2,1,60,0,0
147982,-133.333333333333,4,2,1,70,0,0
168897,-133.333333333333,4,2,1,80,0,0
169055,-133.333333333333,4,2,5,5,0,0
169108,-133.333333333333,4,2,1,80,0,0
169266,-133.333333333333,4,2,5,5,0,0
169320,-100,4,2,1,80,0,0
172858,-100,4,2,5,5,0,0
172911,-100,4,2,1,80,0,0
173280,-100,4,2,5,5,0,0
173334,-100,4,2,1,80,0,0
174971,-100,4,2,5,5,0,0
175024,-100,4,2,1,80,0,0
181731,-100,4,2,5,5,0,0
181784,-100,4,2,1,80,0,0
186379,-100,4,2,5,5,0,0
186432,-100,4,2,1,80,0,0
186802,-100,4,2,5,5,0,0
186855,-100,4,2,1,80,0,0
197471,-100,4,2,5,5,0,0
197524,-100,4,2,1,80,0,0
198210,-100,4,2,5,5,0,0
198263,-100,4,2,1,80,0,0
198421,-100,4,2,5,5,0,0
198475,-100,4,2,1,80,0,0
203280,-100,4,2,5,5,0,0
203334,-100,4,2,1,80,0,0
205393,-100,4,2,5,5,0,0
205446,-100,4,2,1,80,0,0
205816,-100,4,2,5,5,0,0
205869,-100,4,2,1,80,0,0
206238,-100,4,2,5,5,0,0
206291,-100,4,2,1,80,0,0
207717,-100,4,2,5,5,0,0
207770,-100,4,2,1,80,0,0
210939,-100,4,2,1,70,0,0
220024,-100,4,2,1,80,0,0
222665,-100,4,2,1,20,0,0
225041,-100,4,2,1,40,0,0
231010,-100,4,2,1,70,0,0
231855,-100,4,2,1,60,0,0
235658,-100,4,2,1,50,0,0
235869,-100,4,2,1,55,0,0
236080,-100,4,2,1,60,0,0
236291,-100,4,2,1,65,0,0
236503,-100,4,2,1,70,0,0
238193,-100,4,2,1,80,0,0
238667,-100,4,2,5,5,0,0
239038,-100,4,2,1,80,0,0
239407,-100,4,2,5,5,0,0
239460,-100,4,2,1,80,0,0
243950,-100,4,2,5,5,0,0
244003,-100,4,2,1,80,0,0
246168,-100,4,2,5,5,0,0
246221,-100,4,2,1,80,0,0
247013,-100,4,2,5,5,0,0
247066,-100,4,2,1,80,0,0
248703,-100,4,2,5,5,0,0
248756,-100,4,2,1,80,0,0
263914,-100,4,2,5,5,0,0
263967,-100,4,2,1,80,0,0

[Colours]
Combo1 : 157,165,196
Combo2 : 159,117,53
Combo3 : 223,208,123
Combo4 : 166,193,108

[HitObjects]
314,71,306,6,0,L|489:57,2,150.000005722046,2|0|0,3:2|3:2|3:2,0:0:0:0:
248,20,1362,1,2,0:2:0:0:
248,20,1573,2,0,B|208:29|235:54|187:70,1,75.0000028610231,2|2,3:2|0:2,0:0:0:0:
176,148,1996,6,0,P|163:74|117:16,2,150.000005722046,2|0|0,3:2|3:2|3:2,0:0:0:0:
198,232,3052,1,0,0:2:0:0:
198,232,3263,2,0,L|115:220,1,75.0000028610231,2|2,3:2|0:2,0:0:0:0:
47,189,3686,6,0,P|25:218|21:261,1,75.0000028610231,2|0,3:2|0:2,0:0:0:0:
90,298,4108,2,0,P|104:331|139:356,1,75.0000028610231,2|0,3:2|0:2,0:0:0:0:
211,323,4531,2,0,P|247:327|286:309,1,75.0000028610231,2|0,3:2|0:2,0:0:0:0:
284,232,4953,1,2,3:2:0:0:
290,66,5376,6,0,L|374:76,1,75.0000028610231,2|0,3:2|0:2,0:0:0:0:
446,63,5798,2,0,L|436:147,1,75.0000028610231,2|0,3:2|0:2,0:0:0:0:
448,219,6221,2,0,L|364:209,1,75.0000028610231,2|0,3:2|0:2,0:0:0:0:
292,222,6644,1,8,0:2:0:0:
292,222,7066,6,0,B|278:278|278:278|287:301|287:301|267:382,2,150.000005722046,6|8|0,1:2|0:2|1:2,0:0:0:0:
256,147,8122,2,0,L|211:153,1,37.5000014305115,10|8,0:3|0:3,0:0:0:0:
177,156,8334,1,10,0:2:0:0:
166,158,8439,1,8,0:3:0:0:
155,159,8545,1,6,0:3:0:0:
120,233,8756,6,0,P|61:242|-8:172,2,150.000005722046,2|10|0,1:2|0:2|1:2,0:0:0:0:
194,268,9813,2,0,L|201:314,1,37.5000014305115,6|4,0:3|0:3,0:0:0:0:
203,316,10024,2,0,L|210:362,2,37.5000014305115,10|8|2,0:2|3:3|3:2,0:0:0:0:
280,288,10446,6,0,B|334:282|334:282|354:294,1,75.0000028610231,2|8,1:2|0:3,0:0:0:0:
359,300,10763,1,4,0:3:0:0:
367,306,10869,2,0,P|399:316|442:302,1,75.0000028610231,10|8,0:2|0:3,0:0:0:0:
497,210,11291,6,0,B|443:216|443:216|423:204,1,75.0000028610231,2|4,1:2|0:3,0:0:0:0:
418,198,11608,1,4,0:3:0:0:
412,190,11714,2,0,L|419:148,2,37.5000014305115,10|4|0,0:2|0:3|3:2,0:0:0:0:
366,89,12136,5,4,1:2:0:0:
298,136,12348,1,4,1:2:0:0:
222,103,12559,1,4,1:2:0:0:
154,150,12770,1,4,1:2:0:0:
80,111,12981,1,2,1:2:0:0:
78,117,13404,6,0,L|0:131,1,59.9999981689454,2|2,0:2|0:2,0:0:0:0:
18,127,13827,6,0,P|80:137|68:229,1,150,6|0,1:2|3:2,0:0:0:0:
78,225,14249,2,0,B|118:219|118:219|129:202|129:202|185:195,1,100,10|0,0:2|3:2,0:0:0:0:
223,292,14672,6,0,B|261:294|282:335|282:335|282:290|320:267,1,150,2|0,1:2|3:2,0:0:0:0:
327,264,15094,1,10,0:2:0:0:
408,283,15306,1,2,3:2:0:0:
493,308,15517,6,0,B|481:234|481:234|492:220|492:220|481:140,1,150,2|0,1:2|0:0,0:0:0:0:
481,152,15939,1,8,0:2:0:0:
406,189,16151,1,2,3:2:0:0:
326,156,16362,6,0,B|338:82|338:82|327:68|327:68|338:-12,1,150,2|0,1:2|0:0,0:0:0:0:
338,0,16784,1,8,0:2:0:0:
254,26,16996,2,0,L|195:16,1,50,10|4,0:3|0:3,0:0:0:0:
193,16,17207,5,2,1:2:0:0:
208,99,17418,1,2,0:0:0:0:
117,92,17629,1,10,0:0:0:0:
132,175,17840,1,2,0:0:0:0:
132,175,18052,6,0,B|121:118|48:121|48:121|35:163,1,150,2|0,1:2|0:0,0:0:0:0:
36,175,18475,1,10,0:0:0:0:
62,251,18686,1,2,0:0:0:0:
0,299,18897,6,0,P|108:286|198:275,1,200,6|8,1:2|0:2,0:0:0:0:
251,206,19531,1,2,3:2:0:0:
296,362,19742,2,0,B|266:320|266:320|290:271,1,100,6|0,1:2|3:2,0:0:0:0:
362,310,20165,1,10,0:2:0:0:
370,311,20270,1,8,0:2:0:0:
380,312,20376,1,2,1:2:0:0:
451,359,20587,6,0,P|503:323|411:259,1,200,6|8,1:2|0:2,0:0:0:0:
350,208,21221,1,2,3:2:0:0:
427,161,21432,5,2,1:2:0:0:
406,73,21643,1,2,0:2:0:0:
317,66,21854,1,10,0:2:0:0:
281,149,22066,1,2,0:2:0:0:
350,208,22277,5,2,1:2:0:0:
295,267,22489,2,0,P|266:261|237:257,1,50,2|0,0:2|0:2,0:0:0:0:
236,254,22700,1,10,0:2:0:0:
185,183,22911,2,0,P|194:261|203:347,1,150,2|0,0:2|0:0,0:0:0:0:
203,343,23334,5,2,0:2:0:0:
116,334,23545,1,10,0:2:0:0:
34,324,23756,2,0,B|10:280|10:280|34:230,1,100,2|0,0:2|1:2,0:0:0:0:
107,204,24179,1,2,0:2:0:0:
3,127,24390,2,0,B|71:132|71:132|96:90|96:90|185:94,1,200,10|0,0:2|1:2,0:0:0:0:
258,57,25024,1,0,0:2:0:0:
258,57,25235,2,0,B|275:104|275:104|246:149,1,100,10|2,0:2|0:2,0:0:0:0:
242,152,25552,1,2,0:0:0:0:
236,157,25658,5,6,1:2:0:0:
317,185,25869,1,2,0:2:0:0:
384,130,26080,1,10,0:2:0:0:
483,168,26291,1,10,3:2:0:0:
483,168,26503,2,0,B|491:206|491:206|482:222|482:222|490:267,1,100,2|0,1:2|3:2,0:0:0:0:
410,365,26925,1,10,0:2:0:0:
408,355,27031,1,8,0:2:0:0:
404,346,27136,1,10,0:2:0:0:
402,335,27242,1,8,0:2:0:0:
398,324,27348,5,6,1:2:0:0:
316,357,27559,1,2,0:2:0:0:
316,357,27770,2,0,P|266:348|219:306,1,100,10|2,0:2|3:2,0:0:0:0:
142,274,28193,2,0,P|198:290|261:219,1,150,2|0,1:2|3:2,0:0:0:0:
262,221,28615,1,10,0:2:0:0:
215,159,28827,1,2,3:2:0:0:
257,86,29038,6,0,B|322:94|322:94|337:78|337:78|414:86,1,150,2|0,1:2|0:0,0:0:0:0:
410,86,29460,1,8,0:2:0:0:
428,163,29672,1,2,3:2:0:0:
499,205,29883,6,0,B|436:198|436:198|421:214|421:214|356:206,1,150,2|0,1:2|0:0,0:0:0:0:
348,206,30306,1,8,0:2:0:0:
365,287,30517,2,0,L|309:281,1,50,10|4,0:3|0:3,0:0:0:0:
304,280,30728,6,0,P|308:337|284:379,1,100,6|2,1:2|0:2,0:0:0:0:
189,355,31151,2,0,P|185:298|209:256,1,100,10|2,0:2|3:2,0:0:0:0:
164,179,31573,6,0,L|53:192,1,100,2|0,1:2|0:2,0:0:0:0:
56,191,31890,1,2,3:2:0:0:
49,192,31996,1,10,0:2:0:0:
71,94,32207,1,2,3:2:0:0:
0,53,32418,6,0,B|73:45|73:45|78:28|78:28|148:21,1,150,6|0,1:2|3:2,0:0:0:0:
147,15,32841,2,0,B|184:51|184:51|168:102,1,100,8|2,0:2|3:2,0:0:0:0:
247,203,33263,6,0,L|358:190,1,100,6|0,1:2|0:2,0:0:0:0:
355,191,33580,1,0,3:2:0:0:
363,194,33686,2,0,L|370:134,1,50,8|8,0:2|0:2,0:0:0:0:
359,109,33897,2,0,L|366:49,1,50,0|0,1:2|1:2,0:0:0:0:
350,25,34108,6,0,B|434:14|401:80|506:64,2,150,6|2|10,1:2|3:0|0:2,0:0:0:0:
263,76,34953,6,0,P|222:76|174:41,1,100,2|0,1:2|0:2,0:0:0:0:
175,42,35270,1,2,3:2:0:0:
175,42,35376,2,0,L|189:156,1,100,0|10,1:2|0:2,0:0:0:0:
169,225,35798,6,0,B|126:220|109:180|109:180|64:171|28:205,2,150,2|2|10,1:2|3:2|0:2,0:0:0:0:
221,358,36644,2,0,P|271:352|313:321,1,100,2|0,1:2|0:2,0:0:0:0:
310,323,36960,1,2,3:2:0:0:
310,323,37066,1,2,1:2:0:0:
288,240,37277,2,0,L|346:247,1,50,10|8,0:2|0:2,0:0:0:0:
373,251,37489,5,6,1:2:0:0:
373,251,38334,1,6,1:2:0:0:
373,251,39179,6,0,B|365:236|365:236|384:146,1,100,4|0,1:2|0:2,0:0:0:0:
455,72,39601,2,0,B|440:80|440:80|350:61,1,100,0|0,1:2|0:2,0:0:0:0:
267,1,40024,2,0,B|275:16|275:16|256:106,1,100,0|0,1:2|0:2,0:0:0:0:
185,180,40446,1,4,1:2:0:0:
185,180,40869,6,0,P|153:138|7:148,2,200,6|8|0,1:2|0:2|1:2,0:0:0:0:
116,242,41925,2,0,P|103:263|100:292,1,50,10|8,0:3|0:3,0:0:0:0:
102,299,42136,1,10,0:2:0:0:
107,309,42242,1,8,0:3:0:0:
116,316,42348,1,6,0:3:0:0:
262,334,42559,6,0,L|268:233,1,100,2|0,1:2|0:2,0:0:0:0:
268,233,42876,1,2,3:2:0:0:
268,233,42982,2,0,P|220:220|186:184,2,100,8|0|0,0:2|3:2|1:2,0:0:0:0:
357,230,43615,6,0,L|353:280,1,50,6|4,0:3|0:3,0:0:0:0:
353,294,43827,2,0,L|349:344,2,50,10|8|2,0:2|0:3|3:2,0:0:0:0:
428,333,44249,6,0,B|451:316|451:316|456:241,1,100,2|8,1:2|3:3,0:0:0:0:
486,169,44672,1,10,0:2:0:0:
413,94,44883,1,8,0:3:0:0:
413,94,44989,1,8,0:3:0:0:
413,94,45094,2,0,L|512:87,2,100,2|4|10,1:2|0:3|3:2,0:0:0:0:
270,35,45939,6,0,L|163:44,1,100,2|6,1:2|0:3,0:0:0:0:
94,12,46362,1,10,0:2:0:0:
21,57,46573,1,10,0:3:0:0:
21,57,46679,1,8,0:3:0:0:
21,57,46784,2,0,B|-1:102|-1:102|38:144,1,100,10|4,1:3|0:3,0:0:0:0:
62,277,47207,5,10,1:2:0:0:
109,268,47313,1,8,0:2:0:0:
146,293,47418,1,0,0:0:0:0:
146,293,47629,6,0,P|115:239|119:89,2,200,6|8|0,1:2|0:2|1:2,0:0:0:0:
207,218,48686,2,0,P|204:189|210:161,1,50,10|8,0:3|0:3,0:0:0:0:
213,159,48897,1,10,0:2:0:0:
217,149,49003,1,8,0:3:0:0:
225,142,49108,1,6,0:3:0:0:
344,274,49320,6,0,P|302:236|295:183,1,100,2|0,1:2|0:2,0:0:0:0:
297,187,49636,1,2,3:2:0:0:
304,181,49742,2,0,P|360:178|402:210,2,100,8|0|0,0:2|3:2|1:2,0:0:0:0:
225,296,50376,2,0,P|191:297|165:278,1,50,6|4,0:3|0:3,0:0:0:0:
167,283,50587,2,0,P|143:274|119:277,2,50,10|8|2,0:2|0:3|3:2,0:0:0:0:
50,321,51010,6,0,P|66:271|60:213,1,100,2|8,1:2|3:3,0:0:0:0:
217,214,51432,2,0,P|201:164|207:106,1,100,10|8,0:2|0:3,0:0:0:0:
144,66,51855,1,2,1:2:0:0:
216,23,52066,1,4,0:3:0:0:
216,23,52172,1,4,0:3:0:0:
216,23,52277,2,0,L|337:37,1,100,10|0,3:2|3:2,0:0:0:0:
417,27,52700,6,0,P|433:53|440:79,3,50,2|4|6|4,1:2|0:3|0:3|0:3,0:0:0:0:
503,121,53122,2,0,P|493:149|477:172,3,50,10|8|8|8,0:2|0:3|0:3|0:3,0:0:0:0:
506,242,53545,1,0,1:2:0:0:
323,159,53967,1,8,0:2:0:0:
293,163,54073,1,8,0:2:0:0:
263,167,54179,1,8,0:2:0:0:
233,171,54284,1,8,0:2:0:0:
203,173,54390,5,0,1:2:0:0:
155,240,54601,1,2,0:2:0:0:
155,240,54707,1,2,0:3:0:0:
155,240,54813,2,0,P|116:231|63:228,1,75.0000028610231,8|2,0:2|0:2,0:0:0:0:
5,141,55235,2,0,P|42:137|78:128,1,75.0000028610231,2|0,0:2|3:2,0:0:0:0:
28,57,55658,1,10,0:2:0:0:
95,11,55869,6,0,B|184:16|135:75|230:83,1,150.000005722046,2|2,0:2|0:2,0:0:0:0:
285,135,56503,2,0,P|300:100|304:53,1,75.0000028610231,10|0,0:2|3:2,0:0:0:0:
303,54,56820,1,2,3:2:0:0:
298,43,56925,1,2,0:2:0:0:
386,50,57136,1,0,3:2:0:0:
473,61,57348,2,0,P|458:95|453:132,1,75.0000028610231,8|0,0:2|0:0,0:0:0:0:
511,198,57770,5,0,1:2:0:0:
456,261,57982,1,2,0:2:0:0:
456,261,58087,1,2,3:2:0:0:
456,261,58193,2,0,P|417:244|383:240,1,75.0000028610231,8|2,0:2|0:2,0:0:0:0:
356,159,58615,2,0,P|317:176|283:180,1,75.0000028610231,2|0,0:2|3:2,0:0:0:0:
218,128,59038,1,10,0:2:0:0:
178,211,59249,6,0,P|182:166|139:69,1,150.000005722046,2|2,0:2|0:2,0:0:0:0:
60,94,59883,2,0,P|56:139|99:236,1,150.000005722046,10|0,0:2|0:2,0:0:0:0:
51,304,60517,1,0,3:2:0:0:
149,360,60728,2,0,P|183:326|300:338,1,150.000005722046,8|0,0:2|1:2,0:0:0:0:
342,375,61362,6,0,L|319:206,1,150.000005722046,2|2,3:2|0:2,0:0:0:0:
385,166,61996,2,0,P|421:170|459:190,2,75.0000028610231,2|0|10,0:2|3:2|0:2,0:0:0:0:
343,56,62629,2,0,P|309:73|272:77,1,75.0000028610231,2|0,0:2|1:2,0:0:0:0:
209,163,63052,1,2,3:2:0:0:
209,163,63158,1,2,3:2:0:0:
209,163,63263,2,0,P|174:148|147:122,1,75.0000028610231,10|0,0:2|3:2,0:0:0:0:
168,42,63686,1,0,0:2:0:0:
86,32,63897,1,0,3:2:0:0:
34,101,64108,2,0,P|46:164|62:261,1,150.000005722046,8|0,0:2|1:2,0:0:0:0:
17,321,64742,5,2,0:2:0:0:
87,365,64953,2,0,P|127:358|161:339,1,75.0000028610231,8|2,0:2|0:2,0:0:0:0:
149,259,65376,2,0,P|189:266|223:285,1,75.0000028610231,2|0,0:2|3:2,0:0:0:0:
236,359,65798,1,8,0:2:0:0:
315,330,66010,1,2,0:2:0:0:
315,330,66115,1,2,3:2:0:0:
315,330,66221,6,0,B|342:304|342:304|464:321,2,150.000005722046,0|8|0,1:2|0:2|0:2,0:0:0:0:
219,282,67277,1,0,1:2:0:0:
292,239,67489,2,0,L|282:193,1,37.5000014305115,8|0,0:2|0:2,0:0:0:0:
207,143,67700,2,0,L|197:189,1,37.5000014305115,8|4,0:3|0:3,0:0:0:0:
281,191,67911,6,0,P|330:190|416:123,1,150.000005722046,4|8,1:2|0:2,0:0:0:0:
487,179,68545,1,2,0:2:0:0:
487,179,68756,2,0,P|493:134|511:96,1,75.0000028610231,2|0,1:2|3:2,0:0:0:0:
457,39,69179,1,10,0:2:0:0:
372,24,69390,1,2,0:2:0:0:
372,24,69496,1,2,0:2:0:0:
372,24,69601,6,0,B|286:6|332:86|235:60,1,150.000005722046,0|10,1:2|0:2,0:0:0:0:
168,108,70235,1,0,0:2:0:0:
91,29,70446,2,0,P|56:34|19:62,1,75.0000028610231,0|0,1:2|3:2,0:0:0:0:
23,56,70763,1,2,3:2:0:0:
23,56,70869,1,10,0:2:0:0:
77,138,71080,2,0,L|66:180,1,37.5000014305115,4|0,0:3|0:0,0:0:0:0:
42,201,71291,6,0,P|102:191|120:283,1,150.000005722046,0|10,1:2|0:2,0:0:0:0:
96,342,71925,1,2,0:2:0:0:
96,342,72136,2,0,P|62:324|19:324,2,75.0000028610231,2|2|10,1:2|3:2|0:2,0:0:0:0:
187,333,72770,1,2,0:2:0:0:
187,333,72876,1,2,0:2:0:0:
187,333,72982,2,0,P|224:331|257:314,1,75.0000028610231,0|2,1:2|3:2,0:0:0:0:
272,229,73404,1,10,0:2:0:0:
345,288,73615,1,0,0:2:0:0:
345,288,73827,2,0,P|313:234|323:138,2,150.000005722046,0|8|0,1:2|0:2|1:2,0:0:0:0:
420,248,74883,6,0,P|468:254|499:269,2,75.0000028610231,2|10|2,3:2|0:2|0:2,0:0:0:0:
389,132,75517,2,0,P|354:145|316:148,1,75.0000028610231,2|2,1:2|3:2,0:0:0:0:
254,99,75939,1,10,0:2:0:0:
278,220,76151,2,0,P|243:206|205:203,1,75.0000028610231,0|0,0:0|1:2,0:0:0:0:
137,250,76573,1,2,3:2:0:0:
137,250,76784,2,0,P|136:294|118:323,1,75.0000028610231,10|2,0:2|3:2,0:0:0:0:
36,299,77207,6,0,P|37:255|55:226,1,75.0000028610231,2|0,1:2|3:2,0:0:0:0:
126,163,77629,2,0,P|125:119|107:90,1,75.0000028610231,10|0,0:2|0:2,0:0:0:0:
166,30,78052,6,0,P|124:61|17:77,2,150.000005722046,2|10|2,1:2|0:2|1:2,0:0:0:0:
214,111,79108,1,0,3:2:0:0:
214,111,79320,2,0,P|256:80|363:64,1,150.000005722046,8|0,0:2|1:2,0:0:0:0:
422,20,79953,1,2,3:2:0:0:
481,80,80165,2,0,L|466:164,1,75.0000028610231,8|0,0:2|3:2,0:0:0:0:
355,175,80587,2,0,L|366:261,1,75.0000028610231,0|0,1:2|3:2,0:0:0:0:
360,368,81010,1,8,0:2:0:0:
344,351,81115,1,8,0:2:0:0:
324,338,81221,1,8,0:2:0:0:
301,333,81327,1,8,0:2:0:0:
286,312,81432,6,0,P|236:333|161:338,2,112.500004291535,6|2|2,1:2|1:2|1:2,0:0:0:0:
247,214,82489,1,2,3:2:0:0:
247,214,82700,2,0,L|254:134,1,75.0000028610231,10|0,0:2|0:0,0:0:0:0:
193,71,83122,6,0,B|157:64|157:64|126:89,1,75.0000028610231,0|2,1:2|0:2,0:0:0:0:
119,94,83439,1,2,3:2:0:0:
111,102,83545,2,0,L|104:176,1,75.0000028610231,10|2,0:0|0:2,0:0:0:0:
14,203,83967,2,0,B|100:187|70:255|158:242,1,150.000005722046,2|10,3:2|0:2,0:0:0:0:
233,327,84601,1,10,0:2:0:0:
233,327,84707,1,8,0:2:0:0:
233,327,84813,6,0,L|369:341,2,112.500004291535,6|6|6,1:2|1:2|1:2,0:0:0:0:
274,196,85869,1,2,3:2:0:0:
341,241,86080,2,0,P|383:234|417:214,1,75.0000028610231,8|0,0:0|0:0,0:0:0:0:
488,128,86503,6,0,L|480:82,1,37.5000014305115,4|8,3:3|3:3,0:0:0:0:
464,50,86714,2,0,L|456:96,1,37.5000014305115,8|4,3:3|3:3,0:0:0:0:
412,111,86925,2,0,P|370:104|336:84,1,75.0000028610231,8|2,0:2|0:2,0:0:0:0:
266,32,87348,2,0,P|224:39|190:59,1,75.0000028610231,0|2,1:2|0:2,0:0:0:0:
186,60,87665,1,8,0:2:0:0:
177,65,87770,2,0,L|182:109,1,37.5000014305115,10|8,0:2|0:3,0:0:0:0:
159,139,87982,2,0,L|164:183,1,37.5000014305115,10|4,0:3|0:3,0:0:0:0:
143,219,88193,6,0,L|25:209,2,112.500004291535,6|2|2,1:2|1:2|1:2,0:0:0:0:
196,291,89249,1,2,1:2:0:0:
259,238,89460,2,0,L|309:245,1,37.5000014305115,8|0,0:2|0:0,0:0:0:0:
340,249,89672,1,0,3:0:0:0:
350,251,89777,1,0,3:0:0:0:
362,253,89883,6,0,L|380:369,2,112.500004291535,6|2|2,1:2|1:2|1:2,0:0:0:0:
419,186,90728,2,0,L|429:136,1,37.5000014305115,10|8,0:2|0:2,0:0:0:0:
308,31,91151,2,0,L|298:81,1,37.5000014305115,10|8,0:3|0:3,0:0:0:0:
297,79,91362,1,6,0:3:0:0:
324,150,91573,6,0,P|298:123|181:104,1,150.000005722046,4|0,1:2|3:2,0:0:0:0:
131,37,92207,1,2,0:2:0:0:
131,37,92418,2,0,P|139:97|128:197,1,150.000005722046,2|0,3:2|3:2,0:0:0:0:
49,178,93052,1,2,0:2:0:0:
9,250,93263,5,8,0:2:0:0:
89,261,93475,1,10,0:2:0:0:
169,274,93686,2,0,L|180:351,1,75.0000028610231,10|10,0:2|0:2,0:0:0:0:
261,363,94108,1,4,1:2:0:0:
233,200,94531,1,2,0:2:0:0:
299,248,94742,1,2,0:2:0:0:
376,212,94953,6,0,P|426:177|349:129,1,150,6|0,1:2|3:2,0:0:0:0:
372,116,95376,2,0,B|340:122|330:143|330:143|331:120|292:94,1,100,10|0,0:2|3:2,0:0:0:0:
302,22,95798,6,0,B|214:18|270:88|165:79,1,150,2|0,1:2|3:2,0:0:0:0:
164,82,96221,1,10,0:2:0:0:
111,20,96432,1,2,3:2:0:0:
46,69,96644,6,0,P|74:129|89:233,1,150,2|0,1:2|0:0,0:0:0:0:
90,223,97066,1,8,0:2:0:0:
190,212,97277,1,2,3:2:0:0:
190,212,97383,1,2,0:0:0:0:
190,212,97489,6,0,P|162:272|147:376,1,150,2|0,1:2|3:0,0:0:0:0:
149,365,97911,1,8,0:2:0:0:
237,332,98122,2,0,P|246:311|252:274,1,50,10|4,0:3|0:3,0:0:0:0:
255,275,98334,5,6,1:2:0:0:
333,289,98545,1,2,0:2:0:0:
370,219,98756,1,10,0:2:0:0:
309,155,98968,1,2,3:2:0:0:
309,155,99179,6,0,B|405:144|336:85|456:67,1,150,2|0,1:2|3:2,0:0:0:0:
436,71,99601,1,10,0:2:0:0:
446,153,99813,1,2,3:2:0:0:
501,217,100024,6,0,P|422:184|393:283,1,200,6|8,1:2|0:2,0:0:0:0:
295,259,100658,1,2,1:2:0:0:
331,358,100869,2,0,P|277:340|228:337,1,100,0|0,1:3|0:0,0:0:0:0:
105,262,101291,2,0,P|129:259|153:251,1,50,8|8,0:2|0:2,0:0:0:0:
173,212,101503,2,0,P|158:191|139:175,1,50,8|0,0:2|0:0,0:0:0:0:
93,179,101714,1,0,3:2:0:0:
93,179,102136,6,0,B|123:136|103:88|103:88|131:129|198:142,1,200,4|2,1:2|1:2,0:0:0:0:
267,201,102770,1,2,0:2:0:0:
267,201,102982,2,0,P|269:151|294:108,1,100,10|2,0:2|0:2,0:0:0:0:
279,33,103404,2,0,P|336:39|365:76,1,100,2|2,1:2|0:2,0:0:0:0:
424,120,103827,1,10,0:2:0:0:
351,162,104038,2,0,P|422:146|516:238,1,200,2|6,0:2|0:3,0:0:0:0:
476,302,104672,1,10,0:2:0:0:
476,302,104883,6,0,P|429:305|365:315,1,100,2|0,0:2|1:2,0:0:0:0:
303,261,105306,1,2,0:2:0:0:
283,356,105517,2,0,P|223:369|110:268,2,200,10|0|10,0:2|1:2|0:2,0:0:0:0:
303,261,106573,1,2,0:2:0:0:
303,261,106784,6,0,P|290:204|269:149,1,100,6|2,1:2|0:2,0:0:0:0:
215,92,107207,1,10,0:2:0:0:
324,96,107418,1,2,3:2:0:0:
324,96,107629,2,0,P|337:39|358:-16,1,100,2|0,1:2|0:0,0:0:0:0:
432,42,108052,2,0,P|426:66|418:90,1,50,10|8,0:2|0:2,0:0:0:0:
414,98,108263,2,0,P|422:121|427:146,1,50,10|8,0:2|0:2,0:0:0:0:
454,178,108475,5,6,1:2:0:0:
387,233,108686,1,2,0:2:0:0:
312,271,108897,2,0,L|302:370,1,100,10|2,0:2|3:2,0:0:0:0:
228,302,109320,2,0,B|114:279|168:385|39:356,1,200,2|10,1:2|0:2,0:0:0:0:
5,286,109953,1,2,3:2:0:0:
13,205,110165,6,0,B|57:208|71:236|71:236|112:213|124:166,1,150,2|4,1:2|0:3,0:0:0:0:
125,165,110587,1,8,0:2:0:0:
67,106,110798,1,2,3:2:0:0:
115,38,111010,6,0,B|175:47|175:47|198:80|198:80|259:88,1,150,2|0,1:2|3:2,0:0:0:0:
260,87,111432,1,8,0:2:0:0:
337,42,111644,1,10,0:3:0:0:
337,42,111749,1,4,0:3:0:0:
337,42,111855,2,0,B|359:86|359:86|330:135,1,100,6|2,1:2|0:2,0:0:0:0:
275,184,112277,2,0,P|327:183|378:201,1,100,10|2,0:2|3:2,0:0:0:0:
465,200,112700,5,2,1:2:0:0:
463,212,112806,2,0,L|436:313,1,100,8|0,0:0|3:2,0:0:0:0:
416,317,113122,2,0,P|364:318|313:300,1,100,10|2,0:2|3:2,0:0:0:0:
214,371,113545,6,0,P|224:330|197:223,1,150,6|0,1:2|3:2,0:0:0:0:
194,215,113967,1,8,0:2:0:0:
104,258,114179,2,0,L|51:246,1,50,2|0,3:2|0:0,0:0:0:0:
25,260,114390,5,2,1:2:0:0:
16,266,114496,2,0,P|33:216|25:165,1,100,8|0,0:2|3:2,0:0:0:0:
19,88,114813,6,0,L|70:97,1,50,8|8,0:2|0:2,0:0:0:0:
97,70,115024,2,0,L|148:79,1,50,8|8,0:2|0:2,0:0:0:0:
216,45,115235,6,0,P|169:80|296:100,1,300,6|10,1:2|0:2,0:0:0:0:
306,40,116080,2,0,B|363:36|345:79|399:80,1,100,2|0,1:2|0:2,0:0:0:0:
401,74,116397,1,2,3:2:0:0:
410,68,116503,2,0,P|404:124|399:168,1,100,0|10,1:2|0:2,0:0:0:0:
364,241,116925,6,0,P|417:208|515:215,2,150,2|2|10,1:2|3:2|0:2,0:0:0:0:
351,320,117770,2,0,B|269:319|320:239|215:246,1,150,2|0,1:2|3:2,0:0:0:0:
221,242,118193,1,0,1:2:0:0:
227,325,118404,2,0,P|205:328|176:342,1,50,10|0,0:0|0:0,0:0:0:0:
168,346,118615,6,0,B|118:318|118:318|98:163,1,200,2|0,1:2|1:2,0:0:0:0:
31,119,119249,5,14,0:2:0:0:
58,25,119460,2,0,P|126:41|192:45,1,100,2|0,1:2|3:2,0:0:0:0:
195,139,119883,2,0,P|229:131|262:129,1,50,8|8,0:2|0:2,0:0:0:0:
269,101,120094,2,0,P|293:107|317:110,1,50,8|8,0:2|0:2,0:0:0:0:
351,95,120306,6,0,P|339:146|332:204,1,100,4|0,1:2|0:2,0:0:0:0:
225,225,120728,2,0,P|237:276|244:334,1,100,4|0,1:2|0:2,0:0:0:0:
332,368,121151,5,12,0:2:0:0:
332,368,121362,1,0,1:2:0:0:
425,308,121573,5,12,0:2:0:0:
425,308,121784,1,0,1:2:0:0:
369,217,121996,5,4,1:2:0:0:
256,192,122101,12,0,125376,0:0:0:0:
76,313,135517,5,4,3:2:0:0:
126,249,135728,1,2,0:2:0:0:
126,249,135939,2,0,P|165:255|202:274,1,75.0000028610231,0|2,3:2|0:2,0:0:0:0:
216,348,136362,1,2,3:2:0:0:
294,329,136573,2,0,L|298:244,1,75.0000028610231,2|2,0:2|3:2,0:0:0:0:
243,193,136996,2,0,B|337:183|299:241|384:229,1,150.000005722046,2|2,0:2|0:2,0:0:0:0:
445,177,137629,5,0,3:2:0:0:
450,168,137735,2,0,P|463:132|455:94,1,75.0000028610231,2|0,0:2|0:2,0:0:0:0:
449,82,138052,1,0,3:2:0:0:
359,101,138263,1,2,0:2:0:0:
266,111,138475,5,0,3:2:0:0:
260,101,138580,2,0,L|269:23,1,75.0000028610231,2|0,0:2|0:2,0:0:0:0:
264,16,138897,1,0,3:2:0:0:
181,56,139108,5,2,0:2:0:0:
181,56,139320,2,0,P|140:51|102:39,1,75.0000028610231,2|2,3:2|0:2,0:0:0:0:
54,150,139742,2,0,P|89:139|127:135,1,75.0000028610231,2|2,3:2|0:2,0:0:0:0:
185,199,140165,1,2,3:2:0:0:
117,246,140376,6,0,L|274:225,1,150.000005722046,2|2,0:2|0:2,0:0:0:0:
276,146,141010,2,0,B|363:163|303:205|404:222,2,150.000005722046,2|0|0,3:2|3:2|3:2,0:0:0:0:
262,58,142066,1,0,0:2:0:0:
200,113,142277,5,0,3:2:0:0:
200,113,142489,2,0,B|136:107|136:107|118:122|118:122|41:113,1,150.000005722046,2|2,0:2|0:2,0:0:0:0:
6,179,143122,2,0,B|-8:213|-8:213|12:258,1,75.0000028610231,2|2,3:2|0:2,0:0:0:0:
0,333,143545,1,2,3:2:0:0:
0,333,143756,2,0,L|154:306,1,150.000005722046,2|2,0:2|0:2,0:0:0:0:
204,240,144390,1,2,3:2:0:0:
272,292,144601,1,2,0:2:0:0:
272,292,144813,2,0,P|287:256|238:160,2,150.000005722046,2|0|0,3:2|3:2|3:2,0:0:0:0:
371,288,145869,6,0,B|412:290|431:328|431:328|435:284|470:264,1,150.000005722046,2|2,0:2|0:2,0:0:0:0:
440,175,146503,2,0,B|470:183|470:183|480:180|480:180|519:189,2,75.0000028610231,2|2|2,3:2|0:2|3:2,0:0:0:0:
367,206,147136,1,2,0:2:0:0:
367,206,147348,5,0,3:2:0:0:
323,131,147559,2,0,L|332:89,2,37.5000014305115,2|0|0,0:2|0:2|3:2,0:0:0:0:
255,82,147982,6,0,B|219:71|219:71|199:104,1,75.0000028610231,8|0,0:2|1:2,0:0:0:0:
186,84,148298,2,0,B|150:73|150:73|130:106,1,75.0000028610231,8|0,0:2|0:2,0:0:0:0:
118,122,148615,5,8,0:3:0:0:
142,149,148720,1,8,0:3:0:0:
151,185,148826,1,4,0:3:0:0:
140,221,148931,1,4,0:3:0:0:
120,247,149038,5,6,1:2:0:0:
101,333,149249,1,2,0:2:0:0:
101,333,149355,1,2,0:3:0:0:
101,333,149460,2,0,P|138:333|172:348,1,75.0000028610231,10|0,0:2|3:2,0:0:0:0:
230,289,149883,1,2,1:2:0:0:
273,360,150094,1,0,0:2:0:0:
331,300,150306,1,8,0:2:0:0:
331,300,150517,2,0,P|386:322|478:313,1,150.000005722046,2|2,3:2|0:2,0:0:0:0:
485,232,151151,2,0,P|430:210|338:219,2,150.000005722046,10|2|8,0:2|1:2|0:2,0:0:0:0:
452,127,152207,2,0,P|457:114|473:88,1,37.5000014305115,2|2,3:2|3:2,0:0:0:0:
473,81,152418,6,0,P|433:93|390:95,1,75.0000028610231,2|0,1:2|0:2,0:0:0:0:
339,35,152841,1,10,0:2:0:0:
311,130,153052,1,2,3:2:0:0:
311,130,153158,1,2,0:0:0:0:
311,130,153263,2,0,P|271:118|228:116,1,75.0000028610231,2|0,1:2|0:2,0:0:0:0:
167,162,153686,1,8,0:2:0:0:
94,111,153897,6,0,P|125:182|127:270,1,150.000005722046,2|2,3:2|0:2,0:0:0:0:
49,290,154531,1,10,0:2:0:0:
129,265,154742,1,0,0:0:0:0:
110,347,154953,1,2,1:2:0:0:
119,351,155059,2,0,P|158:349|193:326,1,75.0000028610231,8|2,0:2|3:2,0:0:0:0:
194,321,155376,2,0,L|202:368,2,37.5000014305115,8|8|0,0:2|0:2|3:2,0:0:0:0:
239,195,155798,5,6,1:2:0:0:
289,279,156010,1,2,3:2:0:0:
289,279,156115,1,2,3:2:0:0:
289,279,156221,2,0,P|314:313|323:351,1,75.0000028610231,10|0,0:2|3:2,0:0:0:0:
368,227,156644,2,0,P|378:191|401:161,1,75.0000028610231,2|2,1:2|3:2,0:0:0:0:
344,97,157066,1,8,0:2:0:0:
418,68,157277,2,0,B|350:61|350:61|343:68|343:68|252:60,1,150.000005722046,2|2,3:2|0:2,0:0:0:0:
196,17,157911,1,10,0:2:0:0:
196,17,158122,1,0,0:2:0:0:
155,87,158334,6,0,P|141:45|112:21,1,75.0000028610231,2|0,1:2|0:0,0:0:0:0:
50,70,158756,2,0,P|64:112|93:136,1,75.0000028610231,10|0,0:2|3:2,0:0:0:0:
30,194,159179,6,0,P|100:169|134:239,1,150.000005722046,2|10,1:2|0:2,0:0:0:0:
207,270,159813,1,0,3:2:0:0:
158,333,160024,2,0,L|288:309,1,112.500004291535,2|2,1:2|3:2,0:0:0:0:
278,312,160446,2,0,B|274:352|274:352|280:353|280:353|274:390,1,75.0000028610231,8|2,0:2|3:2,0:0:0:0:
363,323,160869,5,0,1:2:0:0:
341,238,161080,1,2,3:2:0:0:
341,238,161291,2,0,B|473:256|473:256|491:246,2,150.000005722046,10|0|8,0:2|1:2|0:2,0:0:0:0:
380,157,162348,2,0,L|371:105,1,37.5000014305115,8|4,0:3|0:3,0:0:0:0:
371,106,162559,6,0,B|441:118|416:77|488:90,2,112.500004291535,6|10|10,1:2|0:2|3:2,0:0:0:0:
310,39,163404,2,0,L|232:51,1,75.0000028610231,2|0,1:2|0:2,0:0:0:0:
229,65,163721,2,0,L|133:53,1,75.0000028610231,10|0,0:2|0:2,0:0:0:0:
144,46,164038,1,2,3:2:0:0:
101,145,164249,6,0,B|48:162|48:162|-3:131,2,112.500004291535,2|10|10,1:2|0:2|0:2,0:0:0:0:
112,141,164989,1,8,0:2:0:0:
124,139,165094,2,0,L|110:224,1,75.0000028610231,6|0,1:2|0:2,0:0:0:0:
185,242,165517,2,0,L|171:327,1,75.0000028610231,6|0,1:2|0:0,0:0:0:0:
101,349,165939,6,0,L|251:336,1,150.000005722046,2|10,1:2|0:2,0:0:0:0:
355,278,166784,5,2,1:2:0:0:
364,273,166889,2,0,B|403:272|403:272|445:310,1,75.0000028610231,8|0,0:2|0:2,0:0:0:0:
438,305,167207,2,0,L|425:355,2,37.5000014305115,10|8|4,0:2|0:3|0:3,0:0:0:0:
487,233,167629,1,2,1:2:0:0:
487,233,168897,6,0,L|479:184,1,37.5000014305115,6|0,1:2|0:0,0:0:0:0:
411,156,169108,2,0,L|403:107,1,37.5000014305115,6|0,1:2|0:0,0:0:0:0:
441,48,169320,6,0,P|384:76|293:79,1,150,6|0,1:2|0:2,0:0:0:0:
286,73,169742,1,10,0:2:0:0:
247,159,169953,1,0,3:2:0:0:
247,159,170165,6,0,P|190:131|99:128,1,150,2|0,1:2|0:2,0:0:0:0:
92,134,170587,1,10,0:2:0:0:
153,211,170798,1,2,3:2:0:0:
153,211,171010,6,0,P|136:260|140:312,1,100,2|0,1:2|3:2,0:0:0:0:
143,316,171327,1,2,0:0:0:0:
148,324,171433,1,10,0:2:0:0:
223,295,171644,1,2,3:2:0:0:
290,336,171855,6,0,P|307:287|303:235,1,100,2|0,1:2|0:0,0:0:0:0:
300,231,172172,1,2,3:2:0:0:
295,223,172278,1,10,0:2:0:0:
344,157,172489,2,0,P|368:161|396:177,1,50,10|4,0:3|0:3,0:0:0:0:
410,182,172700,6,0,B|426:162|426:162|416:81,1,100,6|2,1:2|0:2,0:0:0:0:
287,12,173122,2,0,B|271:32|271:32|281:113,1,100,10|2,0:2|3:2,0:0:0:0:
344,157,173545,6,0,B|258:150|258:150|254:158|254:158|143:149,1,200,2|10,1:2|0:2,0:0:0:0:
77,100,174179,1,2,3:2:0:0:
28,168,174390,6,0,B|47:288|47:288|30:328,1,150,6|0,1:2|3:2,0:0:0:0:
30,323,174813,1,8,0:2:0:0:
122,312,175024,1,2,3:2:0:0:
193,349,175235,6,0,B|169:303|169:303|181:255,1,100,0|0,1:2|0:0,0:0:0:0:
267,254,175658,1,8,0:2:0:0:
267,254,175763,1,8,0:2:0:0:
267,254,175869,1,8,0:2:0:0:
276,335,176080,1,2,1:2:0:0:
276,335,176503,6,0,B|290:294|290:294|402:284|402:284|432:327,1,200,4|2,1:2|1:2,0:0:0:0:
498,274,177136,1,2,0:2:0:0:
498,274,177348,2,0,B|469:233|469:233|487:174,1,100,10|2,0:2|0:2,0:0:0:0:
475,101,177770,6,0,L|370:114,1,100,2|0,1:2|0:2,0:0:0:0:
310,66,178193,1,10,0:2:0:0:
310,156,178404,1,2,0:2:0:0:
310,156,178615,2,0,P|363:165|410:192,1,100,2|2,1:2|0:2,0:0:0:0:
239,107,179038,2,0,P|194:130|145:137,1,100,10|0,0:2|0:2,0:0:0:0:
92,206,179460,6,0,P|93:141|37:15,2,200,2|10|2,1:2|0:2|1:2,0:0:0:0:
179,346,180728,1,10,0:2:0:0:
234,279,180939,1,2,0:2:0:0:
313,308,181151,5,6,1:2:0:0:
324,306,181256,2,0,B|380:297|356:257|412:247,1,100,8|0,0:0|3:2,0:0:0:0:
412,249,181573,1,10,0:2:0:0:
488,288,181784,1,2,1:2:0:0:
480,206,181996,2,0,B|488:169|488:169|483:153|483:153|496:101,1,100,10|8,1:2|0:0,0:0:0:0:
434,39,182418,2,0,L|377:47,1,50,10|8,0:2|0:2,0:0:0:0:
369,81,182629,2,0,L|312:73,1,50,10|8,0:2|0:2,0:0:0:0:
294,55,182841,6,0,B|303:120|274:96|283:162,1,100,6|0,1:2|0:0,0:0:0:0:
281,152,183263,1,10,0:2:0:0:
198,136,183475,1,2,3:2:0:0:
129,188,183686,6,0,B|120:253|149:229|140:295,1,100,2|0,1:2|0:0,0:0:0:0:
142,285,184108,1,10,0:2:0:0:
225,269,184320,1,2,3:2:0:0:
210,357,184531,6,0,L|371:332,1,150,2|0,1:2|0:0,0:0:0:0:
368,341,184953,1,8,0:2:0:0:
376,249,185165,1,2,3:2:0:0:
457,220,185376,6,0,L|296:195,1,150,2|0,1:2|3:2,0:0:0:0:
299,204,185798,1,8,0:2:0:0:
344,118,186010,1,10,0:3:0:0:
302,49,186221,6,0,B|240:41|264:79|198:70,1,100,6|2,1:2|0:2,0:0:0:0:
133,25,186644,1,10,0:2:0:0:
99,105,186855,1,2,3:2:0:0:
99,105,187066,2,0,B|131:147|131:147|108:261,1,150,2|0,1:2|3:2,0:0:0:0:
110,256,187489,1,10,0:2:0:0:
23,250,187700,1,2,3:2:0:0:
58,321,187911,6,0,P|121:298|213:384,1,200,6|8,1:2|0:2,0:0:0:0:
279,290,188545,1,2,3:2:0:0:
279,290,188651,1,2,0:2:0:0:
279,290,188756,2,0,P|321:311|386:299,1,100,6|0,1:2|0:2,0:0:0:0:
383,301,189073,1,0,3:2:0:0:
392,297,189179,6,0,L|381:241,1,50,8|8,0:2|0:2,0:0:0:0:
395,215,189390,2,0,L|384:159,1,50,8|8,0:2|0:2,0:0:0:0:
404,133,189601,6,0,B|408:105|435:84|435:84|181:64,1,300,6|10,1:2|0:2,0:0:0:0:
155,133,190446,2,0,B|130:120|119:90|119:90|25:102,2,150,2|2|10,1:2|3:2|0:2,0:0:0:0:
251,146,191291,2,0,P|225:197|176:225,1,100,2|0,1:2|0:2,0:0:0:0:
182,224,191608,1,2,3:2:0:0:
174,226,191714,2,0,P|116:219|73:183,1,100,0|10,1:2|0:2,0:0:0:0:
0,266,192136,2,0,P|86:240|103:329,1,200,2|0,1:2|1:2,0:0:0:0:
173,373,192770,2,0,L|229:355,1,50,10|0,0:2|0:0,0:0:0:0:
233,367,192982,6,0,B|215:286|215:286|227:270|227:270|203:164,1,200,6|0,1:2|1:2,0:0:0:0:
127,156,193615,1,8,0:2:0:0:
151,35,193827,2,0,P|248:49|357:59,1,200,2|0,1:2|1:2,0:0:0:0:
418,203,194460,2,0,P|412:181|414:150,1,50,10|0,0:2|0:2,0:0:0:0:
412,144,194672,6,0,P|361:147|307:156,1,100,6|0,1:2|0:0,0:0:0:0:
270,256,195094,2,0,P|219:253|165:244,1,100,2|0,1:2|3:2,0:0:0:0:
162,241,195411,1,0,3:2:0:0:
152,236,195517,6,0,L|134:303,2,66.6666666666667,10|8|8,3:3|3:3|3:3,0:0:0:0:
63,218,195939,2,0,L|56:287,2,66.6666666666667,6|4|4,3:3|3:3|3:3,0:0:0:0:
121,161,196362,1,4,1:2:0:0:
107,78,196573,5,2,3:2:0:0:
119,76,196679,1,2,3:2:0:0:
131,75,196784,1,2,3:2:0:0:
143,74,196890,1,2,3:2:0:0:
154,74,196996,2,0,L|165:24,1,50,2|2,3:2|3:2,0:0:0:0:
246,23,197207,6,0,B|232:87|232:87|239:98|239:98|221:181,1,150,14|2,0:2|3:2,0:0:0:0:
366,198,197841,2,0,L|432:184,1,50,2|0,3:2|0:2,0:0:0:0:
430,184,198052,5,0,1:2:0:0:
405,272,198263,1,0,1:2:0:0:
386,363,198475,2,0,L|465:353,2,66.6666666666667,2|10|6,1:2|0:3|0:3,0:0:0:0:
375,365,198897,6,0,B|324:371|324:371|295:333|295:333|236:342,1,150,10|0,0:2|0:0,0:0:0:0:
232,343,199320,2,0,L|241:287,1,50,2|2,1:2|3:2,0:0:0:0:
107,159,199636,1,2,0:0:0:0:
101,152,199742,2,0,B|75:164|75:164|61:239,1,100,6|0,1:2|0:0,0:0:0:0:
25,305,200165,6,0,B|10:292|10:292|137:263,1,150,2|0,0:2|0:0,0:0:0:0:
218,272,200587,2,0,B|223:242|222:242|217:232|217:232|225:195,2,66.6666666666667,10|10|6,0:2|0:3|0:3,0:0:0:0:
185,347,201010,2,0,B|237:359|237:359|285:325,1,100,2|0,1:2|3:2,0:0:0:0:
302,256,201432,5,2,1:2:0:0:
381,264,201644,1,0,1:2:0:0:
391,185,201855,1,2,1:2:0:0:
311,177,202067,1,0,1:2:0:0:
311,177,202277,2,0,B|304:134|304:134|309:122|309:122|302:75,1,100,10|0,0:2|0:2,0:0:0:0:
228,33,202700,2,0,L|175:45,1,50,8|8,0:2|0:2,0:0:0:0:
137,37,202911,1,10,0:3:0:0:
127,39,203017,1,6,0:3:0:0:
119,41,203122,6,0,B|99:62|99:62|111:146,1,100,6|2,1:2|0:2,0:0:0:0:
111,144,203439,1,2,0:3:0:0:
115,153,203545,2,0,L|54:144,2,50,10|0|2,0:2|0:2|3:2,0:0:0:0:
126,264,203967,2,0,L|175:256,1,50,2|8,1:2|0:3,0:0:0:0:
212,290,204179,2,0,L|261:282,1,50,6|2,0:3|3:2,0:0:0:0:
305,256,204390,2,0,B|296:297|296:297|304:312|304:312|291:358,1,100,8|2,0:2|3:2,0:0:0:0:
419,335,204813,6,0,B|430:295|430:295|422:280|422:280|431:239,1,100,2|2,1:2|0:2,0:0:0:0:
425,230,205129,1,2,3:2:0:0:
424,220,205235,1,10,0:2:0:0:
508,149,205446,1,2,3:2:0:0:
467,46,205658,1,2,1:2:0:0:
357,53,205868,1,2,0:2:0:0:
329,160,206080,1,10,0:2:0:0:
253,131,206291,1,2,3:2:0:0:
210,202,206503,6,0,P|162:222|50:123,1,200,6|10,1:2|0:2,0:0:0:0:
102,75,207136,1,2,3:2:0:0:
113,74,207242,2,0,L|171:68,1,50,2|0,1:2|0:2,0:0:0:0:
184,111,207453,1,2,3:2:0:0:
195,110,207559,2,0,L|253:104,1,50,2|0,1:2|0:0,0:0:0:0:
272,142,207770,2,0,B|299:101|299:101|278:51,1,100,10|2,0:2|3:2,0:0:0:0:
477,91,208193,6,0,L|514:29,2,66.6666666666667,6|10|6,1:2|0:3|0:3,0:0:0:0:
397,78,208615,2,0,L|373:9,2,66.6666666666667,10|10|6,0:2|0:3|0:3,0:0:0:0:
424,154,209038,2,0,L|404:262,1,100,6|0,1:2|0:2,0:0:0:0:
419,269,209355,1,0,1:2:0:0:
426,277,209460,2,0,L|415:338,3,50,10|8|8|8,0:2|0:2|0:2|0:2,0:0:0:0:
351,371,209883,6,0,P|428:353|511:357,2,150,4|4|4,1:2|1:2|1:2,0:0:0:0:
351,371,210939,1,2,1:2:0:0:
294,315,211151,2,0,B|303:263|274:279|290:215,1,100,10|2,0:2|3:2,0:0:0:0:
362,172,211573,5,0,1:2:0:0:
263,82,211784,1,2,0:0:0:0:
263,82,211890,1,2,3:2:0:0:
263,82,211996,2,0,P|212:99|161:104,1,100,10|0,0:2|3:2,0:0:0:0:
108,41,212418,1,2,1:2:0:0:
43,100,212629,1,2,3:2:0:0:
102,160,212841,1,10,0:2:0:0:
102,160,213052,2,0,P|96:190|90:213,1,50,2|8,1:2|0:2,0:0:0:0:
169,244,213263,6,0,P|94:247|22:268,2,150,6|2|2,1:2|1:2|1:2,0:0:0:0:
306,327,214320,1,2,3:2:0:0:
376,365,214531,2,0,P|412:349|480:338,1,100,8|0,0:2|0:0,0:0:0:0:
501,264,214953,2,0,L|489:210,3,50,8|4|4|8,1:3|0:3|0:3|0:3,0:0:0:0:
501,176,215376,2,0,P|451:168|405:149,1,100,8|0,0:2|0:0,0:0:0:0:
392,70,215798,5,0,3:2:0:0:
312,58,216010,2,0,L|304:113,1,50,0|0,0:2|1:2,0:0:0:0:
320,144,216221,2,0,P|270:151|224:170,1,100,10|10,0:2|0:3,0:0:0:0:
188,242,216644,6,0,P|184:190|129:97,2,150,6|2|2,1:2|1:2|1:2,0:0:0:0:
311,344,217700,1,0,3:2:0:0:
294,274,217911,2,0,P|308:219|336:173,1,100,8|8,0:2|0:2,0:0:0:0:
330,182,218228,1,8,0:2:0:0:
330,182,218334,6,0,B|365:206|365:206|493:179,2,150,6|2|2,1:2|1:2|1:2,0:0:0:0:
273,124,219179,2,0,L|283:68,1,50,10|8,0:2|0:2,0:0:0:0:
166,41,219601,1,8,0:3:0:0:
123,17,219706,1,8,0:3:0:0:
74,24,219812,1,6,0:3:0:0:
40,59,219917,1,4,0:3:0:0:
35,108,220023,5,4,1:2:0:0:
115,113,220235,1,4,1:2:0:0:
172,168,220446,1,4,1:2:0:0:
185,247,220658,1,4,1:2:0:0:
147,317,220869,1,8,0:2:0:0:
299,363,221291,5,8,0:3:0:0:
322,319,221396,1,8,0:3:0:0:
364,293,221502,1,4,0:3:0:0:
413,291,221607,1,4,0:3:0:0:
457,313,221713,5,4,1:2:0:0:
484,238,221925,1,4,1:2:0:0:
474,158,222136,1,0,1:2:0:0:
423,95,222348,1,4,1:2:0:0:
344,78,222559,1,8,0:2:0:0:
101,44,231010,5,8,0:2:0:0:
151,106,231221,2,0,L|134:224,1,100,4|2,1:2|1:2,1:2:0:0:
174,275,231644,1,2,1:2:0:0:
118,332,231855,6,0,L|332:274,1,200,6|0,1:2|3:2,0:0:0:0:
311,279,232489,1,2,0:2:0:0:
385,250,232700,6,0,P|362:305|362:353,1,100,2|2,3:2|0:2,0:0:0:0:
438,364,233122,2,0,P|461:309|461:261,1,100,2|2,3:2|0:2,0:0:0:0:
510,204,233545,1,2,3:2:0:0:
504,124,233756,2,0,L|397:143,1,100,2|2,0:2|3:2,0:0:0:0:
353,202,234179,2,0,P|311:164|317:22,1,200,2|2,0:2|0:2,0:0:0:0:
243,72,234813,2,0,L|136:91,1,100,2|2,3:2|0:2,0:0:0:0:
85,35,235235,5,4,1:2:0:0:
5,173,235658,2,0,P|28:188|43:213,3,50,8|8|8|8,0:2|0:2|0:2|0:2,0:0:0:0:
38,246,236080,6,0,L|91:240,1,50,8|8,0:2|0:2,0:0:0:0:
118,215,236291,2,0,L|171:209,1,50,8|8,0:2|0:2,0:0:0:0:
212,242,236503,5,8,0:2:0:0:
242,202,236608,1,8,0:2:0:0:
288,182,236714,1,8,0:2:0:0:
337,182,236819,1,8,0:2:0:0:
337,182,238193,5,4,1:2:0:0:
496,166,238404,1,0,1:2:0:0:
496,166,239038,6,0,L|475:282,1,100,6|0,1:2|0:0,0:0:0:0:
504,343,239460,2,0,P|439:360|361:308,1,150,2|0,3:2|1:2,0:0:0:0:
364,314,239883,1,10,0:2:0:0:
255,265,240094,1,2,1:2:0:0:
163,304,240306,6,0,L|177:193,1,100,6|0,1:2|0:2,0:0:0:0:
175,204,240728,1,8,0:2:0:0:
275,157,240939,1,10,3:3:0:0:
189,34,241151,6,0,B|174:83|174:83|201:132,1,100,2|0,1:2|0:0,0:0:0:0:
341,105,241573,2,0,B|356:56|356:56|329:7,1,100,8|2,0:2|1:2,0:0:0:0:
275,157,241996,5,6,1:2:0:0:
238,245,242207,1,2,3:2:0:0:
238,245,242418,2,0,L|342:230,1,100,10|2,0:2|3:2,0:0:0:0:
367,309,242841,2,0,P|421:307|510:378,1,150,2|0,1:2|3:2,0:0:0:0:
503,368,243263,1,10,0:2:0:0:
491,277,243475,1,2,3:2:0:0:
480,195,243686,1,6,1:2:0:0:
480,195,244108,6,0,L|474:139,1,50,8|0,0:2|0:2,0:0:0:0:
444,118,244320,2,0,L|438:62,1,50,2|8,3:2|0:2,0:0:0:0:
442,28,244531,2,0,B|394:48|394:48|340:33,1,100,2|0,1:2|0:0,0:0:0:0:
242,122,244953,1,8,0:2:0:0:
265,112,245058,1,8,0:2:0:0:
288,102,245164,1,8,0:2:0:0:
312,108,245269,1,8,0:2:0:0:
337,116,245376,6,0,B|297:164|297:164|307:312,1,200,6|2,1:2|1:2,0:0:0:0:
250,358,246010,1,10,0:2:0:0:
179,319,246221,2,0,L|81:335,1,100,2|0,1:2|0:2,0:0:0:0:
77,342,246538,1,2,3:2:0:0:
72,348,246644,2,0,B|40:306|40:306|54:250,1,100,0|10,1:2|0:2,0:0:0:0:
34,178,247066,6,0,P|86:179|126:221,1,100,2|0,1:2|0:2,0:0:0:0:
125,216,247383,1,2,3:2:0:0:
129,223,247489,1,2,1:2:0:0:
213,203,247700,1,10,0:2:0:0:
298,187,247911,2,0,B|311:109|311:109|305:101|305:101|315:31,1,150,2|0,1:2|3:2,0:0:0:0:
313,28,248334,1,0,1:2:0:0:
397,74,248545,2,0,L|455:64,1,50,10|0,0:2|0:0,0:0:0:0:
457,61,248756,6,0,B|445:143|445:143|453:154|453:154|435:261,1,200,2|0,1:2|1:2,0:0:0:0:
408,333,249390,1,10,0:2:0:0:
510,288,249601,2,0,L|290:312,1,200,2|0,1:2|1:2,0:0:0:0:
225,257,250235,1,10,0:2:0:0:
148,225,250446,6,0,B|177:267|177:267|166:316,1,100,6|0,1:2|0:0,0:0:0:0:
72,334,250869,1,10,0:3:0:0:
57,313,250974,1,4,0:3:0:0:
44,292,251080,1,8,0:2:0:0:
49,268,251185,1,8,0:2:0:0:
54,243,251291,5,6,1:2:0:0:
148,225,251714,1,8,0:2:0:0:
172,126,252136,6,0,B|142:109|141:80|141:80|-25:63,2,200,6|8|0,1:2|0:2|1:2,0:0:0:0:
222,60,253193,2,0,L|281:48,1,50,10|8,0:3|0:3,0:0:0:0:
283,48,253404,1,10,0:2:0:0:
294,46,253510,1,8,0:3:0:0:
305,44,253615,1,6,0:3:0:0:
324,128,253827,6,0,B|385:107|418:165|414:173|407:179|434:219|507:190,2,200,2|8|0,1:2|0:2|1:2,0:0:0:0:
336,210,254883,2,0,L|326:258,1,50,6|4,0:3|0:3,0:0:0:0:
324,271,255094,2,0,L|314:319,2,50,10|8|2,0:2|0:3|3:2,0:0:0:0:
236,352,255517,6,0,P|218:335|192:328,3,50,2|8|8|8,1:2|3:3|3:3|3:3,0:0:0:0:
153,256,255939,2,0,P|128:254|103:265,3,50,10|8|8|8,0:2|0:3|0:3|0:3,0:0:0:0:
42,325,256362,5,2,1:2:0:0:
67,193,256573,1,4,0:3:0:0:
67,185,256679,1,4,0:3:0:0:
67,176,256784,2,0,L|47:79,1,100,10|0,3:2|0:0,0:0:0:0:
151,17,257207,6,0,P|176:20|205:33,3,50,2|4|6|4,1:2|0:3|0:3|0:3,0:0:0:0:
250,89,257629,2,0,P|275:86|304:73,3,50,10|8|10|8,0:2|0:3|0:3|0:3,0:0:0:0:
384,54,258052,5,10,1:3:0:0:
378,91,258157,1,4,0:3:0:0:
373,128,258263,1,4,0:3:0:0:
368,165,258368,1,8,3:3:0:0:
363,202,258475,2,0,P|383:205|418:222,1,50,10|8,1:2|0:2,0:0:0:0:
501,280,258897,6,0,B|489:209|489:209|502:177|502:177|484:77,2,200,6|8|0,1:2|0:2|1:2,0:0:0:0:
450,353,259953,2,0,P|425:351|396:338,1,50,10|8,0:3|0:3,0:0:0:0:
391,336,260165,1,10,0:2:0:0:
384,330,260270,1,8,0:3:0:0:
380,321,260376,1,6,0:3:0:0:
300,272,260587,6,0,L|198:285,1,100,2|0,1:2|0:2,0:0:0:0:
196,278,260904,1,2,3:2:0:0:
188,272,261010,2,0,B|174:323|174:323|199:368,2,100,8|0|0,0:2|3:2|1:2,0:0:0:0:
245,194,261644,2,0,L|236:140,1,50,6|4,0:3|0:3,0:0:0:0:
234,133,261855,2,0,L|225:79,2,50,10|8|2,0:2|0:3|3:2,0:0:0:0:
148,34,262277,6,0,L|36:50,1,100,2|8,1:2|3:3,0:0:0:0:
37,50,262594,1,8,3:3:0:0:
26,51,262700,2,0,P|16:102|42:147,1,100,10|8,0:2|0:3,0:0:0:0:
5,225,263122,5,2,1:2:0:0:
123,171,263334,1,4,0:3:0:0:
131,177,263439,1,4,0:3:0:0:
137,183,263545,2,0,L|121:288,1,100,10|0,3:2|1:2,0:0:0:0:
193,319,263967,6,0,L|242:308,1,50,0|8,1:2|0:2,0:0:0:0:
410,372,264390,2,0,L|375:335,1,50,0|8,1:2|0:2,0:0:0:0:
353,153,264813,2,0,L|338:200,1,50,8|0,0:2|1:2,0:2:0:0:
315,292,265235,5,8,0:2:0:0:
308,272,265341,1,8,0:2:0:0:
327,277,265446,1,8,0:2:0:0:
316,282,265552,1,8,0:2:0:0:
