osu file format v14

[General]
AudioFilename: audio.mp3
AudioLeadIn: 0
PreviewTime: 41907
Countdown: 1
SampleSet: Soft
StackLeniency: 0.7
Mode: 0
LetterboxInBreaks: 0
WidescreenStoryboard: 1

[Editor]
Bookmarks: 16193,21907,79050
DistanceSpacing: 0.8
BeatDivisor: 4
GridSize: 4
TimelineZoom: 1

[Metadata]
Title:Sasurai
TitleUnicode:流離
Artist:PON
ArtistUnicode:PON
Creator:Kyshiro
Version:Normal
Source:pop'n music éclale
Tags:Sand kshro beatmania
BeatmapID:1032602
BeatmapSetID:482711

[Difficulty]
HPDrainRate:4
CircleSize:3.5
OverallDifficulty:5
ApproachRate:5
SliderMultiplier:1.1
SliderTickRate:2

[Events]
//Background and Video events
0,0,"wallhaven-269201.jpg",0,0
//Break Periods
2,16393,20707
//Storyboard Layer 0 (Background)
//Storyboard Layer 1 (Fail)
//Storyboard Layer 2 (Pass)
//Storyboard Layer 3 (Foreground)
//Storyboard Sound Samples

[TimingPoints]
479,357.142857142857,4,2,1,75,1,0
2443,-100,4,2,1,75,0,0
3336,-100,4,2,1,75,0,0
21907,-100,4,2,1,75,0,0
27443,-100,4,2,1,75,0,0
29050,-100,4,2,1,75,0,0
41907,-100,4,2,1,85,0,1
57621,-100,4,2,1,75,0,0
69050,-100,4,2,1,75,0,0
69228,-100,4,2,1,5,0,0
69288,-100,4,2,1,75,0,0
69943,-100,4,2,1,5,0,0
70002,-100,4,2,1,75,0,0
70657,-100,4,2,1,5,0,0
70717,-100,4,2,1,75,0,0
71371,-100,4,2,1,5,0,0
71431,-100,4,2,1,75,0,0
71490,-100,4,2,1,5,0,0
71550,-100,4,2,1,75,0,0
72086,-100,4,2,1,5,0,0
72146,-100,4,2,1,75,0,0
72800,-100,4,2,1,5,0,0
72860,-100,4,2,1,75,0,0
73514,-100,4,2,1,5,0,0
73574,-100,4,2,1,75,0,0
74228,-100,4,2,1,5,0,0
74288,-100,4,2,1,75,0,0
74348,-100,4,2,1,5,0,0
74408,-100,4,2,1,75,0,0
74943,-100,4,2,1,5,0,0
75003,-100,4,2,1,75,0,0
75657,-100,4,2,1,5,0,0
75717,-100,4,2,1,75,0,0
75776,-100,4,2,1,5,0,0
75836,-100,4,2,1,75,0,0
76371,-100,4,2,1,5,0,0
76431,-100,4,2,1,75,0,0
76490,-100,4,2,1,5,0,0
76550,-100,4,2,1,75,0,0
77086,-100,4,2,1,5,0,0
77146,-100,4,2,1,75,0,0
77800,-100,4,2,1,5,0,0
77860,-100,4,2,1,75,0,0
78514,-100,4,2,1,5,0,0
78574,-100,4,2,1,75,0,0
78633,-100,4,2,1,5,0,0
78693,-100,4,2,1,75,0,0
79228,-100,4,2,1,5,0,0
79288,-100,4,2,1,75,0,0
79348,-100,4,2,1,5,0,0
79408,-100,4,2,1,75,0,0
80478,-100,4,2,1,75,0,0
90478,-100,4,2,1,75,0,0
94050,357.142857142857,4,2,1,75,1,0
94050,-100,4,2,1,90,0,1
105478,-100,4,2,1,85,0,0
106907,-100,4,2,1,90,0,1
113692,-100,4,2,1,5,0,0

[Colours]
Combo1 : 208,230,211
Combo2 : 180,184,241
Combo3 : 236,196,251
Combo4 : 255,179,181

[HitObjects]
79,194,479,6,0,P|54:139|56:73,2,110,4|4|4,0:0|0:0|0:0,0:0:0:0:
155,236,1550,1,4,0:0:0:0:
236,201,1907,2,0,P|280:193|324:195,2,82.5,4|4|4,0:0|0:0|0:0,0:0:0:0:
233,245,2621,2,0,L|231:363,1,110,8|8,0:0|0:0,0:0:0:0:
311,318,3336,6,0,P|395:307|437:317,1,110,4|0,0:0|0:0,0:0:0:0:
481,249,4050,2,0,L|490:186,2,55,2|0|0,0:0|0:0|0:0,0:0:0:0:
403,206,4764,2,0,L|387:86,1,110,2|0,0:0|0:0,0:0:0:0:
317,45,5478,1,2,0:0:0:0:
245,96,5836,1,0,0:0:0:0:
208,72,6014,1,0,0:0:0:0:
168,51,6193,6,0,P|109:42|46:61,1,110,2|0,0:0|0:0,0:0:0:0:
15,129,6907,2,0,L|36:254,1,110,2|0,0:0|0:0,0:0:0:0:
114,271,7621,2,0,P|156:272|180:268,1,55,2|0,0:0|0:0,0:0:0:0:
202,241,7978,2,0,P|244:240|268:244,1,55
295,263,8336,1,2,0:0:0:0:
372,222,8693,1,0,0:0:0:0:
454,253,9050,6,0,P|476:298|485:371,2,110,4|0|2,0:0|0:0|0:0,0:0:0:0:
372,222,10121,1,0,0:0:0:0:
442,169,10478,2,0,L|452:47,1,110,2|0,0:0|0:0,0:0:0:0:
368,27,11193,2,0,P|328:38|249:32,1,110,2|0,0:0|0:0,0:0:0:0:
175,10,11907,5,2,0:0:0:0:
115,75,12264,1,2,0:0:0:0:
186,126,12621,2,0,L|198:185,1,55,2|0,0:0|0:0,0:0:0:0:
168,213,12978,2,0,L|156:272,1,55,2|0,0:0|0:0,0:0:0:0:
187,299,13336,2,0,P|246:301|307:280,2,110,4|0|8,0:0|0:0|0:0,0:0:0:0:
115,247,14407,1,8,0:0:0:0:
187,196,14764,5,4,0:0:0:0:
113,148,15121,1,2,0:0:0:0:
183,96,15478,1,2,0:0:0:0:
256,144,15836,2,0,P|292:150|320:149,1,55,8|0,0:0|0:0,0:0:0:0:
353,140,16193,1,4,0:0:0:0:
137,63,21907,6,0,L|122:178,1,110,4|0,0:0|0:0,0:0:0:0:
189,229,22621,2,0,P|236:240|287:233,2,82.5,2|0|0,0:0|0:0|0:0,0:0:0:0:
151,253,23336,2,0,P|94:247|42:278,1,110,2|0,0:0|0:0,0:0:0:0:
113,330,24050,1,2,0:0:0:0:
29,356,24407,1,0,0:0:0:0:
48,270,24764,6,0,P|52:184|40:142,1,110,6|0,0:0|0:0,0:0:0:0:
89,151,25300,2,0,P|82:96|90:42,1,110,6|0,0:0|0:0,0:0:0:0:
131,26,25836,2,0,L|242:31,1,110,6|0,0:0|0:0,0:0:0:0:
279,51,26371,1,6,0:0:0:0:
189,148,26907,2,0,L|203:266,1,110,6|0,0:0|0:0,0:0:0:0:
209,300,27443,1,4,0:0:0:0:
395,183,28336,6,0,P|403:140|398:91,2,82.5,8|8|8,0:0|0:0|0:0,0:0:0:0:
352,196,29050,6,0,L|226:183,1,110,4|0,0:0|0:0,0:0:0:0:
165,227,29764,1,2,0:0:0:0:
103,164,30121,1,0,0:0:0:0:
180,121,30478,2,0,P|199:71|198:4,2,110,2|0|2,0:0|0:0|0:0,0:0:0:0:
103,164,31550,1,0,0:0:0:0:
165,227,31907,6,0,L|177:338,1,110,2|0,0:0|0:0,0:0:0:0:
254,295,32621,2,0,L|265:185,1,110,2|0,0:0|0:0,0:0:0:0:
335,131,33336,2,0,P|410:125|461:145,1,110,2|0,0:0|0:0,0:0:0:0:
490,208,34050,2,0,L|502:265,1,55,4|4,0:0|0:0,0:0:0:0:
465,287,34407,2,0,L|477:344,1,55,0|4,0:0|0:0,0:0:0:0:
442,369,34764,5,4,0:0:0:0:
286,286,35478,2,0,L|224:295,2,55,8|8|0,0:0|0:0|0:0,0:0:0:0:
342,218,36193,2,0,P|363:167|360:100,2,110,4|0|4,0:0|0:0|0:0,0:0:0:0:
260,186,37264,1,8,0:0:0:0:
177,216,37621,6,0,L|65:201,1,110,4|4,0:0|0:0,0:0:0:0:
21,132,38336,1,4,0:0:0:0:
3,91,38514,1,0,0:0:0:0:
7,47,38693,1,4,0:0:0:0:
89,76,39050,2,0,P|142:83|245:28,1,165,4|0,0:0|0:0,0:0:0:0:
270,65,39764,2,0,P|338:108|420:105,1,165
457,81,40478,5,4,0:0:0:0:
508,154,40836,1,0,0:0:0:0:
435,204,41193,1,8,0:0:0:0:
442,247,41371,1,8,0:0:0:0:
449,290,41550,1,8,0:0:0:0:
376,339,41907,6,0,P|314:334|261:302,2,110,4|2|0,0:0|0:0|0:0,0:0:0:0:
350,257,42978,1,2,0:0:0:0:
271,215,43336,2,0,L|214:221,1,55
182,248,43693,2,0,L|125:242,1,55,2|0,0:0|0:0,0:0:0:0:
86,224,44050,1,0,0:0:0:0:
78,139,44407,1,2,0:0:0:0:
154,95,44764,6,0,P|208:117|274:114,1,110,0|2,0:0|0:0,0:0:0:0:
330,66,45478,2,0,P|384:44|450:47,1,110,0|2,0:0|0:0,0:0:0:0:
487,114,46193,2,0,L|496:175,2,55,0|0|2,0:0|0:0|0:0,0:0:0:0:
450,138,46728,2,0,B|435:246|435:246|376:260,1,165,0|2,0:0|0:0,0:0:0:0:
310,207,47621,6,0,P|259:200|200:213,2,110,4|2|0,0:0|0:0|0:0,0:0:0:0:
299,294,48693,1,2,0:0:0:0:
215,321,49050,2,0,L|151:313,1,55
121,293,49407,1,2,0:0:0:0:
92,259,49586,2,0,P|75:198|113:104,1,165,0|2,0:0|0:0,0:0:0:0:
180,52,50478,6,0,L|238:60,1,55
271,83,50836,2,0,L|263:141,1,55,2|0,0:0|0:0,0:0:0:0:
230,166,51193,1,0,0:0:0:0:
154,212,51550,1,2,0:0:0:0:
232,252,51907,6,0,P|322:242|426:313,2,220,4|0|4,0:0|0:0|0:0,0:0:0:0:
170,315,53693,1,4,0:0:0:0:
95,268,54050,1,4,0:0:0:0:
158,206,54407,1,4,0:0:0:0:
80,164,54764,6,0,P|61:118|63:46,2,110,4|4|4,0:0|0:0|0:0,0:0:0:0:
157,121,55836,2,0,P|180:147|206:158,1,55,4|0,0:0|0:0,0:0:0:0:
238,173,56193,2,0,L|339:164,2,82.5,4|4|4,0:0|0:0|0:0,0:0:0:0:
204,201,56907,2,0,P|194:258|206:314,1,110,4|0,0:0|0:0,0:0:0:0:
282,346,57621,6,0,L|396:335,1,110,4|0,0:0|0:0,0:0:0:0:
450,269,58336,2,0,P|459:232|456:201,2,55,2|0|0,0:0|0:0|0:0,0:0:0:0:
375,222,59050,2,0,L|368:156,1,55,2|0,0:0|0:0,0:0:0:0:
348,128,59407,1,0,0:0:0:0:
350,83,59586,1,0,0:0:0:0:
319,52,59764,2,0,P|261:73|191:63,1,110,2|0,0:0|0:0,0:0:0:0:
129,44,60478,5,2,0:0:0:0:
68,108,60836,2,0,L|86:230,2,110,0|2|0,0:0|0:0|0:0,0:0:0:0:
154,121,61907,2,0,L|166:184,1,55,2|0,0:0|0:0,0:0:0:0:
174,217,62264,2,0,L|186:280,1,55,2|0,0:0|0:0,0:0:0:0:
195,313,62621,1,2,0:0:0:0:
271,269,62978,1,0,0:0:0:0:
345,316,63336,6,0,P|411:309|455:284,1,110,2|0,0:0|0:0,0:0:0:0:
404,212,64050,2,0,L|403:89,1,110,2|0,0:0|0:0,0:0:0:0:
333,47,64764,2,0,P|258:41|219:21,1,110,2|0,0:0|0:0,0:0:0:0:
145,59,65478,2,0,L|135:115,1,55,2|0,0:0|0:0,0:0:0:0:
142,159,65836,1,2,0:0:0:0:
173,190,66014,1,0,0:0:0:0:
216,195,66193,6,0,P|292:185|339:194,2,110,2|0|2,0:0|0:0|0:0,0:0:0:0:
173,271,67264,1,0,0:0:0:0:
93,233,67621,1,4,0:0:0:0:
172,53,69050,6,0,P|242:41|329:79,1,146.666666666667,4|0,0:0|0:0,0:0:0:0:
357,123,69764,2,0,L|378:275,1,146.666666666667,4|0,0:0|0:0,0:0:0:0:
326,321,70478,2,0,P|268:333|182:289,1,146.666666666667,4|0,0:0|0:0,0:0:0:0:
160,231,71193,2,0,P|156:183|160:148,2,73.3333333333333,4|0|0,0:0|0:0|0:0,0:0:0:0:
234,239,71907,6,0,P|266:191|284:99,1,146.666666666667,4|0,0:0|0:0,0:0:0:0:
223,64,72621,2,0,L|72:53,1,146.666666666667,4|0,0:0|0:0,0:0:0:0:
20,101,73336,2,0,P|9:142|34:247,1,146.666666666667,4|0,0:0|0:0,0:0:0:0:
96,274,74050,2,0,L|178:268,2,73.3333333333333,4|8|8,0:0|0:0|0:0,0:0:0:0:
96,199,74764,6,0,P|165:175|250:187,1,146.666666666667,4|8,0:0|0:0,0:0:0:0:
300,225,75478,2,0,P|343:223|378:210,2,73.3333333333333,4|8|8,0:0|0:0|0:0,0:0:0:0:
250,279,76193,2,0,L|244:367,2,73.3333333333333,4|8|8,0:0|0:0|0:0,0:0:0:0:
186,242,76907,2,0,P|137:258|31:226,1,146.666666666667,4|8,0:0|0:0,0:0:0:0:
50,164,77621,6,0,P|99:148|205:180,1,146.666666666667,4|8,0:0|0:0,0:0:0:0:
254,134,78336,2,0,P|273:88|277:54,2,73.3333333333333,4|8|8,0:0|0:0|0:0,0:0:0:0:
306,188,79050,2,0,P|313:223|328:257,2,73.3333333333333,4|8|8,0:0|0:0|0:0,0:0:0:0:
357,135,79764,1,4,0:0:0:0:
195,64,80478,6,4,P|134:78|36:39,1,165
46,87,81193,2,0,B|64:199|64:199|48:258,1,165,2|0,0:0|0:0,0:0:0:0:
65,290,81907,2,0,P|123:282|177:296,1,110,2|0,0:0|0:0,0:0:0:0:
239,237,82621,1,2,0:0:0:0:
305,294,82978,1,0,0:0:0:0:
383,253,83336,6,0,P|398:222|403:196,2,55,2|0|2,0:0|0:0|0:0,0:0:0:0:
319,191,84050,2,0,P|304:160|299:134,2,55,2|0|2,0:0|0:0|0:0,0:0:0:0:
378,126,84764,1,2,0:0:0:0:
320,59,85121,1,0,0:0:0:0:
233,77,85478,2,0,P|187:81|163:76,1,55,4|4,0:0|0:0,0:0:0:0:
139,59,85836,2,0,P|93:55|69:60,1,55,4|4,0:0|0:0,0:0:0:0:
45,76,86193,5,4,0:0:0:0:
99,145,86550,1,0,0:0:0:0:
32,202,86907,2,0,L|40:267,1,55,8|0,0:0|0:0,0:0:0:0:
143,336,87621,2,0,P|199:331|243:313,2,82.5,4|4|4,0:0|0:0|0:0,0:0:0:0:
132,293,88336,2,0,L|145:167,1,110,4|0,0:0|0:0,0:0:0:0:
217,136,89050,5,4,0:0:0:0:
291,183,89407,1,4,0:0:0:0:
373,151,89764,2,0,P|388:113|391:94,1,55,4|0,0:0|0:0,0:0:0:0:
391,55,90121,1,4,0:0:0:0:
472,89,90478,2,0,L|486:214,1,110,4|0,0:0|0:0,0:0:0:0:
478,242,91014,1,0,0:0:0:0:
448,275,91193,2,0,P|404:290|332:279,1,110,2|0,0:0|0:0,0:0:0:0:
258,253,91907,6,0,P|198:248|127:271,1,110,4|0,0:0|0:0,0:0:0:0:
114,286,92443,1,0,0:0:0:0:
73,268,92621,2,0,L|59:211,1,55,2|0,0:0|0:0,0:0:0:0:
90,183,92978,2,0,L|104:126,1,55,2|0,0:0|0:0,0:0:0:0:
82,90,93336,1,0,0:0:0:0:
249,37,94050,6,0,P|301:54|373:56,1,110,4|2,0:0|0:0,0:0:0:0:
418,119,94764,2,0,P|366:136|294:138,1,110,0|2,0:0|0:0,0:0:0:0:
267,131,95300,1,0,0:0:0:0:
227,150,95478,2,0,L|215:211,2,55,0|0|2,0:0|0:0|0:0,0:0:0:0:
194,120,96014,2,0,P|136:103|39:140,1,165,0|2,0:0|0:0,0:0:0:0:
17,222,96907,5,0,0:0:0:0:
86,275,97264,1,2,0:0:0:0:
162,231,97621,1,0,0:0:0:0:
240,270,97978,2,0,P|253:306|258:336,1,55,2|0,0:0|0:0,0:0:0:0:
224,353,98335,2,0,L|166:351,2,55,0|0|2,0:0|0:0|0:0,0:0:0:0:
266,364,98871,2,0,P|326:342|428:353,1,165,0|2,0:0|0:0,0:0:0:0:
460,271,99764,6,0,L|469:155,1,110,4|2,0:0|0:0,0:0:0:0:
383,185,100478,2,0,L|374:69,1,110,0|2,0:0|0:0,0:0:0:0:
339,48,101014,1,0,0:0:0:0:
300,69,101192,2,0,P|226:87|181:83,1,110,0|2,0:0|0:0,0:0:0:0:
152,67,101728,2,0,P|84:59|0:108,1,165,0|2,0:0|0:0,0:0:0:0:
14,192,102621,5,0,0:0:0:0:
95,159,102978,1,2,0:0:0:0:
171,201,103335,1,0,0:0:0:0:
250,163,103692,1,2,0:0:0:0:
329,201,104050,2,0,P|347:259|343:315,2,110,0|2|0,0:0|0:0|0:0,0:0:0:0:
385,133,105121,2,0,P|388:98|397:76,1,55,2|0,0:0|0:0,0:0:0:0:
429,52,105478,5,8,0:0:0:0:
492,112,105835,1,8,0:0:0:0:
456,192,106192,1,8,0:0:0:0:
506,264,106550,1,8,0:0:0:0:
473,293,106728,1,0,0:0:0:0:
430,303,106907,6,0,P|364:289|303:305,1,110,4|2,0:0|0:0,0:0:0:0:
241,329,107621,1,0,0:0:0:0:
182,265,107978,2,0,L|170:212,1,55,2|0,0:0|0:0,0:0:0:0:
206,187,108335,2,0,L|218:134,1,55
200,93,108692,1,2,0:0:0:0:
115,68,109050,1,0,0:0:0:0:
41,115,109407,2,0,P|31:144|30:172,1,55,2|0,0:0|0:0,0:0:0:0:
52,205,109764,5,4,0:0:0:0:
137,182,110121,1,8,0:0:0:0:
205,236,110478,2,0,L|272:226,1,55,2|0,0:0|0:0,0:0:0:0:
295,253,110835,1,8,0:0:0:0:
372,210,111192,1,4,0:0:0:0:
256,192,111550,12,0,113692,0:0:0:0:
