osu file format v14

[General]
AudioFilename: audio.mp3
AudioLeadIn: 0
PreviewTime: 41907
Countdown: 1
SampleSet: Soft
StackLeniency: 0.7
Mode: 0
LetterboxInBreaks: 0
WidescreenStoryboard: 1

[Editor]
Bookmarks: 16193,21907,79050
DistanceSpacing: 0.8
BeatDivisor: 4
GridSize: 4
TimelineZoom: 1

[Metadata]
Title:Sasurai
TitleUnicode:流離
Artist:PON
ArtistUnicode:PON
Creator:Kyshiro
Version:Insane
Source:pop'n music éclale
Tags:Sand kshro beatmania
BeatmapID:1032476
BeatmapSetID:482711

[Difficulty]
HPDrainRate:5.8
CircleSize:4
OverallDifficulty:8
ApproachRate:9
SliderMultiplier:1.6
SliderTickRate:2

[Events]
//Background and Video events
0,0,"wallhaven-269201.jpg",0,0
//Break Periods
2,16393,21307
//Storyboard Layer 0 (Background)
//Storyboard Layer 1 (Fail)
//Storyboard Layer 2 (Pass)
//Storyboard Layer 3 (Foreground)
//Storyboard Sound Samples

[TimingPoints]
479,357.142857142857,4,2,1,75,1,0
746,-100,4,2,1,5,0,0
836,-100,4,2,1,75,0,0
1103,-100,4,2,1,5,0,0
1193,-100,4,2,1,75,0,0
1461,-100,4,2,1,5,0,0
1550,-100,4,2,1,75,0,0
2086,-100,4,2,1,5,0,0
2175,-100,4,2,1,75,0,0
2353,-100,4,2,1,5,0,0
2443,-100,4,2,1,75,0,0
3336,-81.3008130081301,4,2,1,75,0,0
21907,-100,4,2,1,75,0,0
27443,-133.333333333333,4,2,1,75,0,0
29050,-90.9090909090909,4,2,1,75,0,0
41907,-83.3333333333333,4,2,1,85,0,1
57621,-81.3008130081301,4,2,1,75,0,0
65598,-81.3008130081301,4,2,1,5,0,0
65657,-81.3008130081301,4,2,1,75,0,0
65776,-81.3008130081301,4,2,1,5,0,0
65836,-81.3008130081301,4,2,1,75,0,0
65955,-81.3008130081301,4,2,1,5,0,0
66014,-81.3008130081301,4,2,1,75,0,0
66133,-81.3008130081301,4,2,1,5,0,0
66193,-81.3008130081301,4,2,1,75,0,0
68961,-81.3008130081301,4,2,1,5,0,0
69050,-90.0900900900901,4,2,1,75,0,0
69228,-90.0900900900901,4,2,1,5,0,0
69288,-90.0900900900901,4,2,1,75,0,0
69348,-90.0900900900901,4,2,1,5,0,0
69408,-90.0900900900901,4,2,1,75,0,0
69943,-90.0900900900901,4,2,1,5,0,0
70002,-90.0900900900901,4,2,1,75,0,0
70657,-90.0900900900901,4,2,1,5,0,0
70717,-90.0900900900901,4,2,1,75,0,0
70776,-90.0900900900901,4,2,1,5,0,0
70836,-90.0900900900901,4,2,1,75,0,0
71371,-90.0900900900901,4,2,1,5,0,0
71431,-90.0900900900901,4,2,1,75,0,0
71490,-90.0900900900901,4,2,1,5,0,0
71550,-90.0900900900901,4,2,1,75,0,0
72086,-90.0900900900901,4,2,1,5,0,0
72145,-90.0900900900901,4,2,1,75,0,0
72800,-90.0900900900901,4,2,1,5,0,0
72859,-90.0900900900901,4,2,1,75,0,0
74764,-83.3333333333333,4,2,1,75,0,0
76371,-90.0900900900901,4,2,1,5,0,0
76431,-90.0900900900901,4,2,1,75,0,0
76490,-90.0900900900901,4,2,1,5,0,0
76550,-90.0900900900901,4,2,1,75,0,0
77800,-90.0900900900901,4,2,1,5,0,0
77860,-90.0900900900901,4,2,1,75,0,0
78514,-90.0900900900901,4,2,1,5,0,0
78574,-90.0900900900901,4,2,1,75,0,0
80478,-90.9090909090909,4,2,1,75,0,0
90478,-100,4,2,1,75,0,0
94050,357.142857142857,4,2,1,75,1,0
94050,-83.3333333333333,4,2,1,90,0,1
105478,-83.3333333333333,4,2,1,85,0,0
106907,-83.3333333333333,4,2,1,90,0,1
113692,-83.3333333333333,4,2,1,5,0,0

[Colours]
Combo1 : 208,230,211
Combo2 : 180,184,241
Combo3 : 236,196,251
Combo4 : 255,179,181

[HitObjects]
40,120,479,6,0,P|100:128|168:100,1,120,4|0,0:0|0:0,0:0:0:0:
221,181,836,2,0,P|161:189|93:161,1,120,4|0,0:0|0:0,0:0:0:0:
39,247,1193,2,0,P|99:255|167:227,1,120,4|0,0:0|0:0,0:0:0:0:
229,152,1550,1,4,0:0:0:0:
295,275,1728,1,0,0:0:0:0:
332,94,1907,6,0,B|322:179|322:179|364:167,2,120,4|4|4,0:0|0:0|0:0,0:0:0:0:
445,94,2621,1,4,0:3:0:0:
465,199,2800,1,2,0:0:0:0:
459,229,2889,1,2,0:0:0:0:
453,259,2978,1,12,0:3:0:0:
365,318,3157,1,2,0:0:0:0:
292,246,3336,6,0,P|236:238|154:271,1,147.600002252197,6|8,0:0|0:0,0:0:0:0:
130,299,3693,1,0,0:0:0:0:
54,224,3871,2,0,L|40:168,2,49.2000007507324,8|0|2,0:0|0:0|0:0,0:0:0:0:
143,131,4228,2,0,L|137:172,3,32.8000005004883,0|8|0|0,0:0|0:0|0:0|0:0,0:0:0:0:
231,78,4586,1,8,0:0:0:0:
308,145,4764,6,0,P|363:160|454:128,1,147.600002252197,2|8,0:0|0:0,0:0:0:0:
476,101,5121,1,0,0:0:0:0:
367,24,5300,1,8,0:0:0:0:
367,24,5389,1,0,0:0:0:0:
367,24,5478,1,2,0:0:0:0:
242,79,5657,1,0,0:0:0:0:
351,168,5836,2,0,L|343:208,3,32.8000005004883,2|0|0|8,0:0|0:0|0:0|0:0,0:0:0:0:
436,252,6193,6,0,P|355:237|297:271,1,147.600002252197,2|8,0:0|0:0,0:0:0:0:
276,298,6550,1,0,0:0:0:0:
179,226,6728,1,8,0:0:0:0:
179,226,6818,1,0,0:0:0:0:
179,226,6907,1,2,0:0:0:0:
93,308,7086,1,0,0:0:0:0:
179,226,7264,2,0,P|186:162|180:127,1,98.4000015014649,0|8,0:0|0:0,0:0:0:0:
95,57,7621,5,2,0:0:0:0:
276,139,7800,1,0,0:0:0:0:
310,134,7889,1,8,0:0:0:0:
344,129,7978,1,0,0:0:0:0:
434,186,8157,1,8,0:0:0:0:
320,60,8336,2,0,L|306:221,1,147.600002252197,2|8,0:0|0:0,0:0:0:0:
304,241,8693,1,2,0:0:0:0:
413,275,8871,1,8,0:0:0:0:
185,275,9050,6,0,P|237:270|326:328,1,147.600002252197,6|8,0:0|0:0,0:0:0:0:
332,350,9407,1,0,0:0:0:0:
133,352,9586,1,8,0:0:0:0:
99,346,9675,1,0,0:0:0:0:
65,341,9764,1,2,0:0:0:0:
0,249,9943,1,0,0:0:0:0:
34,243,10032,1,8,0:0:0:0:
68,238,10121,1,0,0:0:0:0:
123,146,10300,1,8,0:0:0:0:
203,224,10478,6,0,P|290:227|343:194,1,147.600002252197,2|8,0:0|0:0,0:0:0:0:
360,162,10836,1,0,0:0:0:0:
253,110,11014,1,8,0:0:0:0:
253,110,11103,1,0,0:0:0:0:
253,110,11193,1,2,0:0:0:0:
356,43,11371,1,0,0:0:0:0:
468,102,11550,2,0,L|506:97,3,32.8000005004883,2|0|0|8,0:0|0:0|0:0|0:0,0:0:0:0:
360,162,11907,6,0,L|369:273,1,98.4000015014649,6|0,0:0|0:0,0:0:0:0:
337,293,12175,1,8,0:0:0:0:
337,293,12264,2,0,P|286:303|238:293,1,98.4000015014649,6|8,0:0|0:0,0:0:0:0:
213,269,12532,1,0,0:0:0:0:
213,269,12621,2,0,P|162:259|114:269,1,98.4000015014649,6|0,0:0|0:0,0:0:0:0:
30,188,12978,2,0,L|36:228,3,32.8000005004883,6|0|0|8,0:0|0:0|0:0|0:0,0:0:0:0:
113,140,13336,6,0,P|172:136|219:113,1,98.4000015014649,6|0,0:0|0:0,0:0:0:0:
238,106,13603,1,8,0:0:0:0:
238,106,13693,2,0,L|255:216,1,98.4000015014649,0|8,0:0|0:0,0:0:0:0:
366,251,14050,1,2,0:0:0:0:
366,251,14139,1,0,0:0:0:0:
442,178,14318,1,8,0:0:0:0:
453,145,14407,1,8,0:0:0:0:
454,110,14496,1,8,0:0:0:0:
449,75,14586,1,0,0:0:0:0:
434,44,14675,1,0,0:0:0:0:
408,21,14764,5,6,0:0:0:0:
173,112,15121,1,2,0:0:0:0:
278,152,15300,1,8,0:0:0:0:
278,152,15389,1,8,0:0:0:0:
278,152,15478,1,10,0:0:0:0:
183,213,15657,1,8,0:0:0:0:
289,253,15836,2,0,L|282:295,3,32.8000005004883,10|0|0|0,0:0|0:0|0:0|0:0,0:0:0:0:
187,322,16193,1,4,0:0:0:0:
44,84,21907,6,0,P|104:66|189:115,1,160,4|2,0:0|0:0,0:0:0:0:
102,168,22443,1,0,0:0:0:0:
196,209,22621,2,0,B|278:201|278:201|324:174,2,120,2|0|0,0:0|0:0|0:0,0:0:0:0:
108,262,23336,6,0,L|98:350,1,80,2|0,0:0|0:0,0:0:0:0:
13,289,23693,1,0,0:0:0:0:
197,319,23871,1,2,0:0:0:0:
197,319,23961,1,0,0:0:0:0:
197,319,24050,1,2,0:0:0:0:
139,87,24407,1,8,0:0:0:0:
197,319,24764,6,0,P|213:266|227:232,1,80,4|0,0:0|0:0,0:0:0:0:
282,165,25121,1,0,0:0:0:0:
444,209,25300,2,0,P|428:156|414:122,1,80,4|0,0:0|0:0,0:0:0:0:
359,55,25657,1,0,0:0:0:0:
338,220,25836,2,0,L|342:325,1,80,4|0,0:0|0:0,0:0:0:0:
344,384,26193,1,0,0:0:0:0:
120,299,26371,6,0,P|192:295|268:351,1,160,4|0,0:0|0:0,0:0:0:0:
43,364,26907,1,8,0:0:0:0:
43,364,26996,1,8,0:0:0:0:
43,364,27086,1,8,0:0:0:0:
30,262,27264,1,8,0:0:0:0:
120,299,27443,1,4,0:0:0:0:
449,193,27978,5,0,0:0:0:0:
250,137,28336,1,8,0:0:0:0:
250,137,28425,2,0,P|240:86|239:56,1,60.0000022888184,8|8,0:0|0:0,0:0:0:0:
370,34,28782,2,0,L|363:80,1,30.0000011444092,8|8,0:0|0:0,0:0:0:0:
175,191,29050,6,0,P|114:194|51:157,1,132.00000402832,4|0,0:0|0:0,0:0:0:0:
33,130,29407,1,0,0:0:0:0:
140,77,29586,1,8,0:0:0:0:
253,117,29764,2,0,L|267:300,1,176.000005371094,0|0,0:0|0:0,0:0:0:0:
352,225,30300,1,8,0:0:0:0:
167,192,30478,6,0,L|71:176,1,88.000002685547,0|8,0:0|0:0,0:0:0:0:
344,132,30836,2,0,L|441:119,1,88.000002685547,0|8,0:0|0:0,0:0:0:0:
273,39,31193,1,0,0:0:0:0:
222,140,31371,1,8,0:0:0:0:
160,48,31550,1,0,0:0:0:0:
160,48,31639,1,0,0:0:0:0:
160,48,31728,1,8,0:0:0:0:
69,148,31907,6,0,L|80:243,1,88.000002685547,0|8,0:0|0:0,0:0:0:0:
174,338,32264,2,0,L|184:250,1,88.000002685547,0|8,0:0|0:0,0:0:0:0:
280,143,32621,2,0,L|291:238,1,88.000002685547,0|8,0:0|0:0,0:0:0:0:
297,267,32889,1,0,0:0:0:0:
297,267,32978,1,0,0:0:0:0:
395,311,33157,1,8,0:0:0:0:
467,228,33336,6,0,P|484:164|446:57,1,176.000005371094,0|0,0:0|0:0,0:0:0:0:
364,132,33871,1,8,0:0:0:0:
274,66,34050,1,4,0:0:0:0:
311,201,34228,1,12,0:0:0:0:
274,66,34407,1,4,0:0:0:0:
228,221,34586,1,12,0:0:0:0:
274,66,34764,6,0,P|206:52|106:109,1,176.000005371094,4|8,0:0|0:0,0:0:0:0:
85,202,35300,1,0,0:0:0:0:
15,124,35478,2,0,L|2:83,1,44.0000013427735,12|0,0:0|0:0,0:0:0:0:
85,202,35657,2,0,L|72:243,1,44.0000013427735,12|0,0:0|0:0,0:0:0:0:
295,324,36193,6,0,L|278:217,1,88.000002685547,4|8,0:0|0:0,0:0:0:0:
275,201,36461,1,0,0:0:0:0:
395,148,36639,1,0,0:0:0:0:
390,183,36728,2,0,L|373:290,1,88.000002685547,8|4,0:0|0:0,0:0:0:0:
481,210,37086,1,8,0:0:0:0:
311,113,37264,1,8,0:0:0:0:
281,105,37353,1,8,0:0:0:0:
250,107,37443,1,8,0:0:0:0:
220,116,37532,1,8,0:0:0:0:
195,134,37621,5,4,0:0:0:0:
391,235,37978,1,4,0:0:0:0:
110,261,38336,1,4,0:0:0:0:
191,327,38514,1,0,0:0:0:0:
93,358,38693,1,4,0:0:0:0:
93,358,39050,6,0,P|64:288|60:224,1,132.00000402832,4|8,0:0|0:0,0:0:0:0:
67,197,39407,1,0,0:0:0:0:
162,132,39586,1,8,0:0:0:0:
237,210,39764,2,0,L|225:299,1,88.000002685547,0|0,0:0|0:0,0:0:0:0:
235,328,40032,1,8,0:0:0:0:
235,328,40121,1,0,0:0:0:0:
347,274,40300,1,8,0:0:0:0:
347,274,40389,1,0,0:0:0:0:
347,274,40478,6,0,P|366:207|338:103,2,176.000005371094,4|0|0,0:0|0:0|0:0,0:0:0:0:
256,202,41371,1,8,0:0:0:0:
172,271,41550,1,8,0:0:0:0:
141,266,41639,1,0,0:0:0:0:
110,262,41728,1,0,0:0:0:0:
79,257,41818,1,0,0:0:0:0:
47,252,41907,6,0,P|31:187|54:107,1,143.999995605469,4|8,0:0|0:0,0:0:0:0:
80,90,42264,1,0,0:0:0:0:
201,119,42443,1,10,0:0:0:0:
252,240,42621,2,0,P|336:250|397:215,1,143.999995605469,0|8,0:0|0:0,0:0:0:0:
411,196,42978,1,0,0:0:0:0:
316,140,43157,1,10,0:0:0:0:
422,0,43336,6,0,L|411:98,1,95.9999970703126,0|2,0:0|0:0,0:0:0:0:
429,129,43603,1,8,0:0:0:0:
429,129,43693,1,0,0:0:0:0:
387,224,43871,1,10,0:0:0:0:
316,140,44050,1,0,0:0:0:0:
284,129,44139,1,0,0:0:0:0:
250,130,44228,1,2,0:0:0:0:
217,140,44318,1,8,0:0:0:0:
191,161,44407,2,0,L|128:147,3,47.9999985351563,0|0|10|0,0:0|0:0|0:0|0:0,0:0:0:0:
92,87,44764,6,0,L|107:245,1,143.999995605469,4|8,0:0|0:0,0:0:0:0:
109,265,45121,1,0,0:0:0:0:
13,318,45300,1,10,0:0:0:0:
104,372,45478,2,0,P|173:353|260:357,1,143.999995605469,0|8,0:0|0:0,0:0:0:0:
277,361,45836,1,0,0:0:0:0:
371,289,46014,1,10,0:0:0:0:
264,253,46193,6,0,P|255:198|265:153,1,95.9999970703126,0|2,0:0|0:0,0:0:0:0:
279,123,46461,1,8,0:0:0:0:
279,123,46550,1,0,0:0:0:0:
167,165,46728,1,10,0:0:0:0:
61,112,46907,2,0,L|44:61,3,47.9999985351563,0|0|2|8,0:0|0:0|0:0|0:0,0:0:0:0:
57,187,47264,2,0,L|41:232,3,47.9999985351563,0|0|10|8,0:0|0:0|0:0|0:0,0:0:0:0:
97,286,47621,6,0,P|176:274|241:302,1,143.999995605469,4|8,0:0|0:0,0:0:0:0:
258,322,47978,1,0,0:0:0:0:
360,272,48157,1,10,0:0:0:0:
271,213,48336,2,0,L|278:111,1,95.9999970703126,0|2,0:0|0:0,0:0:0:0:
283,85,48603,1,8,0:0:0:0:
283,85,48693,1,0,0:0:0:0:
375,26,48871,1,10,0:0:0:0:
460,99,49050,6,0,P|468:155|424:232,1,143.999995605469,0|8,0:0|0:0,0:0:0:0:
391,246,49407,1,0,0:0:0:0:
295,180,49586,1,10,0:0:0:0:
185,234,49764,1,0,0:0:0:0:
187,267,49853,1,0,0:0:0:0:
189,300,49943,1,2,0:0:0:0:
191,333,50032,1,8,0:0:0:0:
194,366,50121,2,0,L|140:354,3,47.9999985351563,0|0|10|0,0:0|0:0|0:0|0:0,0:0:0:0:
78,331,50478,6,0,P|61:272|76:187,1,143.999995605469,4|8,0:0|0:0,0:0:0:0:
98,162,50836,1,0,0:0:0:0:
200,211,51014,1,10,0:0:0:0:
175,16,51193,2,0,L|186:126,1,95.9999970703126
284,244,51550,2,0,L|293:148,1,95.9999970703126,0|10,0:0|0:0,0:0:0:0:
385,88,51907,5,4,0:0:0:0:
472,154,52086,1,0,0:0:0:0:
472,154,52175,1,2,0:0:0:0:
472,154,52264,1,2,0:0:0:0:
380,220,52443,1,0,0:0:0:0:
465,293,52621,2,0,L|517:285,3,47.9999985351563,10|8|10|8,0:0|0:0|0:0|0:0,0:0:0:0:
396,337,52978,2,0,L|344:329,3,47.9999985351563,10|0|2|2,0:0|0:0|0:0|0:0,0:0:0:0:
288,278,53336,6,0,P|227:291|133:268,1,143.999995605469,12|0,0:0|0:0,0:0:0:0:
78,312,53693,2,0,P|65:251|88:157,1,143.999995605469,12|0,0:0|0:0,0:0:0:0:
44,103,54050,2,0,P|105:90|199:113,1,143.999995605469,12|0,0:0|0:0,0:0:0:0:
254,69,54407,2,0,P|267:130|244:224,1,143.999995605469,12|0,0:0|0:0,0:0:0:0:
231,245,54764,5,12,0:0:0:0:
56,185,55121,1,12,0:0:0:0:
355,124,55478,1,12,0:0:0:0:
48,72,55836,1,12,0:0:0:0:
151,118,56014,1,8,0:0:0:0:
56,185,56193,6,0,L|87:337,2,143.999995605469,12|12|12,0:0|0:0|0:0,0:0:0:0:
160,222,56907,2,0,P|208:226|266:209,1,95.9999970703126,12|0,0:0|0:0,0:0:0:0:
284,194,57175,1,0,0:0:0:0:
284,194,57264,1,8,0:0:0:0:
459,302,57621,5,6,0:0:0:0:
477,205,57800,1,0,0:0:0:0:
477,205,57889,1,8,0:0:0:0:
477,205,57978,1,0,0:0:0:0:
373,244,58157,1,8,0:0:0:0:
373,244,58246,1,0,0:0:0:0:
373,244,58336,2,0,P|301:251|236:213,1,147.600002252197,2|0,0:0|0:0,0:0:0:0:
218,185,58693,1,0,0:0:0:0:
298,105,58871,1,8,0:0:0:0:
178,36,59050,6,0,L|191:89,3,49.2000007507324,2|0|0|8,0:0|0:0|0:0|0:0,0:0:0:0:
116,100,59407,2,0,L|103:211,1,98.4000015014649,0|8,0:0|0:0,0:0:0:0:
16,242,59764,2,0,P|90:238|161:287,1,147.600002252197,2|0,0:0|0:0,0:0:0:0:
168,307,60121,1,0,0:0:0:0:
257,232,60300,1,8,0:0:0:0:
315,328,60478,6,0,L|469:315,1,147.600002252197,2|8,0:0|0:0,0:0:0:0:
498,311,60836,1,0,0:0:0:0:
410,236,61014,1,8,0:0:0:0:
501,167,61193,2,0,P|507:111|496:67,1,98.4000015014649,2|0,0:0|0:0,0:0:0:0:
474,40,61461,1,8,0:0:0:0:
474,40,61550,1,0,0:0:0:0:
389,120,61728,1,8,0:0:0:0:
291,66,61907,5,2,0:0:0:0:
262,85,61996,1,0,0:0:0:0:
229,96,62086,1,0,0:0:0:0:
194,97,62175,1,8,0:0:0:0:
160,88,62264,2,0,P|117:54|97:9,1,98.4000015014649,0|8,0:0|0:0,0:0:0:0:
262,85,62621,2,0,P|266:157|233:238,1,147.600002252197,2|8,0:0|0:0,0:0:0:0:
218,254,62978,1,0,0:0:0:0:
121,207,63157,1,8,0:0:0:0:
47,280,63336,6,0,L|57:347,3,49.2000007507324,4|0|0|8,0:0|0:0|0:0|0:0,0:0:0:0:
129,373,63693,2,0,L|136:324,3,49.2000007507324,2|0|8|0,0:0|0:0|0:0|0:0,0:0:0:0:
219,309,64050,1,2,0:0:0:0:
249,325,64139,1,0,0:0:0:0:
282,330,64228,1,0,0:0:0:0:
316,325,64318,1,8,0:0:0:0:
346,309,64407,1,2,0:0:0:0:
369,284,64496,1,0,0:0:0:0:
382,251,64586,1,8,0:0:0:0:
380,216,64675,1,0,0:0:0:0:
371,182,64764,6,0,P|368:145|375:120,3,49.2000007507324,2|0|0|8,0:0|0:0|0:0|0:0,0:0:0:0:
295,61,65121,2,0,P|297:85|294:109,3,49.2000007507324,2|0|8|0,0:0|0:0|0:0|0:0,0:0:0:0:
234,160,65478,2,0,L|133:148,1,98.4000015014649,2|2,0:0|0:0,0:0:0:0:
289,236,65836,2,0,L|390:224,1,98.4000015014649,2|10,0:0|0:0,0:0:0:0:
210,312,66193,6,0,L|148:303,4,49.2000007507324,2|0|0|8|2,0:0|0:0|0:0|0:0|0:0,0:0:0:0:
288,235,66728,2,0,L|296:187,4,49.2000007507324,8|0|2|0|0,0:0|0:0|0:0|0:0|0:0,0:0:0:0:
344,328,67264,2,0,L|406:337,4,32.8000005004883,2|0|0|8|0,0:0|0:0|0:0|0:0|0:0,0:0:0:0:
451,287,67621,5,4,0:0:0:0:
58,123,69050,6,0,P|121:119|173:148,2,118.400002890625,4|0|0,0:0|0:0|0:0,0:0:0:0:
99,217,69764,1,14,0:0:0:0:
201,241,70002,2,0,L|209:305,1,59.2000014453125,0|10,0:0|0:0,0:0:0:0:
291,345,70240,1,0,0:0:0:0:
364,282,70478,6,0,P|377:216|363:158,2,118.400002890625,10|0|0,0:0|0:0|0:0,0:0:0:0:
258,219,71193,2,0,P|244:161|255:103,2,118.400002890625,14|0|0,0:0|0:0|0:0,0:0:0:0:
343,77,71907,6,0,B|303:70|259:93|259:93|218:27|127:30,1,236.80000578125,14|0,0:0|0:0,0:0:0:0:
0,131,72621,2,0,B|40:138|84:115|84:115|125:181|216:178,1,236.80000578125,14|0,0:0|0:0,0:0:0:0:
332,236,73336,6,0,L|344:299,2,59.2000014453125,2|8|2,0:0|0:0|0:0,0:0:0:0:
259,285,73693,2,0,L|247:348,2,59.2000014453125,8|2|8,0:0|0:0|0:0,0:0:0:0:
167,236,74050,2,0,L|179:299,2,59.2000014453125,2|8|2,0:0|0:0|0:0,0:0:0:0:
91,288,74407,2,0,L|79:351,2,59.2000014453125,8|2|8,0:0|0:0|0:0,0:0:0:0:
67,202,74764,6,0,P|54:169|53:129,1,63.9999980468751,12|8,0:0|0:0,0:0:0:0:
3,76,75002,2,0,P|36:63|76:62,1,63.9999980468751,0|8,0:0|0:0,0:0:0:0:
138,13,75240,2,0,P|151:46|152:86,1,63.9999980468751,0|8,0:0|0:0,0:0:0:0:
226,128,75478,2,0,L|303:116,1,63.9999980468751,2|8,0:0|0:0,0:0:0:0:
366,77,75717,2,0,L|378:154,1,63.9999980468751,0|8,0:0|0:0,0:0:0:0:
420,214,75955,2,0,L|343:226,1,63.9999980468751,0|8,0:0|0:0,0:0:0:0:
268,243,76193,6,0,P|262:310|280:373,2,127.99999609375,2|2|0,0:0|0:0|0:0,0:0:0:0:
468,103,76907,2,0,P|478:133|480:171,1,59.2000014453125,2|8,0:0|0:0,0:0:0:0:
390,146,77145,2,0,P|374:172|345:198,1,59.2000014453125,0|8,0:0|0:0,0:0:0:0:
304,118,77383,2,0,P|269:123|234:118,1,59.2000014453125,0|8,0:0|0:0,0:0:0:0:
179,66,77621,6,0,P|99:59|42:81,1,118.400002890625,6|0,0:0|0:0,0:0:0:0:
23,142,77978,1,8,0:0:0:0:
72,201,78098,2,0,L|67:272,1,59.2000014453125,0|8,0:0|0:0,0:0:0:0:
110,329,78336,2,0,P|173:332|240:302,1,118.400002890625,2|0,0:0|0:0,0:0:0:0:
273,243,78693,1,8,0:0:0:0:
343,284,78812,2,0,P|358:325|362:360,1,59.2000014453125,0|8,0:0|0:0,0:0:0:0:
427,290,79050,6,0,P|430:258|445:228,1,59.2000014453125,6|0,0:0|0:0,0:0:0:0:
368,210,79288,2,0,P|362:178|349:148,1,59.2000014453125
429,132,79526,2,0,P|436:99|447:70,1,59.2000014453125
371,42,79764,2,0,L|362:-1,7,44.4000010839844,8|8|8|8|8|8|8|8,0:0|0:0|0:0|0:0|0:0|0:0|0:0|0:0,0:0:0:0:
307,78,80478,6,0,P|264:90|213:86,1,88.000002685547,4|0,0:0|0:0,0:0:0:0:
183,74,80746,1,0,0:0:0:0:
183,74,80836,1,0,0:0:0:0:
103,127,81014,1,8,0:0:0:0:
31,68,81193,1,0,0:0:0:0:
111,134,81371,1,0,0:0:0:0:
111,134,81461,1,0,0:0:0:0:
111,134,81550,2,0,L|121:231,1,88.000002685547,0|8,0:0|0:0,0:0:0:0:
206,321,81907,6,0,L|215:233,1,88.000002685547,0|8,0:0|0:0,0:0:0:0:
292,168,82264,1,0,0:0:0:0:
356,247,82443,2,0,P|435:256|509:201,1,176.000005371094,8|0,0:0|0:0,0:0:0:0:
504,94,82978,1,0,0:0:0:0:
406,66,83157,1,8,0:0:0:0:
406,66,83246,1,0,0:0:0:0:
406,66,83336,6,0,L|406:157,1,88.000002685547,0|8,0:0|0:0,0:0:0:0:
316,210,83693,1,2,0:0:0:0:
236,148,83871,1,8,0:0:0:0:
236,148,83961,1,0,0:0:0:0:
236,148,84050,2,0,P|222:91|223:51,1,88.000002685547,0|8,0:0|0:0,0:0:0:0:
127,135,84407,2,0,P|125:178|112:221,1,88.000002685547,2|8,0:0|0:0,0:0:0:0:
61,41,84764,6,0,P|128:21|224:64,1,176.000005371094,0|0,0:0|0:0,0:0:0:0:
291,143,85300,1,8,0:0:0:0:
392,99,85478,1,4,0:0:0:0:
291,143,85657,1,12,0:0:0:0:
426,175,85836,1,4,0:0:0:0:
291,143,86014,1,12,0:0:0:0:
428,257,86193,6,0,L|487:252,3,44.0000013427735,4|0|8|8,0:0|0:0|0:0|0:0,0:0:0:0:
362,299,86550,2,0,L|303:294,3,44.0000013427735,0|0|0|0,0:0|0:0|0:0|0:0,0:0:0:0:
267,241,86907,1,12,0:0:0:0:
170,308,87086,1,12,0:0:0:0:
170,308,87621,6,0,P|152:246|147:172,2,132.00000402832,14|14|14,0:0|0:0|0:0,0:0:0:0:
247,223,88336,2,0,P|265:167|268:124,1,88.000002685547,8|0,0:0|0:0,0:0:0:0:
266,105,88603,1,0,0:0:0:0:
266,105,88693,1,0,0:0:0:0:
183,50,88871,1,8,0:0:0:0:
99,109,89050,6,0,L|91:246,1,132.00000402832,12|0,0:0|0:0,0:0:0:0:
138,301,89407,2,0,P|196:310|275:278,1,132.00000402832,12|0,0:0|0:0,0:0:0:0:
316,231,89764,2,0,P|371:233|416:248,1,88.000002685547,12|0,0:0|0:0,0:0:0:0:
225,201,90121,2,0,P|199:152|189:105,1,88.000002685547,12|0,0:0|0:0,0:0:0:0:
251,293,90478,6,0,P|197:328|115:333,1,120,4|8,0:0|0:0,0:0:0:0:
107,333,90836,1,0,0:0:0:0:
15,268,91014,1,8,0:0:0:0:
110,231,91193,2,0,L|122:98,1,120,0|8,0:0|0:0,0:0:0:0:
125,75,91550,1,0,0:0:0:0:
222,29,91728,1,8,0:0:0:0:
298,100,91907,6,0,P|307:147|302:189,1,80,4|8,0:0|0:0,0:0:0:0:
383,297,92264,2,0,P|380:257|389:218,1,80,0|8,0:0|0:0,0:0:0:0:
473,133,92621,1,8,0:0:0:0:
475,152,92711,1,8,0:0:0:0:
477,171,92800,1,8,0:0:0:0:
479,190,92889,1,8,0:0:0:0:
481,209,92978,1,8,0:0:0:0:
483,228,93068,1,0,0:0:0:0:
486,247,93157,1,0,0:0:0:0:
488,266,93246,1,8,0:0:0:0:
491,285,93336,1,0,0:0:0:0:
187,207,94050,6,0,P|177:141|208:66,1,143.999995605469,4|8,0:0|0:0,0:0:0:0:
233,46,94407,1,0,0:0:0:0:
315,130,94585,1,10,0:0:0:0:
256,235,94764,2,0,L|91:219,1,143.999995605469,0|8,0:0|0:0,0:0:0:0:
76,239,95121,1,0,0:0:0:0:
156,329,95300,1,10,0:0:0:0:
262,262,95478,6,0,P|327:261|367:273,1,95.9999970703126,0|2,0:0|0:0,0:0:0:0:
386,284,95746,1,8,0:0:0:0:
386,284,95835,1,0,0:0:0:0:
410,157,96014,1,10,0:0:0:0:
296,104,96192,1,2,0:0:0:0:
260,119,96282,1,2,0:0:0:0:
221,121,96371,1,2,0:0:0:0:
184,109,96460,1,8,0:0:0:0:
156,82,96550,2,0,P|142:52|138:27,3,47.9999985351563,2|2|10|0,0:0|0:0|0:0|0:0,0:0:0:0:
84,110,96907,6,0,P|99:177|81:249,1,143.999995605469,12|8,0:0|0:0,0:0:0:0:
55,277,97264,1,0,0:0:0:0:
132,363,97442,1,10,0:0:0:0:
214,283,97621,2,0,L|313:287,1,95.9999970703126,0|2,0:0|0:0,0:0:0:0:
349,288,97889,1,8,0:0:0:0:
349,288,97978,1,0,0:0:0:0:
433,211,98157,1,10,0:0:0:0:
323,71,98335,6,0,P|313:127|326:177,1,95.9999970703126,0|2,0:0|0:0,0:0:0:0:
340,194,98603,1,8,0:0:0:0:
340,194,98692,1,0,0:0:0:0:
421,116,98871,1,10,0:0:0:0:
230,69,99050,1,2,0:0:0:0:
195,86,99139,1,2,0:0:0:0:
156,88,99228,1,2,0:0:0:0:
118,80,99317,1,8,0:0:0:0:
83,61,99407,2,0,L|61:108,3,47.9999985351563,2|2|10|0,0:0|0:0|0:0|0:0,0:0:0:0:
126,154,99764,6,0,P|138:225|119:299,1,143.999995605469,12|8,0:0|0:0,0:0:0:0:
99,326,100121,1,0,0:0:0:0:
0,273,100300,1,10,0:0:0:0:
59,178,100478,2,0,L|224:168,1,143.999995605469,0|8,0:0|0:0,0:0:0:0:
234,185,100835,1,0,0:0:0:0:
324,114,101014,1,10,0:0:0:0:
399,193,101192,6,0,P|411:244|409:292,1,95.9999970703126,0|2,0:0|0:0,0:0:0:0:
401,324,101460,1,8,0:0:0:0:
401,324,101550,1,0,0:0:0:0:
287,258,101728,1,10,0:0:0:0:
201,337,101907,1,2,0:0:0:0:
163,331,101996,1,2,0:0:0:0:
125,326,102085,1,2,0:0:0:0:
86,321,102175,1,8,0:0:0:0:
48,316,102264,2,0,L|0:332,3,47.9999985351563,2|2|10|0,0:0|0:0|0:0|0:0,0:0:0:0:
17,237,102621,6,0,P|79:243|151:201,1,143.999995605469,12|8,0:0|0:0,0:0:0:0:
168,168,102978,1,0,0:0:0:0:
60,124,103157,1,10,0:0:0:0:
214,261,103335,2,0,P|277:270|355:237,1,143.999995605469,0|8,0:0|0:0,0:0:0:0:
374,214,103692,1,0,0:0:0:0:
269,141,103871,1,10,0:0:0:0:
382,85,104050,5,0,0:0:0:0:
486,162,104228,1,2,0:0:0:0:
486,162,104317,1,8,0:0:0:0:
486,162,104407,1,0,0:0:0:0:
382,85,104585,1,10,0:0:0:0:
269,141,104764,1,8,0:0:0:0:
232,153,104853,1,8,0:0:0:0:
193,151,104942,1,8,0:0:0:0:
157,134,105032,1,8,0:0:0:0:
134,103,105121,2,0,P|123:64|125:41,3,47.9999985351563,8|0|0|0,0:0|0:0|0:0|0:0,0:0:0:0:
205,76,105478,6,0,L|184:239,1,143.999995605469,12|0,0:0|0:0,0:0:0:0:
263,263,105835,2,0,P|178:257|122:291,1,143.999995605469,12|0,0:0|0:0,0:0:0:0:
79,354,106192,1,12,0:0:0:0:
9,242,106371,1,8,0:0:0:0:
9,242,106460,1,0,0:0:0:0:
9,242,106550,1,8,0:0:0:0:
102,158,106728,1,8,0:0:0:0:
102,158,106817,1,0,0:0:0:0:
102,158,106907,6,0,L|153:149,3,47.9999985351563,6|0|8|0,0:0|0:0|0:0|0:0,0:0:0:0:
200,208,107264,2,0,L|251:217,3,47.9999985351563,2|0|8|2,0:0|0:0|0:0|0:0,0:0:0:0:
320,184,107622,1,0,0:0:0:0:
345,155,107711,1,0,0:0:0:0:
357,118,107800,1,10,0:0:0:0:
361,79,107889,1,0,0:0:0:0:
356,40,107978,2,0,P|348:13|336:-7,3,47.9999985351563,0|2|0|0,0:0|0:0|0:0|0:0,0:0:0:0:
444,31,108335,5,2,0:0:0:0:
432,67,108424,1,0,0:0:0:0:
435,106,108513,1,0,0:0:0:0:
447,143,108602,1,2,0:0:0:0:
467,177,108692,2,0,P|484:198|503:212,3,47.9999985351563,0|0|10|0,0:0|0:0|0:0|0:0,0:0:0:0:
428,250,109050,2,0,P|431:304|416:353,1,95.9999970703126,2|10,0:0|0:0,0:0:0:0:
305,221,109407,2,0,P|302:167|317:118,1,95.9999970703126,2|10,0:0|0:0,0:0:0:0:
231,295,109764,5,10,0:0:0:0:
196,311,109853,1,0,0:0:0:0:
157,311,109942,1,10,0:0:0:0:
120,299,110032,1,0,0:0:0:0:
92,271,110121,2,0,L|77:222,3,47.9999985351563,0|0|10|0,0:0|0:0|0:0|0:0,0:0:0:0:
151,188,110478,2,0,L|166:139,3,47.9999985351563,2|0|8|0,0:0|0:0|0:0|0:0,0:0:0:0:
238,106,110835,1,2,0:0:0:0:
272,123,110925,1,0,0:0:0:0:
310,126,111014,1,10,0:0:0:0:
347,118,111103,1,0,0:0:0:0:
377,94,111192,1,4,0:1:0:0:
256,192,111282,12,0,113692,0:0:0:0:
