osu file format v14

[General]
AudioFilename: audio.mp3
AudioLeadIn: 0
PreviewTime: 41907
Countdown: 1
SampleSet: Soft
StackLeniency: 0.7
Mode: 0
LetterboxInBreaks: 0
WidescreenStoryboard: 1

[Editor]
Bookmarks: 16193,21907,79050
DistanceSpacing: 1
BeatDivisor: 4
GridSize: 4
TimelineZoom: 1

[Metadata]
Title:Sasurai
TitleUnicode:流離
Artist:PON
ArtistUnicode:PON
Creator:Kyshiro
Version:Hard
Source:pop'n music éclale
Tags:Sand kshro beatmania
BeatmapID:1032601
BeatmapSetID:482711

[Difficulty]
HPDrainRate:5
CircleSize:3.8
OverallDifficulty:6.5
ApproachRate:8
SliderMultiplier:1.4
SliderTickRate:2

[Events]
//Background and Video events
0,0,"wallhaven-269201.jpg",0,0
//Break Periods
2,16393,21157
//Storyboard Layer 0 (Background)
//Storyboard Layer 1 (Fail)
//Storyboard Layer 2 (Pass)
//Storyboard Layer 3 (Foreground)
//Storyboard Sound Samples

[TimingPoints]
479,357.142857142857,4,2,1,75,1,0
746,-100,4,2,1,5,0,0
836,-100,4,2,1,75,0,0
1103,-100,4,2,1,5,0,0
1193,-100,4,2,1,75,0,0
1461,-100,4,2,1,5,0,0
1550,-100,4,2,1,75,0,0
2086,-100,4,2,1,5,0,0
2175,-100,4,2,1,75,0,0
2353,-100,4,2,1,5,0,0
2443,-100,4,2,1,75,0,0
3336,-100,4,2,1,75,0,0
21907,-100,4,2,1,75,0,0
27443,-133.333333333333,4,2,1,75,0,0
29050,-90.9090909090909,4,2,1,75,0,0
41907,-83.3333333333333,4,2,1,85,0,1
57621,-90.9090909090909,4,2,1,75,0,0
69050,-90.0900900900901,4,2,1,75,0,0
69228,-90.0900900900901,4,2,1,5,0,0
69288,-90.0900900900901,4,2,1,75,0,0
69348,-90.0900900900901,4,2,1,5,0,0
69407,-90.0900900900901,4,2,1,75,0,0
69943,-90.0900900900901,4,2,1,5,0,0
70002,-90.0900900900901,4,2,1,75,0,0
70062,-90.0900900900901,4,2,1,5,0,0
70121,-90.0900900900901,4,2,1,75,0,0
70657,-90.0900900900901,4,2,1,5,0,0
70717,-90.0900900900901,4,2,1,75,0,0
70776,-90.0900900900901,4,2,1,5,0,0
70836,-90.0900900900901,4,2,1,5,0,0
70895,-90.0900900900901,4,2,1,75,0,0
71371,-90.0900900900901,4,2,1,5,0,0
71431,-90.0900900900901,4,2,1,75,0,0
72086,-90.0900900900901,4,2,1,5,0,0
72145,-90.0900900900901,4,2,1,75,0,0
72205,-90.0900900900901,4,2,1,5,0,0
72264,-90.0900900900901,4,2,1,75,0,0
72800,-90.0900900900901,4,2,1,5,0,0
72859,-90.0900900900901,4,2,1,75,0,0
72978,-90.0900900900901,4,2,1,5,0,0
73038,-90.0900900900901,4,2,1,75,0,0
73514,-90.0900900900901,4,2,1,5,0,0
73574,-90.0900900900901,4,2,1,75,0,0
73633,-90.0900900900901,4,2,1,5,0,0
73693,-90.0900900900901,4,2,1,75,0,0
74228,-90.0900900900901,4,2,1,5,0,0
74288,-90.0900900900901,4,2,1,75,0,0
74348,-90.0900900900901,4,2,1,5,0,0
74407,-90.0900900900901,4,2,1,75,0,0
74764,-83.3333333333333,4,2,1,75,0,0
74943,-83.3333333333333,4,2,1,5,0,0
75002,-83.3333333333333,4,2,1,75,0,0
75121,-83.3333333333333,4,2,1,5,0,0
75181,-83.3333333333333,4,2,1,75,0,0
75657,-83.3333333333333,4,2,1,5,0,0
75717,-83.3333333333333,4,2,1,75,0,0
75776,-83.3333333333333,4,2,1,5,0,0
75836,-83.3333333333333,4,2,1,75,0,0
76371,-83.3333333333333,4,2,1,5,0,0
76431,-83.3333333333333,4,2,1,75,0,0
76490,-83.3333333333333,4,2,1,5,0,0
76550,-83.3333333333333,4,2,1,75,0,0
77086,-83.3333333333333,4,2,1,5,0,0
77145,-83.3333333333333,4,2,1,75,0,0
77264,-83.3333333333333,4,2,1,5,0,0
77324,-83.3333333333333,4,2,1,75,0,0
77800,-83.3333333333333,4,2,1,5,0,0
77859,-83.3333333333333,4,2,1,75,0,0
77919,-83.3333333333333,4,2,1,5,0,0
77978,-83.3333333333333,4,2,1,75,0,0
78514,-83.3333333333333,4,2,1,5,0,0
78574,-83.3333333333333,4,2,1,75,0,0
78633,-83.3333333333333,4,2,1,5,0,0
78693,-83.3333333333333,4,2,1,75,0,0
79228,-83.3333333333333,4,2,1,5,0,0
79288,-83.3333333333333,4,2,1,75,0,0
79348,-83.3333333333333,4,2,1,5,0,0
79407,-83.3333333333333,4,2,1,75,0,0
80478,-90.9090909090909,4,2,1,75,0,0
90478,-100,4,2,1,75,0,0
94050,357.142857142857,4,2,1,75,1,0
94050,-83.3333333333333,4,2,1,90,0,1
105478,-83.3333333333333,4,2,1,85,0,0
106907,-83.3333333333333,4,2,1,90,0,1
113692,-83.3333333333333,4,2,1,5,0,0

[Colours]
Combo1 : 208,230,211
Combo2 : 180,184,241
Combo3 : 236,196,251
Combo4 : 255,179,181

[HitObjects]
53,162,479,6,0,P|114:164|164:144,1,105,4|0,0:0|0:0,0:0:0:0:
184,130,836,2,0,P|245:128|295:148,1,105,4|0,0:0|0:0,0:0:0:0:
306,165,1193,2,0,L|317:283,1,105,4|0,0:0|0:0,0:0:0:0:
333,299,1550,2,0,P|385:309|422:305,1,70,4|0,0:0|0:0,0:0:0:0:
460,242,1907,6,0,L|472:127,2,105,4|4|4,0:0|0:0|0:0,0:0:0:0:
401,308,2621,1,4,0:0:0:0:
284,170,3336,6,0,P|221:158|146:189,1,140,4|0,0:0|0:0,0:0:0:0:
95,236,3871,1,2,0:0:0:0:
48,174,4050,2,0,P|39:133|43:88,1,70
102,60,4407,2,0,L|176:47,1,70,2|0,0:0|0:0,0:0:0:0:
238,86,4764,6,0,P|315:100|359:89,1,105
368,79,5121,1,0,0:0:0:0:
436,115,5300,1,2,0:0:0:0:
376,163,5478,2,0,L|388:312,1,140,0|2,0:0|0:0,0:0:0:0:
328,352,6014,1,0,0:0:0:0:
266,305,6193,6,0,P|226:299|183:299,1,70
127,223,6550,2,0,P|161:221|196:216,1,70,0|2,0:0|0:0,0:0:0:0:
260,172,6907,2,0,L|270:50,1,105
272,37,7264,1,2,0:0:0:0:
201,6,7443,1,0,0:0:0:0:
133,42,7621,6,0,P|113:93|131:180,2,140,0|2|0,0:0|0:0|0:0,0:0:0:0:
198,82,8514,1,0,0:0:0:0:
266,45,8693,2,0,L|343:55,1,70,2|0,0:0|0:0,0:0:0:0:
400,95,9050,6,0,P|415:150|409:210,1,105,4|0,0:0|0:0,0:0:0:0:
395,227,9407,1,0,0:0:0:0:
329,186,9586,1,2,0:0:0:0:
270,235,9764,2,0,P|207:243|187:240,1,70
150,184,10121,2,0,L|137:108,1,70,2|0,0:0|0:0,0:0:0:0:
66,144,10478,6,0,L|49:288,1,140
99,342,11014,1,2,0:0:0:0:
167,305,11193,2,0,P|222:319|280:312,1,105
304,302,11550,1,2,0:0:0:0:
268,233,11728,1,0,0:0:0:0:
339,204,11907,6,0,L|349:124,1,70,2|0,0:0|0:0,0:0:0:0:
263,146,12264,2,0,L|273:66,1,70,2|0,0:0|0:0,0:0:0:0:
185,99,12621,2,0,L|195:19,1,70,2|0,0:0|0:0,0:0:0:0:
110,51,12978,1,2,0:0:0:0:
21,195,13336,6,0,P|66:197|127:167,1,105,4|0,0:0|0:0,0:0:0:0:
144,142,13693,1,0,0:0:0:0:
204,189,13871,1,2,0:0:0:0:
269,148,14050,2,0,P|309:159|344:160,1,70
410,135,14407,2,0,L|425:98,4,35,2|2|2|0|4,0:0|0:0|0:0|0:0|0:0,0:0:0:0:
489,266,15121,5,0,0:0:0:0:
421,303,15300,1,8,0:0:0:0:
421,303,15389,1,8,0:0:0:0:
421,303,15478,1,0,0:0:0:0:
356,246,15657,1,8,0:0:0:0:
292,290,15836,2,0,L|240:283,4,35,8|0|0|0|4,0:0|0:0|0:0|0:0|0:0,0:0:0:0:
55,210,21907,6,0,P|40:149|58:75,1,140,4|0,0:0|0:0,0:0:0:0:
131,51,22443,1,0,0:0:0:0:
198,87,22621,2,0,P|215:134|204:198,2,105,2|0|0,0:0|0:0|0:0,0:0:0:0:
132,128,23336,6,0,L|124:279,1,140,2|0,0:0|0:0,0:0:0:0:
199,320,23871,1,0,0:0:0:0:
199,320,23961,1,0,0:0:0:0:
199,320,24050,1,2,0:0:0:0:
339,257,24407,1,0,0:0:0:0:
215,164,24764,6,0,P|211:110|219:77,2,70,4|0|0,0:0|0:0|0:0,0:0:0:0:
288,140,25300,2,0,P|326:102|357:87,2,70,4|0|0,0:0|0:0|0:0,0:0:0:0:
356,175,25836,2,0,P|409:180|440:194,1,70,4|0,0:0|0:0,0:0:0:0:
466,250,26193,5,0,0:0:0:0:
402,292,26371,2,0,P|340:302|255:267,1,140,4|0,0:0|0:0,0:0:0:0:
212,223,26907,1,8,0:0:0:0:
212,223,26996,1,8,0:0:0:0:
212,223,27086,1,8,0:0:0:0:
155,281,27264,1,8,0:0:0:0:
90,238,27443,6,0,P|75:184|95:80,1,157.500006008148,4|0,0:0|0:0,0:0:0:0:
203,52,28336,2,0,P|205:106|190:146,2,78.7500030040742,4|4|4,0:0|0:0|0:0,0:0:0:0:
286,34,29050,6,0,P|335:57|397:65,1,115.50000352478,4|0,0:0|0:0,0:0:0:0:
429,60,29407,1,2,0:0:0:0:
495,112,29586,1,2,0:0:0:0:
426,161,29764,2,0,P|412:217|415:249,1,77.0000023498536,0|2,0:0|0:0,0:0:0:0:
332,280,30121,2,0,P|330:241|318:205,1,77.0000023498536,0|2,0:0|0:0,0:0:0:0:
244,164,30478,6,0,L|162:171,1,77.0000023498536,0|2,0:0|0:0,0:0:0:0:
96,218,30836,1,0,0:0:0:0:
179,257,31014,1,2,0:0:0:0:
179,257,31103,1,0,0:0:0:0:
179,257,31193,1,0,0:0:0:0:
105,299,31371,1,2,0:0:0:0:
25,268,31550,2,0,P|11:220|17:184,1,77.0000023498536,0|2,0:0|0:0,0:0:0:0:
76,136,31907,6,0,L|164:131,1,77.0000023498536,0|2,0:0|0:0,0:0:0:0:
265,61,32264,2,0,L|177:56,1,77.0000023498536,0|2,0:0|0:0,0:0:0:0:
295,137,32621,2,0,L|383:132,1,77.0000023498536,0|2,0:0|0:0,0:0:0:0:
448,95,32978,1,0,0:0:0:0:
448,95,33336,6,0,P|465:141|473:183,1,77.0000023498536,0|2,0:0|0:0,0:0:0:0:
400,211,33693,2,0,P|383:257|375:299,1,77.0000023498536,0|2,0:0|0:0,0:0:0:0:
421,356,34050,1,4,0:0:0:0:
337,366,34228,1,4,0:0:0:0:
261,327,34407,1,4,0:0:0:0:
214,255,34586,1,4,0:0:0:0:
146,306,34764,6,0,P|88:319|0:284,1,154.000004699707,4|0,0:0|0:0,0:0:0:0:
12,201,35300,1,0,0:0:0:0:
86,161,35478,2,0,P|94:203|83:243,1,77.0000023498536,8|8,0:0|0:0,0:0:0:0:
86,236,36193,6,0,P|146:222|205:222,2,115.50000352478,4|2|2,0:0|0:0|0:0,0:0:0:0:
14,190,36907,2,0,P|46:155|86:131,1,77.0000023498536,4|0,0:0|0:0,0:0:0:0:
153,111,37264,1,8,0:0:0:0:
153,111,37353,1,8,0:0:0:0:
153,111,37443,1,8,0:0:0:0:
227,151,37621,6,0,P|290:162|350:146,1,115.50000352478,4|0,0:0|0:0,0:0:0:0:
377,131,37978,2,0,L|405:248,1,115.50000352478,4|0,0:0|0:0,0:0:0:0:
434,273,38336,2,0,L|460:160,1,115.50000352478,4|0,0:0|0:0,0:0:0:0:
473,119,38693,1,4,0:0:0:0:
321,42,39050,6,0,P|249:55|197:52,1,115.50000352478,4|0,0:0|0:0,0:0:0:0:
173,45,39407,1,0,0:0:0:0:
95,10,39586,1,2,0:0:0:0:
35,69,39764,2,0,L|47:235,1,154.000004699707
116,269,40300,1,2,0:0:0:0:
183,217,40478,6,0,P|245:213|290:225,1,77.0000023498536,4|2,0:0|0:0,0:0:0:0:
323,271,40836,2,0,P|361:274|399:269,1,77.0000023498536,0|2,0:0|0:0,0:0:0:0:
462,212,41193,2,0,L|475:129,1,77.0000023498536,0|2,0:0|0:0,0:0:0:0:
426,65,41550,1,8,0:0:0:0:
426,65,41639,1,8,0:0:0:0:
426,65,41728,1,8,0:0:0:0:
357,118,41907,6,0,P|300:126|198:77,2,167.999994873047,4|2|0,0:0|0:0|0:0,0:0:0:0:
426,65,42800,1,0,0:0:0:0:
473,135,42978,2,0,L|456:222,1,83.9999974365235,2|0,0:0|0:0,0:0:0:0:
393,272,43336,5,0,0:0:0:0:
322,226,43514,1,0,0:0:0:0:
253,274,43693,2,0,L|260:360,1,83.9999974365235,2|0,0:0|0:0,0:0:0:0:
176,367,44050,2,0,L|126:358,7,41.9999987182618,0|0|0|0|2|0|0|0,0:0|0:0|0:0|0:0|0:0|0:0|0:0|0:0,0:0:0:0:
100,335,44764,6,0,P|88:293|122:173,2,167.999994873047,0|2|0,0:0|0:0|0:0,0:0:0:0:
171,291,45657,1,0,0:0:0:0:
218,360,45836,2,0,P|272:350|311:326,1,83.9999974365235,2|0,0:0|0:0,0:0:0:0:
386,271,46193,6,0,P|348:253|306:247,1,83.9999974365235
238,197,46550,1,2,0:0:0:0:
297,138,46728,2,0,P|356:150|456:95,1,167.999994873047
418,25,47264,1,2,0:0:0:0:
418,25,47353,1,0,0:0:0:0:
418,25,47443,1,0,0:0:0:0:
337,49,47621,6,0,L|246:36,1,83.9999974365235,4|0,0:0|0:0,0:0:0:0:
175,128,47978,2,0,L|266:115,1,83.9999974365235,2|0,0:0|0:0,0:0:0:0:
146,47,48336,2,0,P|84:44|22:73,1,125.999996154785
0,97,48693,1,2,0:0:0:0:
62,152,48871,1,0,0:0:0:0:
1,211,49050,6,0,L|10:300,1,83.9999974365235
87,348,49407,2,0,L|95:264,1,83.9999974365235,2|0,0:0|0:0,0:0:0:0:
162,213,49764,1,0,0:0:0:0:
298,310,50121,1,2,0:0:0:0:
452,244,50478,6,0,P|466:173|442:79,2,167.999994873047,0|2|0,0:0|0:0|0:0,0:0:0:0:
381,198,51371,1,0,0:0:0:0:
319,255,51550,2,0,L|233:240,1,83.9999974365235,2|0,0:0|0:0,0:0:0:0:
156,267,51907,5,0,0:0:0:0:
12,179,52264,1,0,0:0:0:0:
155,91,52621,2,0,L|174:135,3,41.9999987182618,8|8|0|0,0:0|0:0|0:0|0:0,0:0:0:0:
210,147,52978,2,0,L|229:191,3,41.9999987182618,8|8|0|0,0:0|0:0|0:0|0:0,0:0:0:0:
261,198,53336,5,4,0:0:0:0:
386,86,53693,1,4,0:0:0:0:
488,219,54050,1,4,0:0:0:0:
361,329,54407,1,4,0:0:0:0:
261,198,54764,6,0,P|244:134|244:97,1,83.9999974365235,4|0,0:0|0:0,0:0:0:0:
173,56,55121,2,0,P|168:97|155:137,1,83.9999974365235,4|0,0:0|0:0,0:0:0:0:
74,114,55478,2,0,P|66:202|100:282,1,167.999994873047,4|4,0:0|0:0,0:0:0:0:
164,321,56014,1,0,0:0:0:0:
237,280,56193,6,0,L|362:298,2,125.999996154785,4|4|4,0:0|0:0|0:0,0:0:0:0:
175,222,56907,2,0,L|189:125,1,83.9999974365235,4|0,0:0|0:0,0:0:0:0:
204,56,57264,1,0,0:0:0:0:
204,56,57621,6,0,P|155:63|121:60,1,77.0000023498536,4|2,0:0|0:0,0:0:0:0:
26,134,57978,2,0,P|64:132|102:139,1,77.0000023498536,0|2,0:0|0:0,0:0:0:0:
154,206,58336,2,0,L|156:328,1,115.50000352478,0|2,0:0|0:0,0:0:0:0:
175,349,58693,1,0,0:0:0:0:
244,300,58871,1,2,0:0:0:0:
316,343,59050,6,0,L|359:333,3,38.5000011749268,0|2|0|2,0:0|0:0|0:0|0:0,0:0:0:0:
390,318,59407,2,0,P|410:267|409:232,1,77.0000023498536,0|2,0:0|0:0,0:0:0:0:
332,211,59764,2,0,P|314:167|311:87,1,115.50000352478,0|2,0:0|0:0,0:0:0:0:
319,62,60121,1,0,0:0:0:0:
245,20,60300,1,2,0:0:0:0:
191,84,60478,6,0,L|185:162,1,77.0000023498536,0|2,0:0|0:0,0:0:0:0:
110,215,60836,2,0,L|104:138,1,77.0000023498536,0|2,0:0|0:0,0:0:0:0:
32,92,61193,1,0,0:0:0:0:
32,292,61550,2,0,P|83:299|111:293,1,77.0000023498536,0|2,0:0|0:0,0:0:0:0:
180,250,61907,6,0,L|233:261,3,38.5000011749268,0|2|0|2,0:0|0:0|0:0|0:0,0:0:0:0:
256,274,62264,2,0,P|267:316|265:354,1,77.0000023498536,0|2,0:0|0:0,0:0:0:0:
348,307,62621,2,0,P|345:251|380:152,1,154.000004699707
438,101,63157,1,2,0:0:0:0:
501,157,63336,6,0,L|507:247,1,77.0000023498536,4|2,0:0|0:0,0:0:0:0:
430,273,63693,2,0,L|436:363,1,77.0000023498536,0|2,0:0|0:0,0:0:0:0:
355,321,64050,2,0,P|301:330|231:298,1,115.50000352478,0|2,0:0|0:0,0:0:0:0:
218,281,64407,1,0,0:0:0:0:
287,232,64586,1,2,0:0:0:0:
209,199,64764,6,0,L|199:27,2,154.000004699707
133,237,65657,2,0,P|97:206|81:177,2,77.0000023498536,2|0|2,0:0|0:0|0:0,0:0:0:0:
205,281,66193,6,0,P|270:280|360:323,1,154.000004699707
416,367,66728,1,2,0:0:0:0:
462,295,66907,2,0,L|475:213,1,77.0000023498536,0|2,0:0|0:0,0:0:0:0:
391,197,67264,2,0,L|378:115,1,77.0000023498536,0|2,0:0|0:0,0:0:0:0:
315,64,67621,5,4,0:0:0:0:
22,185,69050,6,0,P|84:185|130:156,2,103.600002529297,4|0|0,0:0|0:0|0:0,0:0:0:0:
85,85,69764,2,0,P|147:85|193:114,2,103.600002529297,4|0|0,0:0|0:0|0:0,0:0:0:0:
203,194,70478,2,0,P|299:197|387:118,1,207.200005058594,4|0,0:0|0:0,0:0:0:0:
466,52,71193,2,0,L|479:158,1,103.600002529297,4|0,0:0|0:0,0:0:0:0:
419,252,71669,1,0,0:0:0:0:
322,178,71907,6,0,P|305:122|312:68,2,103.600002529297,4|0|0,0:0|0:0|0:0,0:0:0:0:
415,246,72621,2,0,P|333:217|214:248,1,207.200005058594,4|0,0:0|0:0,0:0:0:0:
125,178,73336,2,0,L|103:70,2,103.600002529297,4|0|0,0:0|0:0|0:0,0:0:0:0:
219,244,74050,2,0,L|241:136,2,103.600002529297,4|0|0,0:0|0:0|0:0,0:0:0:0:
293,342,74764,6,0,P|365:360|438:246,1,223.999993164063,4|8,0:0|0:0,0:0:0:0:
358,157,75478,2,0,L|346:277,2,111.999996582031,4|8|8,0:0|0:0|0:0,0:0:0:0:
246,164,76193,2,0,L|234:52,2,111.999996582031,4|8|8,0:0|0:0|0:0,0:0:0:0:
164,240,76907,2,0,P|102:252|19:134,1,223.999993164063,4|8,0:0|0:0,0:0:0:0:
105,48,77621,6,0,P|117:93|114:157,2,111.999996582031,4|8|8,0:0|0:0|0:0,0:0:0:0:
218,123,78336,2,0,P|206:168|209:232,2,111.999996582031,4|8|8,0:0|0:0|0:0,0:0:0:0:
336,90,79050,2,0,L|455:78,2,111.999996582031,4|8|8,0:0|0:0|0:0,0:0:0:0:
248,13,79764,1,4,0:0:0:0:
248,13,80478,6,0,P|197:40|92:33,1,154.000004699707,4|0,0:0|0:0,0:0:0:0:
24,71,81014,1,2,0:0:0:0:
91,122,81193,2,0,L|82:220,1,77.0000023498536,0|2,0:0|0:0,0:0:0:0:
173,300,81550,2,0,L|165:223,1,77.0000023498536,0|2,0:0|0:0,0:0:0:0:
233,172,81907,5,0,0:0:0:0:
309,208,82086,2,0,P|319:258|313:296,2,77.0000023498536,2|0|2,0:0|0:0|0:0,0:0:0:0:
376,157,82621,2,0,P|373:118|383:81,1,77.0000023498536,0|2,0:0|0:0,0:0:0:0:
458,41,82978,1,0,0:0:0:0:
512,118,83157,1,2,0:0:0:0:
512,118,83246,1,0,0:0:0:0:
512,118,83336,6,0,L|495:204,1,77.0000023498536,0|2,0:0|0:0,0:0:0:0:
474,275,83693,1,0,0:0:0:0:
403,228,83871,2,0,P|348:226|311:238,2,77.0000023498536,2|0|2,0:0|0:0|0:0,0:0:0:0:
397,312,84407,1,0,0:0:0:0:
313,327,84586,1,2,0:0:0:0:
245,276,84764,6,0,P|186:267|90:297,1,154.000004699707
22,250,85300,1,2,0:0:0:0:
82,191,85478,2,0,L|96:113,1,77.0000023498536,4|4,0:0|0:0,0:0:0:0:
188,137,85836,2,0,L|174:59,1,77.0000023498536,4|4,0:0|0:0,0:0:0:0:
250,23,86193,6,0,P|305:16|388:65,1,154.000004699707,4|0,0:0|0:0,0:0:0:0:
354,141,86728,1,2,0:0:0:0:
423,190,86907,2,0,L|413:270,1,77.0000023498536,8|8,0:0|0:0,0:0:0:0:
204,336,87621,6,0,L|185:211,2,115.50000352478,4|4|4,0:0|0:0|0:0,0:0:0:0:
277,292,88336,2,0,P|336:328|424:326,1,154.000004699707,4|0,0:0|0:0,0:0:0:0:
485,275,88871,1,2,0:0:0:0:
422,217,89050,6,0,P|411:167|415:135,1,77.0000023498536,0|2,0:0|0:0,0:0:0:0:
493,112,89407,2,0,P|504:62|500:30,1,77.0000023498536,0|2,0:0|0:0,0:0:0:0:
417,23,89764,2,0,L|326:30,1,77.0000023498536,0|2,0:0|0:0,0:0:0:0:
285,93,90121,1,0,0:0:0:0:
102,45,90478,6,0,P|80:115|83:168,1,105,4|2,0:0|0:0,0:0:0:0:
86,182,90836,1,0,0:0:0:0:
160,164,91014,1,2,0:0:0:0:
213,219,91193,2,0,P|280:222|352:188,1,140
400,139,91728,1,2,0:0:0:0:
462,183,91907,6,0,L|470:261,1,70,4|2,0:0|0:0,0:0:0:0:
398,283,92264,2,0,L|390:361,1,70,0|2,0:0|0:0,0:0:0:0:
316,331,92621,2,0,L|293:374,8,35,8|8|8|0|8|8|8|0|0,0:0|0:0|0:0|0:0|0:0|0:0|0:0|0:0|0:0,0:0:0:0:
38,113,94050,6,0,P|126:95|195:140,1,167.999994873047,4|2,0:0|0:0,0:0:0:0:
140,200,94585,1,0,0:0:0:0:
210,246,94764,2,0,P|216:302|212:336,1,83.9999974365235
298,246,95121,2,0,P|295:204|301:162,1,83.9999974365235,2|0,0:0|0:0,0:0:0:0:
376,125,95478,6,0,L|466:119,2,83.9999974365235,0|0|2,0:0|0:0|0:0,0:0:0:0:
302,84,96014,2,0,P|225:94|143:45,1,167.999994873047
68,23,96550,1,2,0:0:0:0:
91,110,96728,1,0,0:0:0:0:
91,110,96817,1,0,0:0:0:0:
91,110,96907,6,0,L|77:198,1,83.9999974365235
119,266,97264,2,0,P|181:264|243:225,1,125.999996154785,2|0,0:0|0:0,0:0:0:0:
261,201,97621,1,0,0:0:0:0:
322,143,97800,1,0,0:0:0:0:
389,192,97978,2,0,L|402:281,1,83.9999974365235,2|0,0:0|0:0,0:0:0:0:
316,276,98335,6,0,L|329:365,1,83.9999974365235
244,348,98692,1,2,0:0:0:0:
174,301,98871,2,0,P|127:317|16:268,1,167.999994873047
72,208,99407,1,2,0:0:0:0:
19,143,99585,1,0,0:0:0:0:
19,143,99675,1,0,0:0:0:0:
19,143,99764,6,0,P|8:91|13:50,1,83.9999974365235,4|0,0:0|0:0,0:0:0:0:
91,36,100121,2,0,L|259:49,1,167.999994873047,2|0,0:0|0:0,0:0:0:0:
335,83,100657,1,0,0:0:0:0:
265,130,100835,2,0,P|263:182|276:226,1,83.9999974365235,2|0,0:0|0:0,0:0:0:0:
349,242,101192,2,0,L|441:233,1,83.9999974365235
280,297,101550,2,0,L|188:288,1,83.9999974365235,2|0,0:0|0:0,0:0:0:0:
152,217,101907,2,0,P|76:206|-6:258,1,167.999994873047,0|2,0:0|0:0,0:0:0:0:
18,331,102442,1,0,0:0:0:0:
98,354,102621,6,0,P|155:341|183:322,1,83.9999974365235
247,282,102978,2,0,P|283:301|325:308,1,83.9999974365235,2|0,0:0|0:0,0:0:0:0:
401,273,103335,2,0,L|428:88,1,167.999994873047,0|2,0:0|0:0,0:0:0:0:
374,39,103871,1,0,0:0:0:0:
305,87,104050,6,0,P|251:91|180:58,1,125.999996154785
168,29,104407,1,2,0:0:0:0:
89,59,104585,1,0,0:0:0:0:
136,128,104764,2,0,L|128:224,1,83.9999974365235,8|8,0:0|0:0,0:0:0:0:
212,204,105121,2,0,L|204:300,1,83.9999974365235,8|8,0:0|0:0,0:0:0:0:
267,344,105478,5,4,0:0:0:0:
429,300,105835,1,4,0:0:0:0:
309,181,106192,1,4,0:0:0:0:
267,344,106550,1,4,0:0:0:0:
429,300,106907,6,0,L|441:128,1,167.999994873047,4|2,0:0|0:0,0:0:0:0:
378,76,107442,1,0,0:0:0:0:
308,124,107621,2,0,P|251:122|223:113,1,83.9999974365235,2|0,0:0|0:0,0:0:0:0:
166,173,107978,2,0,P|109:175|81:184,1,83.9999974365235,2|0,0:0|0:0,0:0:0:0:
44,257,108335,6,0,L|35:351,1,83.9999974365235,2|0,0:0|0:0,0:0:0:0:
114,370,108692,1,2,0:0:0:0:
190,335,108871,2,0,P|216:285|215:253,2,83.9999974365235,0|2|0,0:0|0:0|0:0,0:0:0:0:
136,270,109407,2,0,L|130:176,1,83.9999974365235,2|0,0:0|0:0,0:0:0:0:
182,119,109764,6,0,L|186:71,3,41.9999987182618,4|0|0|0,0:0|0:0|0:0|0:0,0:0:0:0:
222,143,110121,2,0,L|226:191,3,41.9999987182618,8|0|0|0,0:0|0:0|0:0|0:0,0:0:0:0:
263,115,110478,2,0,L|267:67,3,41.9999987182618,8|0|0|0,0:0|0:0|0:0|0:0,0:0:0:0:
309,141,110835,2,0,L|312:182,3,41.9999987182618,8|0|0|0,0:0|0:0|0:0|0:0,0:0:0:0:
344,111,111192,5,4,0:0:0:0:
256,192,111371,12,0,113692,0:0:0:0:
