osu file format v14

[General]
AudioFilename: audio.mp3
AudioLeadIn: 0
PreviewTime: 41907
Countdown: 1
SampleSet: Soft
StackLeniency: 0.7
Mode: 0
LetterboxInBreaks: 0
WidescreenStoryboard: 0

[Editor]
Bookmarks: 16193,21907
DistanceSpacing: 0.9
BeatDivisor: 4
GridSize: 4
TimelineZoom: 1

[Metadata]
Title:Sasurai
TitleUnicode:流離
Artist:PON
ArtistUnicode:PON
Creator:Kyshiro
Version:Extra
Source:pop'n music éclale
Tags:Sand kshro beatmania
BeatmapID:1029979
BeatmapSetID:482711

[Difficulty]
HPDrainRate:6
CircleSize:5
OverallDifficulty:9
ApproachRate:9.4
SliderMultiplier:1.8
SliderTickRate:2

[Events]
//Background and Video events
0,0,"wallhaven-269201.jpg",0,0
//Break Periods
2,16393,21367
//Storyboard Layer 0 (Background)
//Storyboard Layer 1 (Fail)
//Storyboard Layer 2 (Pass)
//Storyboard Layer 3 (Foreground)
//Storyboard Sound Samples

[TimingPoints]
479,357.142857142857,4,2,1,75,1,0
746,-100,4,2,1,5,0,0
836,-100,4,2,1,75,0,0
1103,-100,4,2,1,5,0,0
1193,-100,4,2,1,75,0,0
1461,-100,4,2,1,5,0,0
1550,-100,4,2,1,75,0,0
2086,-100,4,2,1,5,0,0
2175,-100,4,2,1,75,0,0
2353,-100,4,2,1,5,0,0
2443,-100,4,2,1,75,0,0
3336,-81.3008130081301,4,2,1,75,0,0
21907,-100,4,2,1,75,0,0
27443,-133.333333333333,4,2,1,75,0,0
29050,-90.9090909090909,4,2,1,75,0,0
41907,-83.3333333333333,4,2,1,85,0,1
55032,-83.3333333333333,4,2,1,5,0,1
55121,-83.3333333333333,4,2,1,85,0,1
55389,-83.3333333333333,4,2,1,5,0,1
55478,-83.3333333333333,4,2,1,85,0,1
55746,-83.3333333333333,4,2,1,5,0,1
55836,-83.3333333333333,4,2,1,85,0,1
57621,-81.3008130081301,4,2,1,75,0,0
65598,-81.3008130081301,4,2,1,5,0,0
65657,-81.3008130081301,4,2,1,75,0,0
65776,-81.3008130081301,4,2,1,5,0,0
65836,-81.3008130081301,4,2,1,75,0,0
65955,-81.3008130081301,4,2,1,5,0,0
66014,-81.3008130081301,4,2,1,75,0,0
66133,-81.3008130081301,4,2,1,5,0,0
66193,-81.3008130081301,4,2,1,75,0,0
68961,-81.3008130081301,4,2,1,5,0,0
69050,-90.0900900900901,4,2,1,75,0,0
69228,-90.0900900900901,4,2,1,5,0,0
69288,-90.0900900900901,4,2,1,75,0,0
69943,-90.0900900900901,4,2,1,5,0,0
70002,-90.0900900900901,4,2,1,75,0,0
70657,-90.0900900900901,4,2,1,5,0,0
70717,-90.0900900900901,4,2,1,75,0,0
70776,-90.0900900900901,4,2,1,5,0,0
70836,-90.0900900900901,4,2,1,75,0,0
71371,-90.0900900900901,4,2,1,5,0,0
71431,-90.0900900900901,4,2,1,75,0,0
72086,-90.0900900900901,4,2,1,5,0,0
72145,-90.0900900900901,4,2,1,75,0,0
72800,-90.0900900900901,4,2,1,5,0,0
72859,-90.0900900900901,4,2,1,75,0,0
74764,-74.0740740740741,4,2,1,75,0,0
77800,-74.0740740740741,4,2,1,5,0,0
77859,-74.0740740740741,4,2,1,75,0,0
90478,-90.9090909090909,4,2,1,75,0,0
94050,357.142857142857,4,2,1,75,1,0
94050,-83.3333333333333,4,2,1,90,0,1
105478,-83.3333333333333,4,2,1,85,0,0
106907,-83.3333333333333,4,2,1,90,0,1
113692,-83.3333333333333,4,2,1,5,0,0

[Colours]
Combo1 : 208,230,211
Combo2 : 180,184,241
Combo3 : 236,196,251
Combo4 : 255,179,181

[HitObjects]
79,93,479,6,0,B|174:100|174:100|147:140,1,135,4|0,0:0|0:0,0:0:0:0:
92,244,836,2,0,B|50:158|50:158|98:161,1,135,4|0,0:0|0:0,0:0:0:0:
218,157,1193,2,0,B|164:235|164:235|143:192,1,135,4|0,0:0|0:0,0:0:0:0:
152,133,1550,1,4,0:0:0:0:
266,80,1728,1,0,0:0:0:0:
369,150,1907,6,0,L|384:263,1,90,4|0,0:0|0:0,0:0:0:0:
292,229,2175,2,0,L|277:342,1,90,4|0,0:0|0:0,0:0:0:0:
363,347,2443,1,4,0:0:0:0:
468,183,2621,1,4,0:3:0:0:
332,79,2800,1,2,0:0:0:0:
334,96,2889,1,2,0:0:0:0:
336,113,2978,1,12,0:3:0:0:
421,89,3157,1,2,0:0:0:0:
247,117,3336,6,0,P|173:116|130:94,1,110.700001689148,6|2,0:0|0:0,0:0:0:0:
77,38,3603,1,8,0:0:0:0:
41,113,3693,2,0,L|48:229,1,110.700001689148,0|8,0:0|0:0,0:0:0:0:
215,243,4050,1,2,0:0:0:0:
99,384,4228,1,0,0:0:0:0:
96,369,4288,1,8,0:0:0:0:
95,354,4348,1,0,0:0:0:0:
97,339,4407,2,0,P|108:276|133:231,1,110.700001689148,0|8,0:0|0:0,0:0:0:0:
373,149,4764,6,0,B|324:187|324:187|214:168,1,166.050002533722,2|8,0:0|0:0,0:0:0:0:
141,155,5121,1,0,0:0:0:0:
279,73,5300,2,0,L|213:61,1,55.350000844574,8|0,0:0|0:0,0:0:0:0:
339,33,5478,2,0,P|428:31|453:17,1,110.700001689148,2|0,0:0|0:0,0:0:0:0:
504,74,5746,1,8,0:0:0:0:
438,120,5836,2,0,L|448:171,3,36.9000005630493,0|0|0|8,0:0|0:0|0:0|0:0,0:0:0:0:
238,189,6193,6,0,P|315:185|389:241,1,166.050002533722,2|8,0:0|0:0,0:0:0:0:
413,303,6550,1,0,0:0:0:0:
179,288,6728,2,0,L|244:278,1,55.350000844574,8|0,0:0|0:0,0:0:0:0:
115,340,6907,2,0,P|84:289|81:227,1,110.700001689148,2|0,0:0|0:0,0:0:0:0:
106,169,7175,1,8,0:0:0:0:
178,205,7264,2,0,P|197:170|203:143,1,55.350000844574
137,104,7443,2,0,P|122:80|113:54,1,55.350000844574,8|0,0:0|0:0,0:0:0:0:
256,15,7621,6,0,B|267:130|267:130|301:93,1,166.050002533722,2|8,0:0|0:0,0:0:0:0:
340,31,7978,1,0,0:0:0:0:
487,148,8157,1,8,0:0:0:0:
426,55,8336,2,0,P|401:109|410:172,1,110.700001689148,2|0,0:0|0:0,0:0:0:0:
454,219,8603,1,8,0:0:0:0:
394,263,8693,2,0,L|332:256,1,55.350000844574
220,208,8871,2,0,L|282:201,1,55.350000844574,8|0,0:0|0:0,0:0:0:0:
189,285,9050,6,0,P|125:295|34:241,1,166.050002533722,6|8,0:0|0:0,0:0:0:0:
22,181,9407,1,0,0:0:0:0:
141,26,9586,1,8,0:0:0:0:
149,52,9675,1,0,0:0:0:0:
157,78,9764,2,0,L|138:195,1,110.700001689148,2|0,0:0|0:0,0:0:0:0:
220,208,10032,1,8,0:0:0:0:
280,157,10121,2,0,P|284:125|280:87,1,55.350000844574
295,233,10300,2,0,P|293:260|297:287,1,55.350000844574,8|0,0:0|0:0,0:0:0:0:
457,177,10478,6,0,P|385:169|342:187,1,110.700001689148,2|0,0:0|0:0,0:0:0:0:
409,240,10746,1,8,0:0:0:0:
491,246,10836,2,0,L|514:127,1,110.700001689148,0|8,0:0|0:0,0:0:0:0:
476,71,11103,1,0,0:0:0:0:
402,94,11193,2,0,P|370:87|344:75,1,55.350000844574,2|0,0:0|0:0,0:0:0:0:
238,144,11371,2,0,P|263:133|290:128,1,55.350000844574,0|8,0:0|0:0,0:0:0:0:
352,178,11550,1,0,0:0:0:0:
350,192,11609,1,0,0:0:0:0:
348,206,11669,1,0,0:0:0:0:
346,221,11728,1,8,0:0:0:0:
131,175,11907,6,0,L|111:61,1,110.700001689148,6|0,0:0|0:0,0:0:0:0:
139,252,12175,1,8,0:0:0:0:
215,228,12264,2,0,L|235:114,1,110.700001689148,6|8,0:0|0:0,0:0:0:0:
249,298,12532,1,0,0:0:0:0:
326,296,12621,2,0,L|306:182,1,110.700001689148,6|0,0:0|0:0,0:0:0:0:
358,126,12889,1,8,0:0:0:0:
428,169,12978,2,0,L|464:159,3,36.9000005630493,6|0|0|8,0:0|0:0|0:0|0:0,0:0:0:0:
399,317,13336,6,0,P|295:291|235:325,1,166.050002533722,6|8,0:0|0:0,0:0:0:0:
195,369,13693,1,0,0:0:0:0:
83,286,13871,2,0,L|74:229,1,55.350000844574,8|8,0:0|0:0,0:0:0:0:
61,155,14050,1,2,0:0:0:0:
61,155,14139,1,0,0:0:0:0:
163,83,14318,1,8,0:0:0:0:
152,114,14407,1,8,0:0:0:0:
150,147,14496,1,8,0:0:0:0:
160,178,14586,1,0,0:0:0:0:
181,203,14675,1,0,0:0:0:0:
210,217,14764,6,0,L|328:207,1,110.700001689148,6|0,0:0|0:0,0:0:0:0:
387,200,15032,1,0,0:0:0:0:
419,195,15121,1,2,0:0:0:0:
288,297,15300,1,8,0:0:0:0:
320,292,15389,1,8,0:0:0:0:
352,287,15478,1,10,0:0:0:0:
195,228,15657,1,8,0:0:0:0:
111,303,15836,1,10,0:0:0:0:
96,301,15895,1,0,0:0:0:0:
81,299,15955,1,0,0:0:0:0:
66,297,16014,1,0,0:0:0:0:
198,376,16193,5,4,0:0:0:0:
51,128,21907,6,0,L|149:117,1,90,4|0,0:0|0:0,0:0:0:0:
354,173,22264,2,0,L|256:162,1,90,2|0,0:0|0:0,0:0:0:0:
91,235,22621,2,0,P|166:231|228:257,2,135,2|0|0,0:0|0:0|0:0,0:0:0:0:
237,346,23336,6,0,B|365:328|365:328|315:307,1,180,2|0,0:0|0:0,0:0:0:0:
307,82,23871,1,2,0:0:0:0:
299,103,23961,1,0,0:0:0:0:
297,125,24050,2,0,P|298:183|313:228,1,90,2|0,0:0|0:0,0:0:0:0:
497,142,24407,1,8,0:0:0:0:
497,142,24764,6,4,L|446:137,1,45
384,215,24943,2,0,L|333:210,1,45
260,141,25122,1,0,0:0:0:0:
228,137,25211,1,0,0:0:0:0:
196,133,25300,2,0,L|135:126,1,45,4|0,0:0|0:0,0:0:0:0:
82,193,25478,2,0,L|31:188,1,45
157,256,25657,2,0,L|208:251,1,45
301,198,25836,6,0,P|312:147|302:97,2,90,4|0|0,0:0|0:0|0:0,0:0:0:0:
409,252,26371,2,0,P|403:296|414:339,2,90,4|0|0,0:0|0:0|0:0,0:0:0:0:
439,86,26907,1,8,0:0:0:0:
451,112,26996,1,8,0:0:0:0:
453,140,27086,1,8,0:0:0:0:
357,138,27264,1,8,0:0:0:0:
311,52,27443,6,0,P|390:47|452:158,1,202.500007724762,4|0,0:0|0:0,0:0:0:0:
156,174,28336,5,8,0:0:0:0:
126,168,28425,1,8,0:0:0:0:
246,93,28603,1,8,0:0:0:0:
294,206,28782,1,8,0:0:0:0:
288,236,28871,1,8,0:0:0:0:
413,187,29050,6,0,P|416:131|403:88,1,99.0000030212403,4|8,0:0|0:0,0:0:0:0:
382,58,29318,1,0,0:0:0:0:
382,58,29407,1,0,0:0:0:0:
282,141,29586,1,8,0:0:0:0:
315,265,29764,2,0,P|364:302|411:311,1,99.0000030212403,0|8,0:0|0:0,0:0:0:0:
435,313,30032,1,0,0:0:0:0:
435,313,30121,1,0,0:0:0:0:
238,218,30300,2,0,P|202:215|167:216,1,49.5000015106202,8|0,0:0|0:0,0:0:0:0:
82,153,30478,6,0,P|135:150|181:131,1,99.0000030212403,0|8,0:0|0:0,0:0:0:0:
209,108,30746,1,0,0:0:0:0:
209,108,30836,1,0,0:0:0:0:
43,58,31014,1,8,0:0:0:0:
26,235,31193,1,0,0:0:0:0:
116,128,31371,1,8,0:0:0:0:
99,305,31550,1,0,0:0:0:0:
193,200,31728,1,8,0:0:0:0:
176,377,31907,6,0,P|235:372|283:353,1,99.0000030212403,0|8,0:0|0:0,0:0:0:0:
320,313,32175,2,0,L|333:207,1,99.0000030212403
384,167,32443,1,8,0:0:0:0:
445,272,32621,1,0,0:0:0:0:
244,237,32800,1,8,0:0:0:0:
224,233,32889,1,0,0:0:0:0:
204,230,32978,2,0,L|187:128,1,99.0000030212403,0|8,0:0|0:0,0:0:0:0:
424,25,33336,6,0,P|441:87|429:145,1,99.0000030212403,0|8,0:0|0:0,0:0:0:0:
420,156,33603,1,0,0:0:0:0:
420,156,33693,1,0,0:0:0:0:
308,90,33871,1,8,0:0:0:0:
187,132,34050,2,0,L|126:127,1,49.5000015106202,4|0,0:0|0:0,0:0:0:0:
0,182,34228,2,0,L|61:177,1,49.5000015106202,12|0,0:0|0:0,0:0:0:0:
272,214,34407,2,0,L|211:209,1,49.5000015106202,4|0,0:0|0:0,0:0:0:0:
85,264,34586,2,0,L|146:259,1,49.5000015106202,12|0,0:0|0:0,0:0:0:0:
267,133,34764,5,4,0:0:0:0:
128,39,34943,1,8,0:0:0:0:
116,66,35032,1,8,0:0:0:0:
110,95,35121,1,8,0:0:0:0:
107,124,35211,1,0,0:0:0:0:
108,153,35300,1,0,0:0:0:0:
113,181,35389,1,0,0:0:0:0:
122,208,35478,2,0,L|187:203,1,49.5000015106202,12|0,0:0|0:0,0:0:0:0:
315,268,35657,2,0,L|250:263,1,49.5000015106202,12|0,0:0|0:0,0:0:0:0:
180,339,35836,1,0,0:0:0:0:
419,227,36193,6,0,P|435:168|429:121,1,99.0000030212403,4|8,0:0|0:0,0:0:0:0:
419,97,36461,1,0,0:0:0:0:
290,42,36639,1,0,0:0:0:0:
284,71,36728,1,8,0:0:0:0:
161,145,36907,2,0,P|143:119|132:95,1,49.5000015106202,4|0,0:0|0:0,0:0:0:0:
208,227,37086,2,0,P|196:248|182:269,1,49.5000015106202,8|0,0:0|0:0,0:0:0:0:
260,148,37264,1,8,0:0:0:0:
288,141,37353,1,8,0:0:0:0:
317,144,37443,1,8,0:0:0:0:
344,154,37532,1,8,0:0:0:0:
367,172,37621,5,4,0:0:0:0:
71,243,37978,1,4,0:0:0:0:
467,293,38336,1,4,0:0:0:0:
312,221,38514,1,0,0:0:0:0:
468,176,38693,1,4,0:0:0:0:
114,128,39050,6,0,P|174:128|227:108,1,99.0000030212403,4|0,0:0|0:0,0:0:0:0:
239,93,39318,1,8,0:0:0:0:
239,93,39407,1,0,0:0:0:0:
28,61,39586,1,8,0:0:0:0:
36,197,39764,2,0,L|54:355,1,148.50000453186,0|8,0:0|0:0,0:0:0:0:
57,378,40121,1,0,0:0:0:0:
166,261,40300,2,0,P|175:239|183:207,1,49.5000015106202,8|0,0:0|0:0,0:0:0:0:
257,268,40478,6,0,P|261:330|278:370,1,99.0000030212403,4|8,0:0|0:0,0:0:0:0:
189,154,40836,2,0,P|133:127|90:122,1,99.0000030212403,0|8,0:0|0:0,0:0:0:0:
321,153,41193,2,0,P|373:118|399:83,1,99.0000030212403,0|8,0:0|0:0,0:0:0:0:
438,25,41461,1,8,0:0:0:0:
429,53,41550,1,8,0:0:0:0:
427,82,41639,1,0,0:0:0:0:
428,111,41728,1,0,0:0:0:0:
433,140,41818,1,0,0:0:0:0:
442,168,41907,5,4,0:0:0:0:
289,100,42086,1,2,0:0:0:0:
273,84,42175,1,8,0:0:0:0:
253,74,42264,2,0,P|184:54|141:54,1,107.999996704102,0|10,0:0|0:0,0:0:0:0:
34,182,42621,2,0,P|98:178|146:160,1,107.999996704102,0|2,0:0|0:0,0:0:0:0:
169,145,42889,1,8,0:0:0:0:
169,145,42978,1,0,0:0:0:0:
291,200,43157,1,10,0:0:0:0:
173,266,43336,6,0,L|179:327,1,53.9999983520508
291,200,43514,2,0,L|285:261,1,53.9999983520508,2|8,0:0|0:0,0:0:0:0:
163,91,43693,2,0,L|169:152,1,53.9999983520508
281,25,43871,2,0,L|275:86,1,53.9999983520508,10|0,0:0|0:0,0:0:0:0:
355,138,44050,2,0,P|426:135|462:120,1,107.999996704102,0|2,0:0|0:0,0:0:0:0:
490,185,44318,1,8,0:0:0:0:
444,234,44407,1,0,0:0:0:0:
423,226,44496,1,0,0:0:0:0:
401,225,44586,1,10,0:0:0:0:
379,228,44675,1,0,0:0:0:0:
359,237,44764,6,0,L|331:349,1,107.999996704102,4|2,0:0|0:0,0:0:0:0:
328,375,45032,1,8,0:0:0:0:
328,375,45121,1,0,0:0:0:0:
426,321,45300,1,10,0:0:0:0:
258,267,45478,2,0,P|189:262|100:305,1,161.999995056153,0|8,0:0|0:0,0:0:0:0:
84,327,45836,1,0,0:0:0:0:
0,230,46014,1,10,0:0:0:0:
144,150,46193,6,0,L|135:219,1,53.9999983520508
64,138,46371,2,0,L|-5:129,1,53.9999983520508,2|8,0:0|0:0,0:0:0:0:
76,62,46550,2,0,L|85:-7,1,53.9999983520508
159,72,46728,1,10,0:0:0:0:
187,87,46818,1,0,0:0:0:0:
219,91,46907,1,0,0:0:0:0:
251,86,46996,1,0,0:0:0:0:
280,71,47086,1,2,0:0:0:0:
303,48,47175,1,8,0:0:0:0:
347,107,47264,1,0,0:0:0:0:
337,137,47353,1,0,0:0:0:0:
334,169,47443,1,10,0:0:0:0:
337,201,47532,1,8,0:0:0:0:
348,231,47621,6,0,L|458:224,1,107.999996704102,4|2,0:0|0:0,0:0:0:0:
492,224,47889,1,8,0:0:0:0:
492,224,47978,1,0,0:0:0:0:
372,334,48157,1,10,0:0:0:0:
227,260,48336,2,0,P|208:196|215:149,1,107.999996704102,0|2,0:0|0:0,0:0:0:0:
233,124,48603,1,8,0:0:0:0:
233,124,48693,1,0,0:0:0:0:
320,195,48871,1,10,0:0:0:0:
121,213,49050,6,0,L|63:203,1,53.9999983520508
227,260,49228,2,0,L|285:250,1,53.9999983520508,2|8,0:0|0:0,0:0:0:0:
134,317,49407,2,0,L|76:307,1,53.9999983520508
225,344,49586,1,10,0:0:0:0:
261,346,49675,1,0,0:0:0:0:
293,364,49764,1,0,0:0:0:0:
322,340,49853,1,0,0:0:0:0:
359,331,49943,1,2,0:0:0:0:
396,334,50032,1,8,0:0:0:0:
465,280,50121,1,0,0:0:0:0:
427,277,50211,1,0,0:0:0:0:
391,265,50300,1,10,0:0:0:0:
360,243,50389,1,0,0:0:0:0:
338,211,50478,6,0,P|324:155|333:107,1,107.999996704102,4|2,0:0|0:0,0:0:0:0:
355,76,50746,1,8,0:0:0:0:
355,76,50836,1,0,0:0:0:0:
451,150,51014,1,10,0:0:0:0:
245,205,51193,2,0,P|177:205|83:155,1,161.999995056153,0|8,0:0|0:0,0:0:0:0:
68,139,51550,1,0,0:0:0:0:
236,108,51728,1,10,0:0:0:0:
251,284,51907,6,0,L|258:343,1,53.9999983520508,4|0,0:0|0:0,0:0:0:0:
338,303,52086,2,0,L|397:296,1,53.9999983520508,0|2,0:0|0:0,0:0:0:0:
352,217,52264,2,0,L|345:158,1,53.9999983520508,2|0,0:0|0:0,0:0:0:0:
412,103,52443,1,0,0:0:0:0:
383,127,52532,1,2,0:0:0:0:
347,139,52621,1,10,0:0:0:0:
308,136,52711,1,8,0:0:0:0:
273,119,52800,1,10,0:0:0:0:
250,89,52889,1,8,0:0:0:0:
218,69,52978,1,10,0:0:0:0:
180,65,53068,1,0,0:0:0:0:
143,73,53157,1,2,0:0:0:0:
117,100,53246,1,2,0:0:0:0:
103,135,53336,6,0,L|111:256,1,107.999996704102,12|0,0:0|0:0,0:0:0:0:
345,25,53693,2,0,L|337:146,1,107.999996704102,12|0,0:0|0:0,0:0:0:0:
238,232,54050,2,0,L|246:353,1,107.999996704102,12|0,0:0|0:0,0:0:0:0:
480,122,54407,2,0,L|472:243,1,107.999996704102,12|0,0:0|0:0,0:0:0:0:
197,110,54764,6,0,P|173:54|239:84,1,161.999995056153,12|0,0:0|0:0,0:0:0:0:
209,179,55121,2,0,P|172:227|165:155,1,161.999995056153,12|0,0:0|0:0,0:0:0:0:
261,133,55478,2,0,P|321:140|262:182,1,161.999995056153,12|0,0:0|0:0,0:0:0:0:
197,110,55836,1,12,0:0:0:0:
326,50,56014,1,8,0:0:0:0:
425,144,56193,6,0,L|411:267,1,107.999996704102,12|0,0:0|0:0,0:0:0:0:
327,233,56461,2,0,L|341:356,1,107.999996704102,12|0,0:0|0:0,0:0:0:0:
246,307,56728,1,12,0:0:0:0:
306,139,56907,2,0,P|230:123|178:181,1,161.999995056153,12|0,0:0|0:0,0:0:0:0:
254,197,57264,1,8,0:0:0:0:
254,197,57621,6,0,L|387:185,1,110.700001689148,6|0,0:0|0:0,0:0:0:0:
428,142,57889,1,8,0:0:0:0:
353,112,57978,2,0,P|345:46|363:4,1,110.700001689148,0|8,0:0|0:0,0:0:0:0:
450,20,58246,1,0,0:0:0:0:
458,34,58336,2,0,L|467:98,1,55.350000844574,2|0,0:0|0:0,0:0:0:0:
426,180,58514,1,0,0:0:0:0:
425,194,58574,1,8,0:0:0:0:
425,208,58633,1,0,0:0:0:0:
425,222,58693,1,0,0:0:0:0:
323,188,58871,1,8,0:0:0:0:
244,261,59050,6,0,L|302:272,1,55.350000844574,2|0,0:0|0:0,0:0:0:0:
184,195,59228,2,0,L|126:206,1,55.350000844574,0|8,0:0|0:0,0:0:0:0:
56,174,59407,2,0,P|46:109|61:58,1,110.700001689148,0|8,0:0|0:0,0:0:0:0:
182,25,59764,1,2,0:0:0:0:
291,101,59943,1,0,0:0:0:0:
160,136,60121,1,0,0:0:0:0:
161,150,60181,1,0,0:0:0:0:
162,164,60240,1,0,0:0:0:0:
163,178,60300,1,8,0:0:0:0:
254,207,60478,6,0,P|178:202|106:259,1,166.050002533722,2|8,0:0|0:0,0:0:0:0:
79,316,60836,2,0,L|77:377,1,55.350000844574
33,252,61014,2,0,L|31:196,1,55.350000844574,8|0,0:0|0:0,0:0:0:0:
66,133,61193,2,0,P|134:123|174:101,1,110.700001689148,2|0,0:0|0:0,0:0:0:0:
198,76,61461,1,8,0:0:0:0:
198,76,61550,1,0,0:0:0:0:
113,17,61728,1,8,0:0:0:0:
295,41,61907,5,2,0:0:0:0:
278,75,61996,1,0,0:0:0:0:
274,113,62086,1,0,0:0:0:0:
282,150,62175,1,8,0:0:0:0:
301,183,62264,2,0,L|354:177,2,36.9000005630493,2|2|0,0:0|0:0|0:0,0:0:0:0:
244,221,62443,2,0,L|177:214,1,55.350000844574,8|0,0:0|0:0,0:0:0:0:
298,268,62621,2,0,P|364:266|428:289,1,110.700001689148,2|0,0:0|0:0,0:0:0:0:
436,298,62889,1,8,0:0:0:0:
436,298,62978,1,0,0:0:0:0:
243,344,63157,1,8,0:0:0:0:
122,253,63336,5,4,0:0:0:0:
104,218,63425,1,0,0:0:0:0:
96,180,63514,1,0,0:0:0:0:
98,141,63603,1,8,0:0:0:0:
163,166,63693,5,2,0:0:0:0:
171,127,63782,1,0,0:0:0:0:
190,93,63871,1,8,0:0:0:0:
216,64,63960,1,0,0:0:0:0:
254,123,64050,5,2,0:0:0:0:
285,98,64139,1,0,0:0:0:0:
321,84,64228,1,0,0:0:0:0:
360,78,64317,1,8,0:0:0:0:
350,146,64407,5,2,0:0:0:0:
389,147,64496,1,0,0:0:0:0:
426,159,64585,1,8,0:0:0:0:
459,180,64674,1,0,0:0:0:0:
405,227,64764,5,2,0:0:0:0:
385,260,64853,1,0,0:0:0:0:
387,298,64943,1,0,0:0:0:0:
413,326,65032,1,8,0:0:0:0:
450,334,65121,1,2,0:0:0:0:
486,319,65211,1,0,0:0:0:0:
507,286,65300,1,8,0:0:0:0:
503,247,65389,1,0,0:0:0:0:
474,221,65478,2,0,P|416:213|378:193,1,73.8000011260987,2|0,0:0|0:0,0:0:0:0:
335,153,65657,2,0,P|393:145|431:125,1,73.8000011260987,2|0,0:0|0:0,0:0:0:0:
334,221,65836,2,0,P|276:213|238:193,1,73.8000011260987,2|0,0:0|0:0,0:0:0:0:
195,153,66014,2,0,P|253:145|291:125,1,73.8000011260987,10|0,0:0|0:0,0:0:0:0:
246,67,66193,5,2,0:0:0:0:
209,53,66282,1,0,0:0:0:0:
170,53,66371,1,0,0:0:0:0:
134,68,66461,1,8,0:0:0:0:
107,96,66550,2,0,P|96:132|96:162,1,55.350000844574,2|0,0:0|0:0,0:0:0:0:
212,189,66728,5,10,0:0:0:0:
251,188,66818,1,0,0:0:0:0:
287,176,66907,1,0,0:0:0:0:
317,152,66996,1,0,0:0:0:0:
339,120,67086,2,0,P|354:88|360:62,1,55.350000844574,2|8,0:0|0:0,0:0:0:0:
422,151,67264,6,0,P|429:177|441:202,1,55.350000844574,2|0,0:0|0:0,0:0:0:0:
366,228,67443,1,10,0:0:0:0:
364,246,67502,1,0,0:0:0:0:
362,264,67562,1,0,0:0:0:0:
360,282,67621,1,4,0:0:0:0:
256,192,67711,12,0,68961,0:0:0:0:
162,230,69050,6,0,P|88:235|33:194,1,133.200003251953,4|0,0:0|0:0,0:0:0:0:
178,137,69407,1,10,0:0:0:0:
256,197,69526,2,0,L|270:280,1,66.6000016259766
353,172,69764,2,0,L|375:40,1,133.200003251953,14|0,0:0|0:0,0:0:0:0:
449,108,70121,1,10,0:0:0:0:
282,123,70240,2,0,P|242:120|201:106,1,66.6000016259766
71,164,70478,6,0,P|144:161|198:187,2,133.200003251953,10|0|0,0:0|0:0|0:0,0:0:0:0:
266,281,71193,2,0,P|325:276|389:234,1,133.200003251953,14|0,0:0|0:0,0:0:0:0:
309,173,71550,1,10,0:0:0:0:
408,137,71669,2,0,L|417:60,1,66.6000016259766
309,173,71907,6,0,L|319:312,1,133.200003251953,14|0,0:0|0:0,0:0:0:0:
236,356,72264,1,10,0:0:0:0:
164,268,72383,2,0,P|220:261|251:269,1,66.6000016259766
92,315,72621,2,0,P|46:278|19:201,1,133.200003251953,14|0,0:0|0:0,0:0:0:0:
35,112,72978,1,10,0:0:0:0:
124,147,73098,2,0,P|118:192|101:232,1,66.6000016259766
191,83,73336,6,0,L|273:74,1,66.6000016259766,2|8,0:0|0:0,0:0:0:0:
392,160,73574,2,0,L|310:151,1,66.6000016259766,2|8,0:0|0:0,0:0:0:0:
212,244,73812,2,0,L|294:235,1,66.6000016259766,2|8,0:0|0:0,0:0:0:0:
413,321,74050,2,0,L|331:312,1,66.6000016259766,2|8,0:0|0:0,0:0:0:0:
310,310,74228,1,8,0:0:0:0:
310,310,74288,1,0,0:0:0:0:
363,233,74407,1,8,0:0:0:0:
311,165,74526,2,0,P|304:108|310:80,1,66.6000016259766,2|8,0:0|0:0,0:0:0:0:
393,8,74764,6,0,P|393:51|384:105,1,81.0000003089905,12|8,0:0|0:0,0:0:0:0:
311,165,75002,2,0,P|273:187|222:205,1,81.0000003089905,0|8,0:0|0:0,0:0:0:0:
130,193,75240,2,0,P|91:172|50:136,1,81.0000003089905,0|8,0:0|0:0,0:0:0:0:
178,33,75478,6,0,L|191:116,1,81.0000003089905,2|8,0:0|0:0,0:0:0:0:
311,165,75717,2,0,L|298:248,1,81.0000003089905,0|8,0:0|0:0,0:0:0:0:
191,288,75955,2,0,L|204:371,1,81.0000003089905,0|8,0:0|0:0,0:0:0:0:
349,327,76193,6,0,P|387:316|430:291,1,81.0000003089905,2|8,0:0|0:0,0:0:0:0:
226,242,76431,2,0,P|188:231|145:206,1,81.0000003089905,0|8,0:0|0:0,0:0:0:0:
358,203,76669,2,0,P|396:192|439:167,1,81.0000003089905,0|8,0:0|0:0,0:0:0:0:
351,33,76907,6,0,L|336:114,1,81.0000003089905,2|8,0:0|0:0,0:0:0:0:
226,242,77145,2,0,L|211:162,1,81.0000003089905,0|8,0:0|0:0,0:0:0:0:
91,37,77383,2,0,L|76:118,1,81.0000003089905,0|8,0:0|0:0,0:0:0:0:
138,269,77621,6,0,P|241:268|299:310,1,162.000000617981,6|8,0:0|0:0,0:0:0:0:
391,265,77978,1,0,0:0:0:0:
309,205,78098,2,0,P|303:162|310:119,1,81.0000003089905,0|8,0:0|0:0,0:0:0:0:
372,64,78336,1,2,0:0:0:0:
444,118,78455,1,8,0:0:0:0:
444,118,78514,1,8,0:0:0:0:
444,118,78603,2,0,L|453:210,1,81.0000003089905,0|8,0:0|0:0,0:0:0:0:
383,345,78812,2,0,L|390:264,1,81.0000003089905,0|8,0:0|0:0,0:0:0:0:
249,112,79050,5,6,0:0:0:0:
276,261,79169,1,8,0:0:0:0:
336,170,79288,1,0,0:0:0:0:
186,198,79407,1,8,0:0:0:0:
336,170,79526,2,0,P|380:155|414:138,1,81.0000003089905,0|8,0:0|0:0,0:0:0:0:
161,120,79764,6,8,P|134:109|104:92,2,60.7500002317429
237,75,80032,2,8,P|264:64|294:47,2,60.7500002317429
233,157,80300,2,8,L|236:224,1,60.7500002317429,8|0,0:0|0:0,0:0:0:0:
309,252,80478,6,0,P|250:248|184:280,1,121.500000463486,4|8,0:0|0:0,0:0:0:0:
168,298,80746,1,0,0:0:0:0:
168,298,80836,1,0,0:0:0:0:
61,236,81014,1,8,0:0:0:0:
134,48,81193,2,0,L|148:175,1,121.500000463486,0|8,0:0|0:0,0:0:0:0:
153,204,81461,1,0,0:0:0:0:
153,204,81550,1,0,0:0:0:0:
59,122,81728,1,8,0:0:0:0:
221,96,81907,6,0,L|291:106,1,60.7500002317429
403,155,82086,2,0,L|333:165,1,60.7500002317429,8|0,0:0|0:0,0:0:0:0:
224,213,82264,2,0,L|294:223,1,60.7500002317429
356,274,82443,1,8,0:0:0:0:
226,324,82621,2,0,P|155:315|100:290,1,121.500000463486,0|8,0:0|0:0,0:0:0:0:
85,271,82889,1,0,0:0:0:0:
85,271,82978,1,0,0:0:0:0:
172,194,83157,6,0,P|177:151|176:122,1,60.7500002317429,8|0,0:0|0:0,0:0:0:0:
162,69,83336,1,0,0:0:0:0:
34,136,83514,1,8,0:0:0:0:
59,152,83603,1,2,0:0:0:0:
88,159,83693,1,2,0:0:0:0:
356,81,83871,2,0,P|313:76|284:77,1,60.7500002317429,8|0,0:0|0:0,0:0:0:0:
231,91,84050,1,0,0:0:0:0:
298,219,84228,1,8,0:0:0:0:
314,194,84317,1,2,0:0:0:0:
321,165,84407,1,2,0:0:0:0:
180,252,84586,2,0,L|189:320,1,60.7500002317429,8|0,0:0|0:0,0:0:0:0:
269,359,84764,6,0,P|346:355|398:326,1,121.500000463486,0|8,0:0|0:0,0:0:0:0:
412,311,85032,1,0,0:0:0:0:
412,311,85121,1,0,0:0:0:0:
284,226,85300,1,8,0:0:0:0:
393,139,85478,2,0,P|402:174|398:212,1,60.7500002317429,4|0,0:0|0:0,0:0:0:0:
266,105,85657,2,0,P|265:74|274:45,1,60.7500002317429,12|0,0:0|0:0,0:0:0:0:
284,226,85836,2,0,P|284:256|275:285,1,60.7500002317429,4|0,0:0|0:0,0:0:0:0:
157,192,86015,2,0,P|148:162|148:132,1,60.7500002317429,12|0,0:0|0:0,0:0:0:0:
150,316,86193,1,4,0:0:0:0:
54,245,86371,5,8,0:0:0:0:
31,215,86461,1,8,0:0:0:0:
17,181,86550,1,0,0:0:0:0:
16,144,86639,1,0,0:0:0:0:
24,108,86728,1,0,0:0:0:0:
45,77,86818,1,0,0:0:0:0:
72,53,86907,2,0,L|146:59,1,60.7500002317429,12|0,0:0|0:0,0:0:0:0:
276,105,87086,2,0,L|202:111,1,60.7500002317429,12|0,0:0|0:0,0:0:0:0:
131,152,87264,1,0,0:0:0:0:
256,228,87443,1,0,0:0:0:0:
401,168,87621,6,0,P|422:104|396:56,1,121.500000463486,14|0,0:0|0:0,0:0:0:0:
237,88,87889,2,0,B|290:120|290:120|359:115,1,121.500000463486,14|0,0:0|0:0,0:0:0:0:
313,40,88157,1,14,0:0:0:0:
211,165,88336,1,8,0:0:0:0:
214,201,88425,1,8,0:0:0:0:
218,237,88514,1,0,0:0:0:0:
222,273,88603,1,0,0:0:0:0:
226,309,88693,1,0,0:0:0:0:
127,276,88871,1,8,0:0:0:0:
314,185,89050,5,12,0:0:0:0:
11,116,89407,1,12,0:0:0:0:
446,210,89764,1,12,0:0:0:0:
25,297,90121,1,12,0:0:0:0:
446,210,90478,6,0,P|460:148|452:112,1,99.0000030212403,4|0,0:0|0:0,0:0:0:0:
445,89,90746,1,8,0:0:0:0:
445,89,90836,1,0,0:0:0:0:
323,36,91014,1,8,0:0:0:0:
250,118,91193,2,0,L|261:268,1,148.50000453186,0|8,0:0|0:0,0:0:0:0:
250,289,91550,1,0,0:0:0:0:
140,218,91728,1,8,0:0:0:0:
342,193,91907,6,0,P|393:193|439:208,1,99.0000030212403,4|8,0:0|0:0,0:0:0:0:
462,226,92175,1,0,0:0:0:0:
462,226,92264,1,0,0:0:0:0:
311,305,92443,1,8,0:0:0:0:
221,233,92621,1,8,0:0:0:0:
214,206,92711,1,8,0:0:0:0:
207,179,92800,1,8,0:0:0:0:
199,153,92889,1,8,0:0:0:0:
241,155,92978,1,8,0:0:0:0:
248,128,93068,1,0,0:0:0:0:
255,101,93157,1,0,0:0:0:0:
263,75,93246,1,8,0:0:0:0:
295,99,93336,1,0,0:0:0:0:
164,248,94050,6,0,P|66:246|43:230,1,107.999996704102,4|2,0:0|0:0,0:0:0:0:
7,192,94317,1,8,0:0:0:0:
70,151,94407,2,0,L|86:38,1,107.999996704102,0|10,0:0|0:0,0:0:0:0:
196,151,94764,2,0,L|212:332,1,161.999995056153,0|8,0:0|0:0,0:0:0:0:
235,336,95121,1,0,0:0:0:0:
366,267,95300,1,10,0:0:0:0:
280,153,95478,6,0,P|274:116|274:90,1,53.9999983520508
429,147,95657,2,0,P|392:153|366:153,1,53.9999983520508,2|8,0:0|0:0,0:0:0:0:
392,60,95835,2,0,L|396:4,1,53.9999983520508
501,121,96014,2,0,L|505:177,1,53.9999983520508,10|0,0:0|0:0,0:0:0:0:
452,252,96192,1,2,0:0:0:0:
417,278,96282,1,2,0:0:0:0:
373,279,96371,1,2,0:0:0:0:
333,261,96460,1,8,0:0:0:0:
312,222,96550,1,2,0:0:0:0:
275,198,96639,1,2,0:0:0:0:
232,194,96728,1,10,0:0:0:0:
191,208,96817,1,0,0:0:0:0:
167,244,96907,6,0,L|179:361,1,107.999996704102,12|2,0:0|0:0,0:0:0:0:
185,384,97175,1,8,0:0:0:0:
185,384,97264,1,0,0:0:0:0:
265,298,97442,1,10,0:0:0:0:
85,281,97621,2,0,P|67:221|76:166,1,107.999996704102,0|2,0:0|0:0,0:0:0:0:
121,129,97889,1,8,0:0:0:0:
180,171,97978,2,0,P|211:168|246:152,1,53.9999983520508
301,117,98157,2,0,P|327:119|353:127,1,53.9999983520508,10|0,0:0|0:0,0:0:0:0:
414,179,98335,6,0,L|424:307,1,107.999996704102,0|2,0:0|0:0,0:0:0:0:
428,324,98603,1,8,0:0:0:0:
428,324,98692,1,0,0:0:0:0:
509,219,98871,1,10,0:0:0:0:
411,93,99050,1,2,0:0:0:0:
370,79,99139,1,2,0:0:0:0:
327,83,99228,1,2,0:0:0:0:
292,108,99317,1,8,0:0:0:0:
240,67,99407,1,2,0:0:0:0:
199,81,99496,1,2,0:0:0:0:
156,77,99585,1,10,0:0:0:0:
121,52,99674,1,0,0:0:0:0:
77,101,99764,6,0,B|67:159|67:159|86:200|86:200|74:274,1,161.999995056153,12|8,0:0|0:0,0:0:0:0:
69,293,100121,1,0,0:0:0:0:
0,212,100300,1,10,0:0:0:0:
150,150,100478,2,0,P|218:152|269:175,1,107.999996704102,0|2,0:0|0:0,0:0:0:0:
282,193,100746,1,8,0:0:0:0:
282,193,100835,1,0,0:0:0:0:
379,110,101014,1,10,0:0:0:0:
451,209,101192,6,0,L|463:332,1,107.999996704102,0|2,0:0|0:0,0:0:0:0:
412,363,101460,1,8,0:0:0:0:
354,319,101550,2,0,P|296:330|241:312,1,107.999996704102,0|10,0:0|0:0,0:0:0:0:
286,83,101907,1,2,0:0:0:0:
294,125,101996,1,2,0:0:0:0:
302,167,102085,1,2,0:0:0:0:
310,209,102175,1,8,0:0:0:0:
243,200,102264,1,2,0:0:0:0:
207,224,102353,1,2,0:0:0:0:
166,237,102442,1,10,0:0:0:0:
122,237,102532,1,0,0:0:0:0:
81,222,102621,1,12,0:0:0:0:
153,114,102800,5,2,0:0:0:0:
153,114,102889,1,8,0:0:0:0:
153,114,102978,1,0,0:0:0:0:
18,103,103157,1,10,0:0:0:0:
81,222,103335,2,0,P|166:238|234:208,1,161.999995056153,0|8,0:0|0:0,0:0:0:0:
259,178,103692,1,0,0:0:0:0:
345,263,103871,1,10,0:0:0:0:
445,192,104050,6,0,L|463:83,1,107.999996704102,0|2,0:0|0:0,0:0:0:0:
470,49,104317,1,8,0:0:0:0:
470,49,104407,1,0,0:0:0:0:
351,115,104585,1,10,0:0:0:0:
261,28,104764,1,8,0:0:0:0:
225,52,104853,1,8,0:0:0:0:
182,60,104942,1,8,0:0:0:0:
138,56,105032,1,8,0:0:0:0:
99,36,105121,1,8,0:0:0:0:
111,77,105210,1,0,0:0:0:0:
110,120,105300,1,0,0:0:0:0:
96,160,105389,1,0,0:0:0:0:
67,192,105478,5,12,0:0:0:0:
22,98,105657,1,0,0:0:0:0:
157,271,105835,1,12,0:0:0:0:
202,177,106014,1,0,0:0:0:0:
45,359,106192,1,12,0:0:0:0:
0,265,106371,1,8,0:0:0:0:
240,309,106550,1,8,0:0:0:0:
271,313,106639,1,8,0:0:0:0:
303,310,106728,1,8,0:0:0:0:
331,294,106817,1,0,0:0:0:0:
354,270,106907,6,0,P|367:243|374:215,1,53.9999983520508,6|0,0:0|0:0,0:0:0:0:
295,56,107085,1,8,0:0:0:0:
279,84,107175,1,0,0:0:0:0:
274,115,107264,1,2,0:0:0:0:
276,147,107353,2,0,L|286:201,1,53.9999983520508,0|8,0:0|0:0,0:0:0:0:
435,147,107532,1,2,0:0:0:0:
450,125,107621,2,0,L|460:62,1,53.9999983520508
365,191,107800,1,10,0:0:0:0:
350,213,107889,2,0,L|340:276,1,53.9999983520508
423,372,108067,1,2,0:0:0:0:
438,350,108156,2,0,L|448:287,1,53.9999983520508,8|0,0:0|0:0,0:0:0:0:
271,192,108335,5,2,0:0:0:0:
245,183,108425,2,0,P|212:178|182:182,1,53.9999983520508,0|8,0:0|0:0,0:0:0:0:
72,279,108603,1,2,0:0:0:0:
98,290,108692,2,0,P|124:291|151:286,1,53.9999983520508
103,174,108871,1,10,0:0:0:0:
76,157,108960,1,0,0:0:0:0:
50,148,109050,2,0,P|7:142|-11:145,1,53.9999983520508,2|0,0:0|0:0,0:0:0:0:
123,92,109228,2,0,P|149:93|176:87,1,53.9999983520508,10|0,0:0|0:0,0:0:0:0:
281,58,109407,1,2,0:0:0:0:
266,98,109496,1,0,0:0:0:0:
263,141,109585,1,10,0:0:0:0:
270,183,109675,1,0,0:0:0:0:
286,222,109764,6,0,L|360:212,1,53.9999983520508,10|0,0:0|0:0,0:0:0:0:
438,267,109942,1,10,0:0:0:0:
398,248,110032,1,0,0:0:0:0:
354,248,110121,1,0,0:0:0:0:
317,270,110210,1,0,0:0:0:0:
294,307,110300,1,10,0:0:0:0:
251,311,110389,1,0,0:0:0:0:
234,271,110478,1,2,0:0:0:0:
266,243,110567,1,0,0:0:0:0:
303,264,110657,1,8,0:0:0:0:
294,307,110746,1,0,0:0:0:0:
251,312,110835,1,2,0:0:0:0:
210,285,110925,1,0,0:0:0:0:
161,278,111014,1,10,0:0:0:0:
113,286,111103,1,0,0:0:0:0:
73,314,111192,1,4,0:1:0:0:
256,192,111282,12,0,113692,0:0:0:0:
