osu file format v14

[General]
AudioFilename: audio.mp3
AudioLeadIn: 0
PreviewTime: 41907
Countdown: 1
SampleSet: Soft
StackLeniency: 0.7
Mode: 0
LetterboxInBreaks: 0
WidescreenStoryboard: 1

[Editor]
Bookmarks: 16193,21907,79050
DistanceSpacing: 0.9
BeatDivisor: 4
GridSize: 4
TimelineZoom: 1

[Metadata]
Title:Sasurai
TitleUnicode:流離
Artist:PON
ArtistUnicode:PON
Creator:Kyshiro
Version:Easy
Source:pop'n music éclale
Tags:Sand kshro beatmania
BeatmapID:1032600
BeatmapSetID:482711

[Difficulty]
HPDrainRate:2.5
CircleSize:3.2
OverallDifficulty:2.5
ApproachRate:3
SliderMultiplier:0.9
SliderTickRate:2

[Events]
//Background and Video events
0,0,"wallhaven-269201.jpg",0,0
//Break Periods
2,16393,20467
//Storyboard Layer 0 (Background)
//Storyboard Layer 1 (Fail)
//Storyboard Layer 2 (Pass)
//Storyboard Layer 3 (Foreground)
//Storyboard Sound Samples

[TimingPoints]
479,357.142857142857,4,2,1,75,1,0
2443,-100,4,2,1,75,0,0
3336,-100,4,2,1,75,0,0
21907,-100,4,2,1,75,0,0
27443,-100,4,2,1,75,0,0
29050,-100,4,2,1,75,0,0
41907,-100,4,2,1,85,0,1
57621,-100,4,2,1,75,0,0
69050,-100,4,2,1,75,0,0
69228,-100,4,2,1,5,0,0
69288,-100,4,2,1,75,0,0
69586,-100,4,2,1,5,0,0
69646,-100,4,2,1,75,0,0
69943,-100,4,2,1,5,0,0
70003,-100,4,2,1,75,0,0
70657,-100,4,2,1,5,0,0
70717,-100,4,2,1,75,0,0
71014,-100,4,2,1,5,0,0
71074,-100,4,2,1,75,0,0
71371,-100,4,2,1,5,0,0
71431,-100,4,2,1,75,0,0
72086,-100,4,2,1,5,0,0
72146,-100,4,2,1,75,0,0
72443,-100,4,2,1,5,0,0
72503,-100,4,2,1,75,0,0
72800,-100,4,2,1,5,0,0
72860,-100,4,2,1,75,0,0
73514,-100,4,2,1,5,0,0
73574,-100,4,2,1,75,0,0
73871,-100,4,2,1,5,0,0
73931,-100,4,2,1,75,0,0
74228,-100,4,2,1,5,0,0
74288,-100,4,2,1,75,0,0
74943,-100,4,2,1,5,0,0
75003,-100,4,2,1,75,0,0
75300,-100,4,2,1,5,0,0
75360,-100,4,2,1,75,0,0
75657,-100,4,2,1,5,0,0
75717,-100,4,2,1,75,0,0
76014,-100,4,2,1,5,0,0
76074,-100,4,2,1,75,0,0
76609,-100,4,2,1,5,0,0
76669,-100,4,2,1,75,0,0
76728,-100,4,2,1,5,0,0
76788,-100,4,2,1,75,0,0
77324,-100,4,2,1,5,0,0
77384,-100,4,2,1,75,0,0
79408,-100,4,2,1,75,0,0
80478,-100,4,2,1,75,0,0
90478,-100,4,2,1,75,0,0
94050,357.142857142857,4,2,1,75,1,0
94050,-100,4,2,1,90,0,1
105478,-100,4,2,1,85,0,0
106907,-100,4,2,1,90,0,1
113692,-100,4,2,1,5,0,0

[Colours]
Combo1 : 208,230,211
Combo2 : 180,184,241
Combo3 : 236,196,251
Combo4 : 255,179,181

[HitObjects]
67,194,479,6,0,P|107:197|159:182,2,90,4|4|4,0:0|0:0|0:0,0:0:0:0:
12,133,1550,1,4,0:0:0:0:
70,77,1907,2,0,P|141:69|235:130,1,180,4|8,0:0|0:0,0:0:0:0:
319,259,3336,6,0,P|389:263|400:172,2,180,4|2|0,0:0|0:0|0:0,0:0:0:0:
269,194,5121,1,0,0:0:0:0:
217,256,5478,2,0,P|131:261|49:219,1,180,2|0,0:0|0:0,0:0:0:0:
134,81,6907,5,2,0:0:0:0:
279,153,7621,2,0,P|296:214|289:255,1,90,2|0,0:0|0:0,0:0:0:0:
224,282,8336,2,0,L|119:273,1,90,2|0,0:0|0:0,0:0:0:0:
107,197,9050,6,0,P|109:153|34:38,1,180,4|0,0:0|0:0,0:0:0:0:
26,202,10478,2,0,P|114:212|202:173,1,180,4|0,0:0|0:0,0:0:0:0:
310,62,11907,5,2,0:0:0:0:
441,157,12621,1,2,0:0:0:0:
288,213,13336,2,0,L|284:315,1,90,2|0,0:0|0:0,0:0:0:0:
352,346,14050,2,0,P|392:343|436:313,1,90,2|0,0:0|0:0,0:0:0:0:
453,238,14764,5,4,0:0:0:0:
301,180,15478,1,4,0:0:0:0:
429,81,16193,1,4,0:0:0:0:
35,114,21907,6,0,P|131:97|176:172,1,180,4|0,0:0|0:0,0:0:0:0:
95,171,22978,1,8,0:0:0:0:
149,231,23336,2,0,B|199:243|234:210|234:210|230:270|279:327|351:319,1,270,2|8,0:0|0:0,0:0:0:0:
414,275,24764,6,0,P|433:213|277:147,2,270,4|4|4,0:0|0:0|0:0,0:0:0:0:
335,255,27264,2,0,L|279:267,1,45,8|4,0:0|0:0,0:0:0:0:
96,206,28336,2,0,P|81:160|75:105,1,90,8|8,0:0|0:0,0:0:0:0:
127,57,29050,6,0,P|183:39|261:124,1,180,4|2,0:0|0:0,0:0:0:0:
180,120,30121,1,0,0:0:0:0:
225,187,30478,2,0,L|215:290,1,90,2|0,0:0|0:0,0:0:0:0:
160,335,31193,2,0,P|109:333|68:313,1,90,2|0,0:0|0:0,0:0:0:0:
37,245,31907,5,2,0:0:0:0:
88,182,32264,1,0,0:0:0:0:
29,126,32621,2,0,L|18:27,1,90,2|0,0:0|0:0,0:0:0:0:
98,19,33336,2,0,P|155:52|270:40,1,180,2|4,0:0|0:0,0:0:0:0:
344,61,34407,1,4,0:0:0:0:
288,119,34764,6,0,B|281:179|281:179|304:228|304:228|294:292,1,180,4|8,0:0|0:0,0:0:0:0:
134,264,36193,2,0,P|178:246|225:242,2,90,6|2|6,0:0|0:0|0:0,0:0:0:0:
73,317,37264,1,8,0:0:0:0:
33,246,37621,2,0,L|27:155,1,90,4|4,0:0|0:0,0:0:0:0:
107,163,38336,2,0,L|113:72,1,90,4|4,0:0|0:0,0:0:0:0:
187,40,39050,6,0,B|223:9|281:15|313:59|305:99|305:99|339:113|339:113|326:148|341:195|381:214|425:208,1,360,4|4,0:0|0:0,0:0:0:0:
471,53,41193,1,8,0:0:0:0:
316,102,41907,6,0,L|308:205,2,90,4|2|0,0:0|0:0|0:0,0:0:0:0:
261,42,42978,1,2,0:0:0:0:
202,98,43336,2,0,P|139:114|38:61,1,180
72,223,44764,6,0,P|80:262|87:312,1,90,0|2,0:0|0:0,0:0:0:0:
163,278,45478,2,0,P|169:233|177:189,1,90,0|2,0:0|0:0,0:0:0:0:
241,140,46193,2,0,B|281:132|317:153|317:153|328:115|350:89|392:75,1,180
461,76,47264,1,2,0:0:0:0:
424,148,47621,6,0,L|437:253,1,90,4|2,0:0|0:0,0:0:0:0:
395,308,48336,2,0,P|350:327|240:263,2,180
353,238,50121,1,2,0:0:0:0:
435,237,50478,6,0,L|424:148,1,90,0|2,0:0|0:0,0:0:0:0:
364,92,51193,2,0,P|321:95|266:86,1,90,0|2,0:0|0:0,0:0:0:0:
200,56,51907,1,4,0:0:0:0:
41,192,53336,5,4,0:0:0:0:
198,228,54050,1,4,0:0:0:0:
85,344,54764,2,0,P|91:303|108:257,2,90,4|4|4,0:0|0:0|0:0,0:0:0:0:
161,370,55836,1,4,0:0:0:0:
232,332,56193,2,0,P|307:317|410:354,1,180,4|4,0:0|0:0,0:0:0:0:
481,148,57621,6,0,P|426:185|377:100,1,180,4|2,0:0|0:0,0:0:0:0:
448,75,58693,1,0,0:0:0:0:
381,29,59050,2,0,P|334:36|302:69,1,90,2|0,0:0|0:0,0:0:0:0:
279,141,59764,2,0,L|286:242,1,90,2|0,0:0|0:0,0:0:0:0:
233,292,60478,6,0,B|187:297|152:324|152:324|126:286|75:278|75:278|88:234|70:189|70:189|111:168|138:129,1,360,2|2,0:0|0:0,0:0:0:0:
189,70,62264,1,0,0:0:0:0:
254,118,62621,1,2,0:0:0:0:
407,64,63336,6,0,P|422:127|407:247,2,180,2|2|2,0:0|0:0|0:0,0:0:0:0:
332,33,65121,1,0,0:0:0:0:
271,86,65478,2,0,L|178:77,1,90,2|0,0:0|0:0,0:0:0:0:
122,132,66193,6,0,P|119:168|163:263,2,135,2|2|2,0:0|0:0|0:0,0:0:0:0:
181,77,67621,1,4,0:0:0:0:
69,113,69050,6,0,P|105:59|254:164,1,300,4|0,0:0|0:0,0:0:0:0:
243,210,70478,2,0,B|268:240|311:238|347:227|350:203|356:179|382:172|418:177|456:194|456:237|453:263|435:283|409:288,1,300,4|0,0:0|0:0,0:0:0:0:
371,316,71907,6,0,B|298:315|259:352|259:352|210:268|115:255,1,300,4|0,0:0|0:0,0:0:0:0:
61,250,73336,2,0,P|25:207|166:183,1,300,4|0,0:0|0:0,0:0:0:0:
218,190,74764,6,0,P|276:186|351:78,2,180,4|0|4,0:0|0:0|0:0,0:0:0:0:
172,159,76431,2,0,L|160:87,2,60,8|8|0,0:0|0:0|0:0,0:0:0:0:
131,194,77145,2,0,L|143:266,1,60,8|8,0:0|0:0,0:0:0:0:
152,305,77621,5,4,0:0:0:0:
308,264,78336,1,4,0:0:0:0:
191,151,79050,1,4,0:0:0:0:
237,306,79764,1,4,0:0:0:0:
383,237,80478,6,0,P|406:179|250:131,1,270,4|0,0:0|0:0,0:0:0:0:
185,160,81907,2,0,P|122:162|56:135,2,135,2|0|0,0:0|0:0|0:0,0:0:0:0:
255,200,83336,6,0,L|249:298,1,90,2|0,0:0|0:0,0:0:0:0:
330,282,84050,2,0,L|336:380,1,90,2|0,0:0|0:0,0:0:0:0:
414,353,84764,2,0,P|450:301|428:182,1,180,2|4,0:0|0:0,0:0:0:0:
359,158,85836,1,4,0:0:0:0:
284,189,86193,6,0,P|221:195|120:128,1,180,4|0,0:0|0:0,0:0:0:0:
254,38,87621,2,0,L|444:27,1,180,4|4,0:0|0:0,0:0:0:0:
492,83,88693,1,4,0:0:0:0:
433,139,89050,6,0,P|409:201|434:310,1,180,4|0,0:0|0:0,0:0:0:0:
280,361,90478,2,0,P|305:276|280:191,1,180,4|0,0:0|0:0,0:0:0:0:
216,140,91550,1,0,0:0:0:0:
145,179,91907,2,0,P|109:187|6:96,2,180,2|4|0,0:0|0:0|0:0,0:0:0:0:
284,96,94050,6,0,P|338:85|383:88,2,90,4|2|0,0:0|0:0|0:0,0:0:0:0:
226,153,95121,1,2,0:0:0:0:
293,197,95478,2,0,L|289:384,1,180
159,279,96907,6,0,P|122:266|71:263,2,90,0|2|0,0:0|0:0|0:0,0:0:0:0:
220,331,97978,1,2,0:0:0:0:
296,305,98335,2,0,P|324:259|346:165,2,135,0|0|2,0:0|0:0|0:0,0:0:0:0:
236,249,99764,6,0,L|221:146,1,90,4|2,0:0|0:0,0:0:0:0:
279,101,100478,2,0,P|329:90|371:92,1,90,0|2,0:0|0:0,0:0:0:0:
435,135,101192,1,0,0:0:0:0:
288,204,101907,1,0,0:0:0:0:
432,277,102621,6,0,L|331:293,1,90,0|2,0:0|0:0,0:0:0:0:
272,331,103335,2,0,L|171:315,1,90,0|2,0:0|0:0,0:0:0:0:
107,346,104050,2,0,P|75:298|71:179,1,180
128,121,105121,1,8,0:0:0:0:
199,158,105478,5,4,0:0:0:0:
352,106,106192,1,4,0:0:0:0:
452,232,106907,6,0,B|470:291|434:343|353:355|307:315|299:261|299:261|296:223|307:183|287:141|218:121|153:153|128:184|154:276|199:295|230:298|282:289|347:239|347:239|397:202|365:115|294:65|223:62|159:86|117:144,1,1080,4|4,0:0|0:0,0:0:0:0:
256,192,111550,12,0,113692,0:0:0:0:
