osu file format v14

[General]
AudioFilename: audio.mp3
AudioLeadIn: 0
PreviewTime: 161254
Countdown: 0
SampleSet: Normal
StackLeniency: 0.7
Mode: 1
LetterboxInBreaks: 0
WidescreenStoryboard: 1

[Editor]
Bookmarks: 18072,31709,76709,105004,132618,143527
DistanceSpacing: 2.5
BeatDivisor: 4
GridSize: 32
TimelineZoom: 2.1

[Metadata]
Title:Digital Coffee 2017
TitleUnicode:Digital Coffee 2017
Artist:POLYSICS
ArtistUnicode:POLYSICS
Creator:Karee Pan
Version:TOISU!
Source:
Tags:
BeatmapID:1343660
BeatmapSetID:633042

[Difficulty]
HPDrainRate:5
CircleSize:2
OverallDifficulty:6
ApproachRate:5
SliderMultiplier:1.3999999666214
SliderTickRate:1

[Events]
//Background and Video events
0,0,"polysics.jpg",0,0
//Break Periods
//Storyboard Layer 0 (Background)
//Storyboard Layer 1 (Fail)
//Storyboard Layer 2 (Pass)
//Storyboard Layer 3 (Foreground)
//Storyboard Sound Samples

[TimingPoints]
5800.13612830405,340.909090909091,4,1,0,80,1,0
16709,-100,4,1,0,90,0,0
18072,-100,4,1,0,70,0,0
28896,-125,4,1,0,80,0,0
31709,-100,4,1,0,70,0,0
53527,-125,4,1,0,70,0,0
58300,-119.047619047619,4,1,0,70,0,0
58385,-116.279069767442,4,1,0,70,0,0
58470,-113.636363636364,4,1,0,70,0,0
58555,-111.111111111111,4,1,0,70,0,0
58641,-108.695652173913,4,1,0,70,0,0
58726,-106.382978723404,4,1,0,70,0,0
58811,-104.166666666667,4,1,0,70,0,0
58896,-102.040816326531,4,1,0,70,0,0
58981,-100,4,1,0,90,0,1
69891,-100,4,1,0,80,0,0
76709,-100,4,1,0,70,0,0
98612,-125,4,1,0,80,0,0
103300,-119.047619047619,4,1,0,80,0,0
103385,-116.279069767442,4,1,0,80,0,0
103470,-113.636363636364,4,1,0,80,0,0
103555,-111.111111111111,4,1,0,80,0,0
103641,-108.695652173913,4,1,0,80,0,0
103726,-106.382978723404,4,1,0,80,0,0
103811,-104.166666666667,4,1,0,80,0,0
103896,-102.040816326531,4,1,0,80,0,0
103981,-100,4,1,0,90,0,1
125800,-100,4,1,0,90,0,0
155885,-125,4,1,0,90,0,0
160572,-119.047619047619,4,1,0,90,0,0
160658,-116.279069767442,4,1,0,90,0,0
160743,-113.636363636364,4,1,0,90,0,0
160828,-111.111111111111,4,1,0,90,0,0
160913,-108.695652173913,4,1,0,90,0,0
160998,-106.382978723404,4,1,0,90,0,0
161084,-104.166666666667,4,1,0,90,0,0
161169,-102.040816326531,4,1,0,90,0,0
161254,-100,4,1,0,90,0,1
193981,-100,4,1,0,80,0,0

[HitObjects]
192,160,5800,5,4,0:0:0:0:
192,160,6140,1,0,0:0:0:0:
192,160,6481,1,0,0:0:0:0:
192,160,6822,1,0,0:0:0:0:
192,160,7163,1,12,0:0:0:0:
192,160,7504,1,0,0:0:0:0:
192,160,7675,1,12,0:0:0:0:
192,160,7845,1,0,0:0:0:0:
192,160,8186,1,0,0:0:0:0:
192,160,8527,1,4,0:0:0:0:
192,160,8868,1,0,0:0:0:0:
192,160,9209,1,0,0:0:0:0:
192,160,9550,1,0,0:0:0:0:
192,160,9890,1,12,0:0:0:0:
192,160,10231,1,0,0:0:0:0:
192,160,10402,1,12,0:0:0:0:
192,160,10572,1,0,0:0:0:0:
192,160,10913,1,0,0:0:0:0:
192,160,11254,1,4,0:0:0:0:
192,160,11594,1,0,0:0:0:0:
192,160,11935,1,0,0:0:0:0:
192,160,12276,1,0,0:0:0:0:
192,160,12617,1,12,0:0:0:0:
192,160,12959,1,0,0:0:0:0:
192,160,13129,1,12,0:0:0:0:
192,160,13300,1,0,0:0:0:0:
192,160,13641,1,0,0:0:0:0:
192,160,13981,1,4,0:0:0:0:
192,160,14322,1,0,0:0:0:0:
192,160,14663,1,0,0:0:0:0:
192,160,15004,1,0,0:0:0:0:
192,160,15344,1,12,0:0:0:0:
192,160,15686,1,0,0:0:0:0:
192,160,15856,1,12,0:0:0:0:
192,160,16027,1,0,0:0:0:0:
192,160,16368,1,0,0:0:0:0:
224,160,16709,1,4,0:0:0:0:
224,160,16879,1,4,0:0:0:0:
224,160,17050,1,4,0:0:0:0:
224,160,17220,1,4,0:0:0:0:
224,160,17391,1,4,0:0:0:0:
224,160,17731,1,12,0:0:0:0:
256,192,18072,5,12,0:0:0:0:
224,192,18243,1,0,0:0:0:0:
256,192,18413,1,8,0:0:0:0:
256,192,18498,1,0,0:0:0:0:
256,192,18584,1,8,0:0:0:0:
256,192,18669,1,0,0:0:0:0:
256,192,18754,1,0,0:0:0:0:
256,192,18925,1,0,0:0:0:0:
256,192,19095,1,8,0:0:0:0:
224,192,19266,1,0,0:0:0:0:
256,192,19436,1,8,0:0:0:0:
256,192,19606,1,0,0:0:0:0:
256,192,19692,1,0,0:0:0:0:
256,192,19777,1,8,0:0:0:0:
256,192,19947,1,0,0:0:0:0:
256,224,20118,1,0,0:0:0:0:
256,192,20203,1,0,0:0:0:0:
256,192,20288,1,8,0:0:0:0:
256,192,20373,1,0,0:0:0:0:
256,192,20459,1,8,0:0:0:0:
256,192,20629,1,0,0:0:0:0:
256,192,20800,1,8,0:0:0:0:
256,192,21055,1,0,0:0:0:0:
256,192,21141,1,8,0:0:0:0:
256,192,21226,1,0,0:0:0:0:
256,192,21311,1,8,0:0:0:0:
256,192,21396,1,8,0:0:0:0:
256,192,21481,1,0,0:0:0:0:
256,192,21652,1,0,0:0:0:0:
288,192,21822,1,8,0:0:0:0:
256,192,21993,1,0,0:0:0:0:
256,192,22163,1,8,0:0:0:0:
256,192,22334,1,0,0:0:0:0:
256,192,22419,1,0,0:0:0:0:
256,192,22504,1,8,0:0:0:0:
256,192,22675,1,0,0:0:0:0:
256,192,22845,1,8,0:0:0:0:
256,192,22930,1,0,0:0:0:0:
256,192,23016,1,0,0:0:0:0:
288,192,23101,1,8,0:0:0:0:
256,192,23186,1,0,0:0:0:0:
288,192,23356,1,8,0:0:0:0:
256,192,23527,1,0,0:0:0:0:
256,192,23868,1,8,0:0:0:0:
224,192,23953,1,0,0:0:0:0:
256,192,24038,1,8,0:0:0:0:
256,192,24123,1,0,0:0:0:0:
256,192,24209,1,0,0:0:0:0:
256,192,24379,1,0,0:0:0:0:
256,192,24550,1,8,0:0:0:0:
224,192,24720,1,8,0:0:0:0:
224,192,24891,1,0,0:0:0:0:
224,192,25061,1,0,0:0:0:0:
224,192,25146,1,0,0:0:0:0:
224,192,25231,1,8,0:0:0:0:
224,192,25402,1,0,0:0:0:0:
224,192,25572,1,0,0:0:0:0:
256,160,25658,1,8,0:0:0:0:
224,192,25743,1,0,0:0:0:0:
224,192,25828,1,0,0:0:0:0:
224,192,25913,1,8,0:0:0:0:
224,192,26084,1,0,0:0:0:0:
224,192,26254,1,8,0:0:0:0:
128,192,26425,1,0,0:0:0:0:
224,192,26595,1,8,0:0:0:0:
224,192,26680,1,0,0:0:0:0:
224,192,26766,1,8,0:0:0:0:
224,192,26851,1,8,0:0:0:0:
224,192,26936,1,0,0:0:0:0:
224,192,27106,1,8,0:0:0:0:
224,192,27277,1,0,0:0:0:0:
128,192,27447,1,0,0:0:0:0:
224,192,27618,1,8,0:0:0:0:
224,192,27788,1,8,0:0:0:0:
224,192,27959,1,8,0:0:0:0:
192,192,28129,1,0,0:0:0:0:
224,192,28300,1,8,0:0:0:0:
224,192,28385,1,8,0:0:0:0:
224,192,28470,1,0,0:0:0:0:
224,192,28641,1,12,0:0:0:0:
224,192,28981,1,8,0:0:0:0:
224,192,29322,1,8,0:0:0:0:
224,192,29663,1,8,0:0:0:0:
224,192,29834,1,8,0:0:0:0:
224,192,30004,1,8,0:0:0:0:
224,192,30345,1,8,0:0:0:0:
224,192,30516,1,8,0:0:0:0:
224,192,30686,1,8,0:0:0:0:
224,192,30856,1,8,0:0:0:0:
224,192,31027,1,8,0:0:0:0:
224,192,31368,1,4,0:0:0:0:
224,192,31709,1,12,0:0:0:0:
256,224,31879,1,0,0:0:0:0:
224,192,32050,1,8,0:0:0:0:
224,224,32135,1,0,0:0:0:0:
224,224,32220,1,8,0:0:0:0:
224,224,32305,1,8,0:0:0:0:
224,224,32391,1,0,0:0:0:0:
224,224,32561,1,0,0:0:0:0:
224,224,32731,1,8,0:0:0:0:
256,160,32902,1,0,0:0:0:0:
256,192,33072,1,8,0:0:0:0:
256,192,33243,1,0,0:0:0:0:
256,192,33328,1,0,0:0:0:0:
256,192,33413,1,8,0:0:0:0:
256,192,33584,1,8,0:0:0:0:
256,224,33754,1,0,0:0:0:0:
256,192,33839,1,8,0:0:0:0:
256,192,33925,1,8,0:0:0:0:
256,192,34010,1,0,0:0:0:0:
288,256,34095,1,8,0:0:0:0:
256,192,34266,1,0,0:0:0:0:
256,192,34436,1,8,0:0:0:0:
224,224,34606,1,0,0:0:0:0:
224,224,34777,1,8,0:0:0:0:
256,224,34862,1,0,0:0:0:0:
224,224,34947,1,8,0:0:0:0:
224,224,35033,1,0,0:0:0:0:
224,224,35118,1,0,0:0:0:0:
224,224,35288,1,0,0:0:0:0:
224,224,35459,1,8,0:0:0:0:
224,192,35629,1,0,0:0:0:0:
128,224,35714,1,0,0:0:0:0:
32,192,35800,1,8,0:0:0:0:
160,160,35970,1,8,0:0:0:0:
224,224,36141,1,8,0:0:0:0:
224,224,36311,1,0,0:0:0:0:
224,224,36481,1,8,0:0:0:0:
224,224,36567,1,0,0:0:0:0:
224,224,36652,1,0,0:0:0:0:
224,224,36737,1,8,0:0:0:0:
224,224,36822,1,0,0:0:0:0:
224,224,36993,1,8,0:0:0:0:
256,224,37163,1,0,0:0:0:0:
256,224,37504,1,8,0:0:0:0:
224,224,37589,1,0,0:0:0:0:
256,224,37675,1,8,0:0:0:0:
256,224,37760,1,8,0:0:0:0:
256,224,37845,1,0,0:0:0:0:
256,224,38016,1,0,0:0:0:0:
224,224,38186,1,8,0:0:0:0:
256,224,38356,1,8,0:0:0:0:
256,224,38697,1,8,0:0:0:0:
256,224,38868,1,0,0:0:0:0:
256,224,39038,1,0,0:0:0:0:
256,224,39209,1,0,0:0:0:0:
256,224,39294,1,0,0:0:0:0:
256,224,39379,1,8,0:0:0:0:
288,224,39550,1,0,0:0:0:0:
256,224,39720,1,8,0:0:0:0:
256,224,39891,1,0,0:0:0:0:
160,64,40146,1,0,0:0:0:0:
256,224,40231,1,8,0:0:0:0:
256,224,40317,1,0,0:0:0:0:
256,224,40402,1,8,0:0:0:0:
256,224,40487,1,0,0:0:0:0:
256,224,40572,1,0,0:0:0:0:
256,224,40743,1,0,0:0:0:0:
256,224,40913,1,8,0:0:0:0:
256,224,41084,1,0,0:0:0:0:
256,224,41254,1,0,0:0:0:0:
256,224,41339,1,8,0:0:0:0:
256,224,41425,1,8,0:0:0:0:
256,224,41595,1,8,0:0:0:0:
256,224,41766,1,0,0:0:0:0:
256,224,41936,1,8,0:0:0:0:
256,224,42021,1,0,0:0:0:0:
256,224,42106,1,0,0:0:0:0:
256,224,42192,1,8,0:0:0:0:
256,224,42277,1,0,0:0:0:0:
256,224,42447,1,12,0:0:0:0:
256,224,42618,1,0,0:0:0:0:
256,224,42959,1,8,0:0:0:0:
288,256,43044,1,0,0:0:0:0:
256,224,43129,1,8,0:0:0:0:
256,224,43214,1,8,0:0:0:0:
256,224,43300,1,0,0:0:0:0:
256,224,43470,1,0,0:0:0:0:
288,256,43641,1,8,0:0:0:0:
288,256,43811,1,0,0:0:0:0:
288,256,43981,1,8,0:0:0:0:
256,224,44152,1,0,0:0:0:0:
320,256,44237,1,0,0:0:0:0:
288,256,44322,1,8,0:0:0:0:
288,256,44493,1,8,0:0:0:0:
288,256,44663,1,0,0:0:0:0:
224,224,44748,1,0,0:0:0:0:
288,256,44834,1,8,0:0:0:0:
288,224,44919,1,0,0:0:0:0:
288,256,45004,1,8,0:0:0:0:
288,256,45175,1,0,0:0:0:0:
288,256,45345,1,8,0:0:0:0:
256,224,45516,1,0,0:0:0:0:
288,224,45686,1,8,0:0:0:0:
288,256,45771,1,0,0:0:0:0:
288,224,45856,1,8,0:0:0:0:
288,224,45942,1,0,0:0:0:0:
288,224,46027,1,0,0:0:0:0:
288,224,46197,1,0,0:0:0:0:
288,224,46368,1,8,0:0:0:0:
288,224,46538,1,0,0:0:0:0:
288,224,46709,1,8,0:0:0:0:
256,128,46879,1,8,0:0:0:0:
256,128,46964,1,0,0:0:0:0:
288,224,47050,1,8,0:0:0:0:
288,224,47220,1,8,0:0:0:0:
128,128,47391,1,0,0:0:0:0:
160,192,47476,1,0,0:0:0:0:
288,224,47561,1,8,0:0:0:0:
256,224,47646,1,0,0:0:0:0:
288,224,47731,1,0,0:0:0:0:
288,224,47902,1,12,0:0:0:0:
288,224,48072,1,0,0:0:0:0:
288,224,48413,1,8,0:0:0:0:
288,256,48498,1,0,0:0:0:0:
288,224,48584,1,8,0:0:0:0:
288,224,48669,1,8,0:0:0:0:
288,224,48754,1,0,0:0:0:0:
288,224,48925,1,0,0:0:0:0:
288,224,49095,1,8,0:0:0:0:
256,192,49266,1,0,0:0:0:0:
288,224,49436,1,0,0:0:0:0:
224,128,49606,1,0,0:0:0:0:
224,128,49692,1,0,0:0:0:0:
288,224,49777,1,8,0:0:0:0:
288,224,49947,1,0,0:0:0:0:
288,224,50118,1,8,0:0:0:0:
352,128,50203,1,0,0:0:0:0:
288,224,50288,1,8,0:0:0:0:
288,192,50373,1,8,0:0:0:0:
288,224,50459,1,0,0:0:0:0:
256,160,50629,1,8,0:0:0:0:
256,256,50800,1,0,0:0:0:0:
288,224,50970,1,0,0:0:0:0:
256,224,51141,1,8,0:0:0:0:
288,224,51226,1,0,0:0:0:0:
256,192,51311,1,8,0:0:0:0:
288,224,51481,1,0,0:0:0:0:
288,224,51567,1,8,0:0:0:0:
288,224,51652,1,8,0:0:0:0:
288,224,51737,1,0,0:0:0:0:
256,224,51822,1,8,0:0:0:0:
288,224,51993,1,0,0:0:0:0:
288,224,52078,1,0,0:0:0:0:
288,224,52163,1,8,0:0:0:0:
288,224,52334,1,0,0:0:0:0:
288,224,52419,1,8,0:0:0:0:
288,224,52504,1,8,0:0:0:0:
288,224,52675,1,0,0:0:0:0:
288,224,52845,1,8,0:0:0:0:
288,224,52930,1,8,0:0:0:0:
288,224,53016,1,0,0:0:0:0:
288,224,53186,1,12,0:0:0:0:
288,224,53527,1,8,0:0:0:0:
224,192,53868,1,8,0:0:0:0:
224,192,54209,1,8,0:0:0:0:
224,192,54379,1,8,0:0:0:0:
224,192,54550,1,8,0:0:0:0:
224,192,54891,1,8,0:0:0:0:
224,192,55061,1,8,0:0:0:0:
224,192,55231,1,8,0:0:0:0:
224,192,55402,1,8,0:0:0:0:
224,192,55572,1,8,0:0:0:0:
224,192,55913,1,4,0:0:0:0:
224,192,56254,1,8,0:0:0:0:
224,192,56595,1,8,0:0:0:0:
224,192,56936,1,8,0:0:0:0:
224,192,57106,1,8,0:0:0:0:
224,192,57277,1,8,0:0:0:0:
224,192,57618,1,8,0:0:0:0:
224,192,57788,1,8,0:0:0:0:
224,192,57959,1,8,0:0:0:0:
224,192,58129,1,8,0:0:0:0:
224,192,58300,1,8,0:0:0:0:
224,192,58385,1,0,0:0:0:0:
224,192,58470,1,0,0:0:0:0:
224,192,58555,1,8,0:0:0:0:
224,192,58641,1,0,0:0:0:0:
224,192,58726,1,0,0:0:0:0:
224,192,58811,1,8,0:0:0:0:
224,192,58896,1,0,0:0:0:0:
224,192,58981,1,0,0:0:0:0:
256,128,59152,1,0,0:0:0:0:
256,128,59322,1,8,0:0:0:0:
256,192,59493,1,0,0:0:0:0:
256,192,59578,1,0,0:0:0:0:
256,128,59663,1,8,0:0:0:0:
256,128,59834,1,8,0:0:0:0:
256,128,59919,1,0,0:0:0:0:
256,128,60004,1,0,0:0:0:0:
256,128,60175,1,8,0:0:0:0:
256,128,60345,1,0,0:0:0:0:
256,128,60430,1,0,0:0:0:0:
256,128,60515,1,8,0:0:0:0:
256,128,60601,1,8,0:0:0:0:
256,128,60686,1,0,0:0:0:0:
256,128,60856,1,8,0:0:0:0:
256,128,61027,1,0,0:0:0:0:
256,128,61197,1,8,0:0:0:0:
256,160,61283,1,0,0:0:0:0:
256,128,61368,1,0,0:0:0:0:
256,128,61538,1,8,0:0:0:0:
256,128,61709,1,0,0:0:0:0:
288,192,61879,1,0,0:0:0:0:
256,128,62050,1,8,0:0:0:0:
256,128,62220,1,0,0:0:0:0:
256,128,62391,1,8,0:0:0:0:
256,128,62561,1,0,0:0:0:0:
256,128,62646,1,0,0:0:0:0:
256,128,62731,1,8,0:0:0:0:
256,128,62902,1,0,0:0:0:0:
256,128,63072,1,8,0:0:0:0:
256,128,63158,1,8,0:0:0:0:
256,128,63243,1,0,0:0:0:0:
256,128,63328,1,0,0:0:0:0:
256,128,63413,1,8,0:0:0:0:
256,128,63584,1,0,0:0:0:0:
256,128,63754,1,8,0:0:0:0:
256,128,63925,1,8,0:0:0:0:
256,128,64095,1,0,0:0:0:0:
256,128,64266,1,8,0:0:0:0:
192,128,64351,1,8,0:0:0:0:
256,128,64436,1,0,0:0:0:0:
256,128,64606,1,0,0:0:0:0:
256,128,64777,1,8,0:0:0:0:
224,128,64947,1,0,0:0:0:0:
224,128,65033,1,0,0:0:0:0:
224,128,65118,1,8,0:0:0:0:
224,128,65288,1,8,0:0:0:0:
224,128,65373,1,0,0:0:0:0:
224,128,65459,1,0,0:0:0:0:
224,128,65629,1,8,0:0:0:0:
224,128,65800,1,0,0:0:0:0:
256,128,65885,1,0,0:0:0:0:
224,128,65970,1,8,0:0:0:0:
224,128,66055,1,8,0:0:0:0:
224,128,66141,1,0,0:0:0:0:
224,128,66311,1,8,0:0:0:0:
224,128,66481,1,0,0:0:0:0:
224,128,66652,1,8,0:0:0:0:
224,128,66737,1,0,0:0:0:0:
224,128,66822,1,0,0:0:0:0:
224,160,66993,1,8,0:0:0:0:
224,160,67163,1,0,0:0:0:0:
288,192,67334,1,0,0:0:0:0:
224,160,67504,1,8,0:0:0:0:
224,160,67675,1,0,0:0:0:0:
224,160,67845,1,8,0:0:0:0:
224,160,68016,1,0,0:0:0:0:
224,160,68101,1,0,0:0:0:0:
224,160,68186,1,8,0:0:0:0:
224,160,68356,1,0,0:0:0:0:
224,160,68527,1,8,0:0:0:0:
192,160,68612,1,8,0:0:0:0:
192,160,68697,1,0,0:0:0:0:
192,160,68783,1,0,0:0:0:0:
192,160,68868,1,8,0:0:0:0:
192,160,69038,1,0,0:0:0:0:
192,160,69209,1,0,0:0:0:0:
192,160,69379,1,8,0:0:0:0:
192,160,69464,1,8,0:0:0:0:
192,160,69550,1,8,0:0:0:0:
192,160,69635,1,8,0:0:0:0:
192,160,69720,1,8,0:0:0:0:
192,160,69891,1,4,0:0:0:0:
192,160,70231,1,0,0:0:0:0:
192,160,70572,1,0,0:0:0:0:
192,160,70913,1,0,0:0:0:0:
192,160,71254,1,12,0:0:0:0:
192,160,71595,1,0,0:0:0:0:
192,160,71766,1,12,0:0:0:0:
192,160,71936,1,0,0:0:0:0:
192,160,72277,1,0,0:0:0:0:
192,160,72618,1,4,0:0:0:0:
192,160,72959,1,0,0:0:0:0:
192,160,73300,1,0,0:0:0:0:
192,160,73641,1,0,0:0:0:0:
192,160,73981,1,12,0:0:0:0:
192,160,74322,1,0,0:0:0:0:
192,160,74493,1,12,0:0:0:0:
192,160,74663,1,0,0:0:0:0:
192,160,75004,1,0,0:0:0:0:
192,160,75345,1,4,0:0:0:0:
192,160,75516,1,4,0:0:0:0:
192,160,75686,1,4,0:0:0:0:
192,160,75856,1,4,0:0:0:0:
192,160,76027,1,4,0:0:0:0:
192,192,76368,1,12,0:0:0:0:
256,192,76709,1,12,0:0:0:0:
192,160,76879,1,0,0:0:0:0:
256,192,77050,1,8,0:0:0:0:
256,192,77135,1,0,0:0:0:0:
256,192,77220,1,8,0:0:0:0:
256,192,77305,1,8,0:0:0:0:
256,192,77391,1,0,0:0:0:0:
256,192,77561,1,0,0:0:0:0:
256,192,77731,1,8,0:0:0:0:
192,160,77902,1,0,0:0:0:0:
256,192,78072,1,8,0:0:0:0:
256,192,78243,1,0,0:0:0:0:
256,192,78328,1,0,0:0:0:0:
256,192,78413,1,8,0:0:0:0:
256,192,78584,1,8,0:0:0:0:
256,192,78754,1,0,0:0:0:0:
256,192,78925,1,8,0:0:0:0:
288,192,79010,1,0,0:0:0:0:
256,192,79095,1,8,0:0:0:0:
256,192,79266,1,8,0:0:0:0:
256,192,79436,1,0,0:0:0:0:
288,192,79606,1,8,0:0:0:0:
256,192,79777,1,8,0:0:0:0:
192,160,79862,1,0,0:0:0:0:
288,192,79947,1,8,0:0:0:0:
256,192,80033,1,0,0:0:0:0:
256,192,80118,1,0,0:0:0:0:
256,192,80288,1,0,0:0:0:0:
256,192,80459,1,8,0:0:0:0:
288,192,80629,1,0,0:0:0:0:
224,192,80800,1,0,0:0:0:0:
256,192,80970,1,8,0:0:0:0:
192,192,81055,1,0,0:0:0:0:
224,192,81141,1,8,0:0:0:0:
224,192,81311,1,0,0:0:0:0:
224,192,81481,1,8,0:0:0:0:
224,192,81567,1,0,0:0:0:0:
224,192,81652,1,0,0:0:0:0:
224,192,81737,1,8,0:0:0:0:
224,192,81822,1,0,0:0:0:0:
224,192,81993,1,0,0:0:0:0:
224,192,82163,1,12,0:0:0:0:
224,192,82504,1,12,0:0:0:0:
224,192,82845,1,4,0:0:0:0:
224,192,83356,1,8,0:0:0:0:
256,192,83527,1,0,0:0:0:0:
224,192,83697,1,0,0:0:0:0:
224,192,83868,1,8,0:0:0:0:
256,192,84038,1,0,0:0:0:0:
256,192,84209,1,0,0:0:0:0:
160,192,84294,1,0,0:0:0:0:
256,192,84379,1,8,0:0:0:0:
256,192,84550,1,0,0:0:0:0:
224,192,84720,1,0,0:0:0:0:
192,160,84891,1,8,0:0:0:0:
224,160,85061,1,0,0:0:0:0:
192,160,85231,1,8,0:0:0:0:
192,160,85317,1,0,0:0:0:0:
192,160,85402,1,8,0:0:0:0:
192,160,85487,1,0,0:0:0:0:
192,160,85572,1,0,0:0:0:0:
192,160,85743,1,0,0:0:0:0:
192,160,85913,1,8,0:0:0:0:
224,160,86084,1,0,0:0:0:0:
192,160,86254,1,8,0:0:0:0:
192,160,86595,1,8,0:0:0:0:
192,160,86766,1,0,0:0:0:0:
192,160,86936,1,8,0:0:0:0:
192,160,87021,1,0,0:0:0:0:
192,160,87106,1,0,0:0:0:0:
192,160,87192,1,8,0:0:0:0:
192,160,87277,1,0,0:0:0:0:
192,160,87447,1,12,0:0:0:0:
192,160,87618,1,0,0:0:0:0:
192,160,87959,1,8,0:0:0:0:
192,160,88044,1,0,0:0:0:0:
192,160,88129,1,8,0:0:0:0:
192,160,88214,1,8,0:0:0:0:
192,160,88300,1,0,0:0:0:0:
192,160,88470,1,0,0:0:0:0:
192,160,88641,1,8,0:0:0:0:
224,160,88811,1,0,0:0:0:0:
192,160,88981,1,8,0:0:0:0:
192,160,89152,1,0,0:0:0:0:
192,160,89237,1,0,0:0:0:0:
192,128,89322,1,8,0:0:0:0:
192,160,89493,1,8,0:0:0:0:
160,160,89663,1,0,0:0:0:0:
192,160,89834,1,8,0:0:0:0:
192,128,89919,1,8,0:0:0:0:
192,160,90004,1,0,0:0:0:0:
192,160,90175,1,8,0:0:0:0:
192,160,90345,1,0,0:0:0:0:
192,160,90516,1,0,0:0:0:0:
192,160,90686,1,8,0:0:0:0:
192,160,90771,1,0,0:0:0:0:
320,160,90856,1,8,0:0:0:0:
192,160,90942,1,0,0:0:0:0:
320,160,91027,1,0,0:0:0:0:
192,160,91197,1,0,0:0:0:0:
192,160,91368,1,8,0:0:0:0:
224,160,91538,1,0,0:0:0:0:
192,160,91709,1,8,0:0:0:0:
192,160,91879,1,8,0:0:0:0:
160,160,91964,1,8,0:0:0:0:
192,192,92050,1,0,0:0:0:0:
192,160,92220,1,8,0:0:0:0:
192,160,92391,1,0,0:0:0:0:
192,160,92561,1,8,0:0:0:0:
160,160,92646,5,8,0:0:0:0:
192,160,92731,1,0,0:0:0:0:
192,160,92902,1,12,0:0:0:0:
192,160,93072,1,0,0:0:0:0:
192,192,93243,1,0,0:0:0:0:
192,352,93413,1,8,0:0:0:0:
192,192,93498,1,0,0:0:0:0:
192,352,93584,1,8,0:0:0:0:
192,352,93669,1,8,0:0:0:0:
192,352,93754,1,0,0:0:0:0:
192,352,93925,1,0,0:0:0:0:
192,352,94095,1,8,0:0:0:0:
224,160,94266,1,0,0:0:0:0:
192,352,94436,1,8,0:0:0:0:
192,352,94606,1,0,0:0:0:0:
160,192,94692,1,8,0:0:0:0:
192,352,94777,1,0,0:0:0:0:
192,352,94947,1,0,0:0:0:0:
192,352,95118,1,8,0:0:0:0:
192,352,95288,1,0,0:0:0:0:
192,352,95373,1,0,0:0:0:0:
192,352,95459,1,8,0:0:0:0:
160,160,95629,1,0,0:0:0:0:
160,160,95800,1,8,0:0:0:0:
160,160,95970,1,0,0:0:0:0:
160,160,96055,1,8,0:0:0:0:
160,160,96141,1,0,0:0:0:0:
160,160,96311,1,8,0:0:0:0:
192,160,96396,1,0,0:0:0:0:
160,160,96481,1,8,0:0:0:0:
192,160,96567,1,8,0:0:0:0:
160,160,96652,1,0,0:0:0:0:
160,160,96822,1,8,0:0:0:0:
192,160,96993,1,0,0:0:0:0:
192,160,97078,1,0,0:0:0:0:
192,160,97163,1,8,0:0:0:0:
192,160,97334,1,0,0:0:0:0:
192,160,97504,1,8,0:0:0:0:
192,160,97589,1,8,0:0:0:0:
192,160,97675,1,0,0:0:0:0:
192,160,97845,1,8,0:0:0:0:
192,160,98016,1,0,0:0:0:0:
192,160,98186,1,8,0:0:0:0:
192,160,98271,1,8,0:0:0:0:
192,160,98356,1,0,0:0:0:0:
192,160,98527,1,12,0:0:0:0:
192,160,98868,1,8,0:0:0:0:
192,160,99209,1,8,0:0:0:0:
192,160,99379,1,8,0:0:0:0:
192,160,99550,1,8,0:0:0:0:
192,160,99891,1,8,0:0:0:0:
192,160,100061,1,8,0:0:0:0:
192,160,100231,1,8,0:0:0:0:
192,160,100402,1,8,0:0:0:0:
192,160,100572,1,8,0:0:0:0:
192,160,100913,1,4,0:0:0:0:
256,192,101254,1,8,0:0:0:0:
256,192,101595,1,8,0:0:0:0:
256,192,101936,1,8,0:0:0:0:
256,192,102106,1,8,0:0:0:0:
256,192,102277,1,8,0:0:0:0:
256,192,102618,1,8,0:0:0:0:
256,192,102788,1,8,0:0:0:0:
256,192,102959,1,8,0:0:0:0:
256,192,103129,1,8,0:0:0:0:
256,192,103300,1,8,0:0:0:0:
256,192,103385,1,0,0:0:0:0:
256,192,103470,1,0,0:0:0:0:
256,192,103555,1,8,0:0:0:0:
256,192,103641,1,0,0:0:0:0:
256,192,103726,1,0,0:0:0:0:
256,192,103811,1,8,0:0:0:0:
256,192,103896,1,0,0:0:0:0:
224,192,103981,1,0,0:0:0:0:
256,128,104152,1,0,0:0:0:0:
256,128,104322,1,8,0:0:0:0:
256,192,104493,1,0,0:0:0:0:
256,192,104578,1,0,0:0:0:0:
256,128,104663,1,8,0:0:0:0:
256,128,104834,1,8,0:0:0:0:
256,128,104919,1,0,0:0:0:0:
256,128,105004,1,0,0:0:0:0:
256,128,105175,1,8,0:0:0:0:
256,128,105345,1,0,0:0:0:0:
256,128,105430,1,0,0:0:0:0:
256,128,105515,1,8,0:0:0:0:
256,128,105601,1,8,0:0:0:0:
256,128,105686,1,0,0:0:0:0:
256,128,105856,1,8,0:0:0:0:
256,128,106027,1,0,0:0:0:0:
256,128,106197,1,8,0:0:0:0:
256,128,106283,1,0,0:0:0:0:
256,128,106368,1,0,0:0:0:0:
256,128,106538,1,8,0:0:0:0:
256,128,106709,1,0,0:0:0:0:
256,160,106879,1,0,0:0:0:0:
256,128,107050,1,8,0:0:0:0:
256,128,107220,1,0,0:0:0:0:
256,128,107391,1,8,0:0:0:0:
256,128,107561,1,0,0:0:0:0:
256,128,107646,1,0,0:0:0:0:
256,128,107731,1,8,0:0:0:0:
256,128,107902,1,0,0:0:0:0:
256,128,108072,1,8,0:0:0:0:
256,128,108158,1,8,0:0:0:0:
256,128,108243,1,0,0:0:0:0:
256,128,108328,1,0,0:0:0:0:
256,128,108413,1,8,0:0:0:0:
256,128,108584,1,0,0:0:0:0:
256,128,108754,1,8,0:0:0:0:
256,128,108925,1,8,0:0:0:0:
256,128,109095,1,0,0:0:0:0:
256,128,109266,1,8,0:0:0:0:
192,128,109351,1,8,0:0:0:0:
256,128,109436,1,0,0:0:0:0:
256,128,109606,1,0,0:0:0:0:
256,128,109777,1,8,0:0:0:0:
224,128,109947,1,0,0:0:0:0:
224,128,110033,1,0,0:0:0:0:
224,128,110118,1,8,0:0:0:0:
224,128,110288,1,8,0:0:0:0:
224,128,110373,1,0,0:0:0:0:
224,128,110459,1,0,0:0:0:0:
224,128,110629,1,8,0:0:0:0:
224,128,110800,1,0,0:0:0:0:
256,128,110885,1,0,0:0:0:0:
224,128,110970,1,8,0:0:0:0:
224,128,111055,1,8,0:0:0:0:
224,128,111141,1,0,0:0:0:0:
224,128,111311,1,8,0:0:0:0:
224,128,111481,1,0,0:0:0:0:
224,128,111652,1,8,0:0:0:0:
224,128,111737,1,0,0:0:0:0:
224,128,111822,1,0,0:0:0:0:
224,160,111993,1,8,0:0:0:0:
224,160,112163,1,0,0:0:0:0:
224,160,112334,1,0,0:0:0:0:
224,160,112504,1,8,0:0:0:0:
224,160,112675,1,0,0:0:0:0:
224,160,112845,1,8,0:0:0:0:
224,160,113016,1,0,0:0:0:0:
224,160,113101,1,0,0:0:0:0:
224,160,113186,5,8,0:0:0:0:
224,160,113356,1,0,0:0:0:0:
224,160,113527,1,8,0:0:0:0:
192,160,113612,1,8,0:0:0:0:
192,160,113697,1,0,0:0:0:0:
192,160,113783,1,0,0:0:0:0:
192,160,113868,1,8,0:0:0:0:
192,160,114038,1,0,0:0:0:0:
192,160,114209,1,8,0:0:0:0:
192,160,114379,5,0,0:0:0:0:
224,160,114550,1,8,0:0:0:0:
224,160,114720,1,8,0:0:0:0:
160,160,114891,1,0,0:0:0:0:
224,192,114976,1,0,0:0:0:0:
224,192,115061,1,8,0:0:0:0:
224,192,115146,1,8,0:0:0:0:
224,192,115231,1,0,0:0:0:0:
224,192,115317,1,0,0:0:0:0:
224,192,115402,1,8,0:0:0:0:
224,192,115487,1,0,0:0:0:0:
224,192,115572,1,8,0:0:0:0:
224,192,115743,1,0,0:0:0:0:
224,192,115913,1,0,0:0:0:0:
224,192,116084,1,8,0:0:0:0:
224,192,116254,1,0,0:0:0:0:
224,192,116425,1,0,0:0:0:0:
224,192,116510,1,0,0:0:0:0:
224,192,116595,1,8,0:0:0:0:
224,192,116680,1,8,0:0:0:0:
224,192,116766,1,0,0:0:0:0:
224,192,117106,1,0,0:0:0:0:
224,192,117192,1,0,0:0:0:0:
224,192,117277,1,8,0:0:0:0:
224,192,117362,1,8,0:0:0:0:
224,192,117447,1,0,0:0:0:0:
224,192,117618,1,8,0:0:0:0:
224,192,117788,1,8,0:0:0:0:
224,192,118129,1,0,0:0:0:0:
224,192,118300,1,8,0:0:0:0:
224,192,118470,1,8,0:0:0:0:
256,160,118641,1,0,0:0:0:0:
224,192,118811,1,0,0:0:0:0:
224,192,118981,1,0,0:0:0:0:
224,192,119067,1,0,0:0:0:0:
224,160,119152,1,8,0:0:0:0:
224,192,119237,1,0,0:0:0:0:
224,192,119322,1,8,0:0:0:0:
224,192,119408,1,8,0:0:0:0:
224,192,119493,1,0,0:0:0:0:
224,192,119663,1,0,0:0:0:0:
224,128,119748,1,0,0:0:0:0:
224,192,119834,1,8,0:0:0:0:
224,192,119919,1,0,0:0:0:0:
224,192,120004,1,8,0:0:0:0:
224,192,120089,1,8,0:0:0:0:
256,160,120175,1,0,0:0:0:0:
224,192,120345,1,0,0:0:0:0:
192,192,120430,1,0,0:0:0:0:
192,192,120516,1,8,0:0:0:0:
192,192,120601,1,8,0:0:0:0:
192,192,120686,1,0,0:0:0:0:
192,192,120771,1,0,0:0:0:0:
192,192,120856,1,8,0:0:0:0:
192,192,120942,1,0,0:0:0:0:
192,192,121027,1,8,0:0:0:0:
192,192,121197,1,8,0:0:0:0:
192,192,121368,1,0,0:0:0:0:
192,192,121538,1,8,0:0:0:0:
352,160,121709,1,0,0:0:0:0:
256,192,121879,1,8,0:0:0:0:
256,192,121964,1,0,0:0:0:0:
256,192,122050,1,8,0:0:0:0:
256,192,122135,1,8,0:0:0:0:
256,192,122220,1,0,0:0:0:0:
256,160,122561,1,8,0:0:0:0:
256,160,122646,1,0,0:0:0:0:
256,160,122731,1,8,0:0:0:0:
256,160,122817,1,8,0:0:0:0:
256,160,122902,1,0,0:0:0:0:
128,256,123072,1,0,0:0:0:0:
256,160,123243,1,8,0:0:0:0:
256,192,123413,1,0,0:0:0:0:
288,160,123584,1,8,0:0:0:0:
256,192,123754,1,8,0:0:0:0:
256,192,123925,1,8,0:0:0:0:
288,192,124095,1,0,0:0:0:0:
256,192,124266,1,8,0:0:0:0:
256,192,124436,1,0,0:0:0:0:
256,192,124521,1,0,0:0:0:0:
256,192,124606,1,0,0:0:0:0:
256,192,124692,1,0,0:0:0:0:
256,192,124777,1,8,0:0:0:0:
256,192,124862,1,8,0:0:0:0:
256,192,124947,1,0,0:0:0:0:
256,192,125118,1,0,0:0:0:0:
256,192,125203,1,0,0:0:0:0:
256,192,125288,1,8,0:0:0:0:
256,192,125373,1,8,0:0:0:0:
256,192,125459,1,8,0:0:0:0:
256,192,125544,1,8,0:0:0:0:
256,192,125629,1,8,0:0:0:0:
192,160,125800,1,4,0:0:0:0:
192,160,126140,1,0,0:0:0:0:
192,160,126481,1,0,0:0:0:0:
192,160,126822,1,0,0:0:0:0:
192,160,127163,1,12,0:0:0:0:
224,160,127504,1,0,0:0:0:0:
192,160,127675,1,12,0:0:0:0:
224,160,127845,1,0,0:0:0:0:
224,160,128186,1,0,0:0:0:0:
192,160,128527,1,4,0:0:0:0:
192,160,128868,1,0,0:0:0:0:
192,160,129209,1,0,0:0:0:0:
192,160,129550,1,0,0:0:0:0:
192,160,129890,1,12,0:0:0:0:
224,160,130231,1,0,0:0:0:0:
192,160,130402,1,12,0:0:0:0:
224,160,130572,1,0,0:0:0:0:
224,160,130913,1,0,0:0:0:0:
192,160,131254,1,4,0:0:0:0:
192,160,131425,1,4,0:0:0:0:
192,160,131595,1,4,0:0:0:0:
192,160,131765,1,4,0:0:0:0:
192,160,131936,1,4,0:0:0:0:
160,192,132277,1,12,0:0:0:0:
256,192,132618,1,12,0:0:0:0:
256,192,132788,1,0,0:0:0:0:
224,192,132873,1,0,0:0:0:0:
224,192,132959,1,8,0:0:0:0:
256,192,133129,1,0,0:0:0:0:
256,192,133300,1,8,0:0:0:0:
192,192,133470,1,0,0:0:0:0:
256,192,133641,1,8,0:0:0:0:
256,192,133811,1,0,0:0:0:0:
256,192,133981,1,0,0:0:0:0:
256,192,134067,1,8,0:0:0:0:
256,192,134152,1,0,0:0:0:0:
256,192,134237,1,0,0:0:0:0:
256,192,134322,1,8,0:0:0:0:
256,192,134493,1,0,0:0:0:0:
256,192,134663,1,8,0:0:0:0:
256,192,134834,1,8,0:0:0:0:
256,192,134919,1,0,0:0:0:0:
224,192,135004,1,8,0:0:0:0:
256,192,135175,1,8,0:0:0:0:
256,192,135345,1,8,0:0:0:0:
256,192,135430,1,0,0:0:0:0:
288,192,135516,1,8,0:0:0:0:
256,192,135601,1,0,0:0:0:0:
256,192,135686,1,0,0:0:0:0:
256,192,135856,1,8,0:0:0:0:
256,192,136027,1,8,0:0:0:0:
256,192,136197,1,0,0:0:0:0:
256,192,136368,1,0,0:0:0:0:
256,192,136453,1,8,0:0:0:0:
256,192,136538,1,0,0:0:0:0:
256,192,136709,1,0,0:0:0:0:
256,192,136879,1,0,0:0:0:0:
256,192,137050,1,8,0:0:0:0:
256,192,137220,1,0,0:0:0:0:
256,192,137391,1,8,0:0:0:0:
256,192,137476,1,0,0:0:0:0:
224,192,137561,1,0,0:0:0:0:
256,192,137646,1,8,0:0:0:0:
256,192,137731,1,0,0:0:0:0:
256,192,137902,1,12,0:0:0:0:
256,192,138072,1,8,0:0:0:0:
256,192,138158,1,0,0:0:0:0:
256,192,138328,1,0,0:0:0:0:
256,192,138413,1,8,0:0:0:0:
256,192,138498,1,8,0:0:0:0:
256,192,138584,1,0,0:0:0:0:
256,192,138754,1,0,0:0:0:0:
256,192,138925,1,0,0:0:0:0:
256,192,139095,1,8,0:0:0:0:
256,192,139436,1,0,0:0:0:0:
256,192,139777,1,8,0:0:0:0:
256,192,140118,1,8,0:0:0:0:
256,192,140203,1,0,0:0:0:0:
192,192,140288,1,8,0:0:0:0:
256,192,140373,1,0,0:0:0:0:
192,192,140459,1,0,0:0:0:0:
256,192,140629,1,8,0:0:0:0:
256,192,140800,1,0,0:0:0:0:
256,192,140885,1,8,0:0:0:0:
256,192,140970,1,0,0:0:0:0:
256,192,141055,1,0,0:0:0:0:
256,192,141141,1,8,0:0:0:0:
256,192,141311,1,8,0:0:0:0:
256,192,141481,1,0,0:0:0:0:
256,192,141567,1,8,0:0:0:0:
256,192,141652,1,0,0:0:0:0:
256,192,141737,1,0,0:0:0:0:
256,192,141822,1,8,0:0:0:0:
256,192,141993,1,8,0:0:0:0:
256,192,142163,1,0,0:0:0:0:
256,192,142248,1,8,0:0:0:0:
256,192,142334,1,0,0:0:0:0:
256,192,142419,1,0,0:0:0:0:
256,192,142504,1,8,0:0:0:0:
256,192,142675,1,8,0:0:0:0:
256,192,142845,1,8,0:0:0:0:
256,192,142930,1,8,0:0:0:0:
256,192,143016,1,0,0:0:0:0:
256,192,143101,1,0,0:0:0:0:
256,192,143186,1,0,0:0:0:0:
256,192,143271,1,0,0:0:0:0:
256,192,143356,1,8,0:0:0:0:
256,192,143442,1,8,0:0:0:0:
256,192,143527,1,0,0:0:0:0:
256,192,143697,1,0,0:0:0:0:
256,192,143868,1,8,0:0:0:0:
256,192,144038,1,8,0:0:0:0:
256,192,144123,1,0,0:0:0:0:
256,192,144209,1,0,0:0:0:0:
256,192,144379,1,0,0:0:0:0:
256,192,144550,1,8,0:0:0:0:
288,192,144720,1,0,0:0:0:0:
256,192,144891,1,0,0:0:0:0:
256,192,145061,1,0,0:0:0:0:
256,192,145231,1,8,0:0:0:0:
256,192,145402,1,8,0:0:0:0:
256,192,145487,1,0,0:0:0:0:
256,192,145572,1,0,0:0:0:0:
256,192,145743,1,0,0:0:0:0:
256,192,145913,1,8,0:0:0:0:
256,192,146254,1,0,0:0:0:0:
256,192,146425,1,0,0:0:0:0:
256,192,146595,1,8,0:0:0:0:
256,192,146766,1,8,0:0:0:0:
256,192,146851,1,0,0:0:0:0:
256,192,146936,1,8,0:0:0:0:
256,192,147106,1,8,0:0:0:0:
256,192,147277,1,0,0:0:0:0:
256,192,147447,1,0,0:0:0:0:
256,192,147618,1,8,0:0:0:0:
256,192,147703,1,0,0:0:0:0:
256,192,147788,1,0,0:0:0:0:
256,192,147873,1,8,0:0:0:0:
256,192,147959,1,0,0:0:0:0:
256,192,148129,1,8,0:0:0:0:
256,192,148300,1,0,0:0:0:0:
256,192,148470,1,8,0:0:0:0:
256,192,148555,1,0,0:0:0:0:
256,192,148641,1,0,0:0:0:0:
224,192,148811,1,8,0:0:0:0:
224,192,148896,1,8,0:0:0:0:
256,192,148981,1,0,0:0:0:0:
256,192,149152,1,0,0:0:0:0:
256,192,149237,1,0,0:0:0:0:
256,192,149322,1,8,0:0:0:0:
256,192,149493,1,8,0:0:0:0:
256,192,149663,1,0,0:0:0:0:
256,192,149834,1,0,0:0:0:0:
256,192,150004,1,8,0:0:0:0:
256,192,150175,1,0,0:0:0:0:
192,192,150345,1,0,0:0:0:0:
288,192,150516,1,0,0:0:0:0:
256,192,150601,1,0,0:0:0:0:
256,192,150686,1,8,0:0:0:0:
256,192,150856,1,0,0:0:0:0:
256,192,151027,1,0,0:0:0:0:
256,192,151197,1,8,0:0:0:0:
256,192,151368,1,8,0:0:0:0:
256,192,151453,1,0,0:0:0:0:
256,192,151538,1,8,0:0:0:0:
256,192,151623,1,8,0:0:0:0:
256,192,151709,1,0,0:0:0:0:
256,192,151879,1,0,0:0:0:0:
256,192,152050,1,8,0:0:0:0:
256,192,152220,1,8,0:0:0:0:
256,192,152305,1,0,0:0:0:0:
256,192,152391,1,0,0:0:0:0:
256,192,152561,1,0,0:0:0:0:
256,192,152731,1,8,0:0:0:0:
256,192,152902,1,0,0:0:0:0:
256,192,153072,12,0,154095,0:0:0:0:
256,192,154436,5,0,0:0:0:0:
256,192,154692,1,8,0:0:0:0:
256,192,154777,1,0,0:0:0:0:
256,192,154947,1,0,0:0:0:0:
256,192,155118,1,0,0:0:0:0:
256,192,155203,1,8,0:0:0:0:
256,192,155288,1,8,0:0:0:0:
256,192,155459,1,8,0:0:0:0:
256,192,155629,1,0,0:0:0:0:
192,160,155800,1,12,0:0:0:0:
192,160,156141,1,8,0:0:0:0:
192,160,156482,1,8,0:0:0:0:
192,160,156652,1,8,0:0:0:0:
192,160,156823,1,8,0:0:0:0:
192,160,157164,1,8,0:0:0:0:
192,160,157334,1,8,0:0:0:0:
192,160,157504,1,8,0:0:0:0:
192,160,157675,1,8,0:0:0:0:
192,160,157845,1,8,0:0:0:0:
192,160,158186,1,4,0:0:0:0:
256,192,158527,1,8,0:0:0:0:
256,192,158868,1,8,0:0:0:0:
256,192,159209,1,8,0:0:0:0:
256,192,159379,1,8,0:0:0:0:
256,192,159550,1,8,0:0:0:0:
256,192,159891,1,8,0:0:0:0:
256,192,160061,1,8,0:0:0:0:
256,192,160232,1,8,0:0:0:0:
256,192,160402,1,8,0:0:0:0:
256,192,160573,1,8,0:0:0:0:
256,192,160658,1,0,0:0:0:0:
256,192,160743,1,0,0:0:0:0:
256,192,160828,1,8,0:0:0:0:
256,192,160914,1,0,0:0:0:0:
256,192,160999,1,0,0:0:0:0:
256,192,161084,1,8,0:0:0:0:
256,192,161169,1,0,0:0:0:0:
224,192,161254,1,0,0:0:0:0:
256,128,161425,1,0,0:0:0:0:
256,128,161595,1,8,0:0:0:0:
256,192,161766,1,0,0:0:0:0:
256,192,161851,1,0,0:0:0:0:
256,128,161936,1,8,0:0:0:0:
256,128,162107,1,8,0:0:0:0:
256,128,162192,1,0,0:0:0:0:
256,128,162277,1,0,0:0:0:0:
256,128,162448,1,8,0:0:0:0:
256,128,162618,1,0,0:0:0:0:
256,128,162703,1,0,0:0:0:0:
256,128,162788,1,8,0:0:0:0:
256,128,162874,1,8,0:0:0:0:
256,128,162959,1,0,0:0:0:0:
256,128,163129,1,8,0:0:0:0:
256,128,163300,1,0,0:0:0:0:
256,128,163470,1,8,0:0:0:0:
256,128,163556,1,0,0:0:0:0:
256,128,163641,1,0,0:0:0:0:
256,128,163811,1,8,0:0:0:0:
256,128,163981,1,0,0:0:0:0:
224,192,164152,1,0,0:0:0:0:
256,128,164323,1,8,0:0:0:0:
256,128,164493,1,0,0:0:0:0:
256,128,164664,1,8,0:0:0:0:
256,128,164834,1,0,0:0:0:0:
256,128,164919,1,0,0:0:0:0:
256,128,165004,1,8,0:0:0:0:
256,128,165175,1,0,0:0:0:0:
256,128,165345,1,8,0:0:0:0:
256,128,165431,1,8,0:0:0:0:
256,128,165516,1,0,0:0:0:0:
256,128,165601,1,0,0:0:0:0:
256,128,165686,1,8,0:0:0:0:
256,128,165857,1,0,0:0:0:0:
256,128,166027,1,8,0:0:0:0:
256,128,166198,1,8,0:0:0:0:
256,128,166368,1,0,0:0:0:0:
256,128,166539,1,8,0:0:0:0:
192,128,166624,1,8,0:0:0:0:
256,128,166709,1,0,0:0:0:0:
256,128,166879,1,0,0:0:0:0:
256,128,167050,1,8,0:0:0:0:
224,128,167220,1,0,0:0:0:0:
224,128,167306,1,0,0:0:0:0:
224,128,167391,1,8,0:0:0:0:
224,128,167561,1,8,0:0:0:0:
224,128,167646,1,0,0:0:0:0:
224,128,167732,1,0,0:0:0:0:
224,128,167902,1,8,0:0:0:0:
224,128,168073,1,0,0:0:0:0:
256,128,168158,1,0,0:0:0:0:
224,128,168243,1,8,0:0:0:0:
224,128,168328,1,8,0:0:0:0:
224,128,168414,1,0,0:0:0:0:
224,128,168584,1,8,0:0:0:0:
224,128,168754,1,0,0:0:0:0:
224,128,168925,1,8,0:0:0:0:
224,128,169010,1,0,0:0:0:0:
224,160,169095,1,0,0:0:0:0:
224,128,169266,1,8,0:0:0:0:
224,160,169436,1,0,0:0:0:0:
256,128,169607,1,0,0:0:0:0:
224,160,169777,1,8,0:0:0:0:
224,160,169948,1,0,0:0:0:0:
224,160,170118,1,8,0:0:0:0:
224,160,170289,1,0,0:0:0:0:
224,160,170374,1,0,0:0:0:0:
224,160,170459,5,8,0:0:0:0:
224,160,170629,1,0,0:0:0:0:
224,160,170800,1,8,0:0:0:0:
192,160,170885,1,8,0:0:0:0:
192,160,170970,1,0,0:0:0:0:
192,160,171056,1,0,0:0:0:0:
192,160,171141,1,8,0:0:0:0:
192,160,171311,1,0,0:0:0:0:
192,160,171482,1,8,0:0:0:0:
192,160,171652,5,0,0:0:0:0:
224,160,171823,1,8,0:0:0:0:
160,160,171993,1,0,0:0:0:0:
160,160,172163,1,0,0:0:0:0:
224,160,172248,1,0,0:0:0:0:
224,192,172333,1,8,0:0:0:0:
224,192,172418,1,8,0:0:0:0:
224,192,172503,1,0,0:0:0:0:
224,192,172589,1,0,0:0:0:0:
224,192,172674,1,8,0:0:0:0:
224,192,172759,1,0,0:0:0:0:
224,192,172844,1,8,0:0:0:0:
224,192,173015,1,8,0:0:0:0:
224,192,173185,1,0,0:0:0:0:
224,192,173356,1,8,0:0:0:0:
224,192,173526,1,0,0:0:0:0:
224,192,173697,1,0,0:0:0:0:
224,192,173782,1,0,0:0:0:0:
224,192,173867,1,8,0:0:0:0:
224,192,173952,1,8,0:0:0:0:
224,192,174038,1,0,0:0:0:0:
224,192,174123,1,0,0:0:0:0:
224,192,174209,1,8,0:0:0:0:
224,192,174379,1,0,0:0:0:0:
224,192,174464,1,0,0:0:0:0:
224,192,174549,1,8,0:0:0:0:
224,192,174634,1,8,0:0:0:0:
224,192,174720,1,0,0:0:0:0:
224,192,174805,1,0,0:0:0:0:
224,192,174890,1,8,0:0:0:0:
224,192,175060,1,8,0:0:0:0:
224,192,175401,1,0,0:0:0:0:
224,192,175572,1,8,0:0:0:0:
224,192,175742,1,8,0:0:0:0:
256,160,175913,1,0,0:0:0:0:
224,192,176083,1,8,0:0:0:0:
224,192,176253,1,0,0:0:0:0:
224,192,176339,1,0,0:0:0:0:
224,160,176424,1,8,0:0:0:0:
224,192,176509,1,0,0:0:0:0:
224,192,176594,1,8,0:0:0:0:
224,192,176680,1,8,0:0:0:0:
224,192,176765,1,0,0:0:0:0:
224,192,176935,1,0,0:0:0:0:
224,128,177020,1,0,0:0:0:0:
224,192,177106,1,8,0:0:0:0:
224,192,177191,1,0,0:0:0:0:
224,192,177276,1,8,0:0:0:0:
224,160,177361,1,8,0:0:0:0:
224,192,177447,1,0,0:0:0:0:
224,192,177617,1,8,0:0:0:0:
192,192,177788,1,8,0:0:0:0:
192,192,177873,1,8,0:0:0:0:
192,192,177958,1,0,0:0:0:0:
192,192,178043,1,0,0:0:0:0:
192,192,178128,1,8,0:0:0:0:
192,192,178214,1,0,0:0:0:0:
192,192,178299,1,8,0:0:0:0:
192,192,178470,1,8,0:0:0:0:
192,192,178640,1,0,0:0:0:0:
192,192,178810,1,8,0:0:0:0:
256,192,178981,1,0,0:0:0:0:
256,192,179151,1,8,0:0:0:0:
256,192,179236,1,0,0:0:0:0:
256,192,179322,1,8,0:0:0:0:
256,192,179407,1,8,0:0:0:0:
256,192,179492,1,0,0:0:0:0:
256,192,179663,1,0,0:0:0:0:
256,160,179833,1,8,0:0:0:0:
256,160,179918,1,0,0:0:0:0:
256,160,180003,1,8,0:0:0:0:
256,160,180089,1,8,0:0:0:0:
256,160,180174,1,0,0:0:0:0:
256,160,180515,1,8,0:0:0:0:
256,192,180685,1,0,0:0:0:0:
224,192,180856,1,0,0:0:0:0:
256,192,181026,1,8,0:0:0:0:
288,192,181197,1,0,0:0:0:0:
256,192,181367,1,0,0:0:0:0:
256,192,181538,1,8,0:0:0:0:
256,192,181708,1,0,0:0:0:0:
256,192,181793,1,0,0:0:0:0:
256,192,181878,5,0,0:0:0:0:
256,192,181964,1,0,0:0:0:0:
256,192,182049,1,8,0:0:0:0:
256,192,182134,1,8,0:0:0:0:
256,192,182219,1,0,0:0:0:0:
256,192,182391,1,0,0:0:0:0:
256,192,182475,1,0,0:0:0:0:
256,192,182560,1,0,0:0:0:0:
256,192,182645,1,0,0:0:0:0:
256,192,182731,1,8,0:0:0:0:
256,192,182816,1,8,0:0:0:0:
256,192,182901,1,0,0:0:0:0:
256,192,183072,5,12,0:0:0:0:
256,192,183243,1,8,0:0:0:0:
256,192,183328,1,8,0:0:0:0:
256,192,183413,1,0,0:0:0:0:
256,192,183498,1,0,0:0:0:0:
256,192,183584,1,8,0:0:0:0:
256,192,183669,1,0,0:0:0:0:
256,192,183754,1,8,0:0:0:0:
256,192,183925,1,0,0:0:0:0:
256,192,184095,1,8,0:0:0:0:
256,192,184266,1,0,0:0:0:0:
256,192,184436,1,0,0:0:0:0:
256,192,184521,1,0,0:0:0:0:
256,192,184606,1,8,0:0:0:0:
256,192,184692,1,0,0:0:0:0:
256,192,184777,1,8,0:0:0:0:
256,192,184862,1,8,0:0:0:0:
256,192,184947,1,0,0:0:0:0:
256,192,185033,1,0,0:0:0:0:
256,192,185118,1,0,0:0:0:0:
256,192,185203,1,0,0:0:0:0:
256,192,185288,1,8,0:0:0:0:
256,192,185373,1,0,0:0:0:0:
256,192,185459,1,8,0:0:0:0:
256,192,185544,1,8,0:0:0:0:
256,192,185629,1,0,0:0:0:0:
256,192,185714,1,0,0:0:0:0:
256,192,185800,1,0,0:0:0:0:
256,192,185970,1,0,0:0:0:0:
256,192,186141,1,8,0:0:0:0:
256,192,186311,1,0,0:0:0:0:
256,192,186396,1,0,0:0:0:0:
256,192,186481,1,8,0:0:0:0:
256,192,186652,1,8,0:0:0:0:
256,192,186822,1,0,0:0:0:0:
256,192,186993,1,0,0:0:0:0:
288,192,187163,1,0,0:0:0:0:
288,192,187248,1,0,0:0:0:0:
288,192,187334,1,0,0:0:0:0:
288,192,187419,1,0,0:0:0:0:
288,192,187504,1,8,0:0:0:0:
288,192,187589,1,8,0:0:0:0:
288,192,187675,1,0,0:0:0:0:
288,192,187760,1,8,0:0:0:0:
288,192,187845,1,0,0:0:0:0:
288,192,187930,1,0,0:0:0:0:
288,192,188016,1,0,0:0:0:0:
288,192,188101,1,0,0:0:0:0:
288,192,188186,1,8,0:0:0:0:
288,192,188271,1,8,0:0:0:0:
288,192,188356,1,0,0:0:0:0:
288,192,188527,1,12,0:0:0:0:
288,192,188697,1,8,0:0:0:0:
288,192,188783,1,8,0:0:0:0:
288,192,188868,1,0,0:0:0:0:
288,192,188953,1,0,0:0:0:0:
288,192,189038,1,8,0:0:0:0:
288,192,189123,1,0,0:0:0:0:
288,192,189209,1,8,0:0:0:0:
288,192,189379,1,0,0:0:0:0:
288,192,189550,1,8,0:0:0:0:
288,192,189720,1,0,0:0:0:0:
288,192,189891,1,0,0:0:0:0:
288,192,189976,1,0,0:0:0:0:
288,192,190061,1,8,0:0:0:0:
288,192,190147,1,0,0:0:0:0:
288,192,190232,1,8,0:0:0:0:
288,192,190317,1,8,0:0:0:0:
288,192,190402,1,0,0:0:0:0:
288,192,190487,1,0,0:0:0:0:
288,192,190572,1,0,0:0:0:0:
288,192,190658,1,0,0:0:0:0:
288,192,190743,1,8,0:0:0:0:
288,192,190828,1,0,0:0:0:0:
288,192,190913,1,8,0:0:0:0:
288,192,190998,1,8,0:0:0:0:
288,192,191084,1,0,0:0:0:0:
256,192,191169,1,0,0:0:0:0:
288,192,191254,1,0,0:0:0:0:
288,192,191425,1,0,0:0:0:0:
288,192,191595,1,8,0:0:0:0:
288,192,191766,1,0,0:0:0:0:
256,192,191851,1,0,0:0:0:0:
288,192,191936,1,8,0:0:0:0:
288,192,192106,1,8,0:0:0:0:
288,192,192277,1,0,0:0:0:0:
288,192,192447,1,0,0:0:0:0:
288,192,192618,1,0,0:0:0:0:
288,192,192703,1,0,0:0:0:0:
288,192,192788,1,0,0:0:0:0:
288,192,192873,1,0,0:0:0:0:
288,192,192959,1,8,0:0:0:0:
288,192,193044,1,8,0:0:0:0:
288,192,193129,1,0,0:0:0:0:
288,192,193214,1,8,0:0:0:0:
288,192,193300,1,0,0:0:0:0:
288,192,193385,1,0,0:0:0:0:
288,192,193470,1,8,0:0:0:0:
288,192,193555,1,8,0:0:0:0:
288,192,193641,1,8,0:0:0:0:
288,192,193726,1,8,0:0:0:0:
288,192,193811,1,8,0:0:0:0:
192,160,193981,1,4,0:0:0:0:
192,160,194321,1,0,0:0:0:0:
192,160,194662,1,0,0:0:0:0:
192,160,195003,1,0,0:0:0:0:
192,160,195344,1,12,0:0:0:0:
224,192,195686,1,0,0:0:0:0:
192,160,195856,1,12,0:0:0:0:
224,192,196027,1,0,0:0:0:0:
224,224,196368,1,0,0:0:0:0:
192,160,196708,1,4,0:0:0:0:
192,160,197049,1,0,0:0:0:0:
192,160,197390,1,0,0:0:0:0:
192,160,197731,1,0,0:0:0:0:
192,160,198071,1,12,0:0:0:0:
224,224,198413,1,0,0:0:0:0:
192,160,198583,1,12,0:0:0:0:
224,224,198754,1,0,0:0:0:0:
224,224,199095,1,0,0:0:0:0:
192,160,199435,1,4,0:0:0:0:
192,160,199606,1,4,0:0:0:0:
192,160,199776,1,4,0:0:0:0:
192,160,199946,1,4,0:0:0:0:
192,160,200117,1,4,0:0:0:0:
192,192,200458,1,12,0:0:0:0:
