osu file format v14

[General]
AudioFilename: audio.mp3
AudioLeadIn: 0
PreviewTime: 161254
Countdown: 0
SampleSet: Normal
StackLeniency: 0.7
Mode: 1
LetterboxInBreaks: 0
WidescreenStoryboard: 0

[Editor]
Bookmarks: 18072,31709,76709,132618,143527
DistanceSpacing: 2.5
BeatDivisor: 4
GridSize: 32
TimelineZoom: 2.1

[Metadata]
Title:Digital Coffee 2017
TitleUnicode:Digital Coffee 2017
Artist:POLYSICS
ArtistUnicode:POLYSICS
Creator:Karee Pan
Version:Oni
Source:
Tags:
BeatmapID:1343659
BeatmapSetID:633042

[Difficulty]
HPDrainRate:5
CircleSize:5
OverallDifficulty:5.5
ApproachRate:5
SliderMultiplier:1.4
SliderTickRate:1

[Events]
//Background and Video events
0,0,"polysics.jpg",0,0
//Break Periods
//Storyboard Layer 0 (Background)
//Storyboard Layer 1 (Fail)
//Storyboard Layer 2 (Pass)
//Storyboard Layer 3 (Foreground)
//Storyboard Sound Samples

[TimingPoints]
5800.13612830405,340.909090909091,4,1,0,80,1,0
16709,-100,4,1,0,90,0,0
18072,-100,4,1,0,70,0,0
29067,-125,4,1,0,80,0,0
31709,-100,4,1,0,70,0,0
53527,-125,4,1,0,70,0,0
58470,-100,4,1,0,70,0,0
58981,-100,4,1,0,90,0,1
69891,-100,4,1,0,80,0,0
76709,-100,4,1,0,70,0,0
98612,-125,4,1,0,80,0,0
103470,-100,4,1,0,80,0,0
103981,-100,4,1,0,90,0,1
125800,-100,4,1,0,90,0,0
155885,-125,4,1,0,90,0,0
160743,-100,4,1,0,90,0,0
161254,-100,4,1,0,90,0,1
193981,-100,4,1,0,80,0,0

[HitObjects]
288,192,5800,5,4,0:0:0:0:
288,192,6141,1,0,0:0:0:0:
288,192,6481,1,0,0:0:0:0:
288,192,6822,1,0,0:0:0:0:
256,192,7163,1,12,0:0:0:0:
256,192,7675,1,12,0:0:0:0:
256,192,8527,1,4,0:0:0:0:
288,192,8868,1,0,0:0:0:0:
288,192,9209,1,0,0:0:0:0:
288,192,9550,1,0,0:0:0:0:
256,192,9890,1,12,0:0:0:0:
256,192,10402,1,12,0:0:0:0:
288,192,11254,5,4,0:0:0:0:
288,192,11595,1,0,0:0:0:0:
288,192,11936,1,0,0:0:0:0:
288,192,12277,1,0,0:0:0:0:
256,192,12617,1,12,0:0:0:0:
256,192,13129,1,12,0:0:0:0:
256,192,13981,1,4,0:0:0:0:
256,192,14322,1,0,0:0:0:0:
256,192,14663,1,0,0:0:0:0:
256,192,15004,1,0,0:0:0:0:
256,192,15344,1,12,0:0:0:0:
256,192,15856,1,12,0:0:0:0:
256,192,16708,1,4,0:0:0:0:
256,192,16879,5,4,0:0:0:0:
256,192,17049,1,4,0:0:0:0:
256,192,17219,1,4,0:0:0:0:
256,192,17390,1,4,0:0:0:0:
256,192,17731,1,12,0:0:0:0:
256,192,18072,5,12,0:0:0:0:
231,201,18243,1,0,0:0:0:0:
256,192,18413,1,8,0:0:0:0:
256,192,18584,1,8,0:0:0:0:
256,192,18669,1,0,0:0:0:0:
256,192,18754,1,0,0:0:0:0:
256,192,18925,1,0,0:0:0:0:
256,192,19095,1,8,0:0:0:0:
256,192,19436,1,8,0:0:0:0:
256,192,19606,1,0,0:0:0:0:
256,192,19777,1,8,0:0:0:0:
256,192,19947,1,0,0:0:0:0:
256,192,20033,1,0,0:0:0:0:
256,192,20118,1,8,0:0:0:0:
256,192,20288,1,0,0:0:0:0:
256,192,20459,1,8,0:0:0:0:
256,192,20629,1,0,0:0:0:0:
256,192,20800,1,8,0:0:0:0:
256,192,21055,1,0,0:0:0:0:
262,191,21141,1,8,0:0:0:0:
256,192,21311,1,8,0:0:0:0:
256,192,21396,1,0,0:0:0:0:
256,192,21481,1,0,0:0:0:0:
256,192,21652,1,0,0:0:0:0:
256,192,21822,1,8,0:0:0:0:
256,192,22163,1,8,0:0:0:0:
256,192,22334,1,0,0:0:0:0:
256,192,22504,1,8,0:0:0:0:
256,192,22675,1,0,0:0:0:0:
256,192,22760,1,0,0:0:0:0:
256,192,22845,1,8,0:0:0:0:
256,192,23101,1,8,0:0:0:0:
256,192,23186,1,0,0:0:0:0:
256,192,23356,1,8,0:0:0:0:
256,192,23527,1,0,0:0:0:0:
256,192,23868,1,8,0:0:0:0:
256,192,24038,1,8,0:0:0:0:
256,192,24123,1,0,0:0:0:0:
256,192,24209,1,0,0:0:0:0:
256,192,24379,1,0,0:0:0:0:
256,192,24550,1,8,0:0:0:0:
256,192,24891,1,8,0:0:0:0:
256,192,25061,1,0,0:0:0:0:
256,192,25231,1,8,0:0:0:0:
256,192,25402,1,0,0:0:0:0:
256,192,25487,1,0,0:0:0:0:
256,192,25572,1,8,0:0:0:0:
256,192,25743,1,0,0:0:0:0:
256,192,25913,1,8,0:0:0:0:
256,192,26084,1,0,0:0:0:0:
256,192,26254,1,0,0:0:0:0:
256,192,26510,1,0,0:0:0:0:
266,195,26595,1,8,0:0:0:0:
256,192,26766,1,8,0:0:0:0:
256,192,26851,1,0,0:0:0:0:
256,192,26936,1,0,0:0:0:0:
256,192,27106,1,0,0:0:0:0:
256,192,27277,1,8,0:0:0:0:
256,192,27447,1,0,0:0:0:0:
256,192,27618,1,8,0:0:0:0:
256,192,27788,1,8,0:0:0:0:
256,192,27959,1,8,0:0:0:0:
256,192,28129,1,0,0:0:0:0:
256,192,28300,1,8,0:0:0:0:
256,224,28385,1,8,0:0:0:0:
256,224,28470,1,0,0:0:0:0:
256,224,28641,1,12,0:0:0:0:
256,224,28981,1,8,0:0:0:0:
256,224,29322,1,8,0:0:0:0:
256,192,29663,1,8,0:0:0:0:
256,192,29834,1,8,0:0:0:0:
256,192,30004,1,8,0:0:0:0:
256,192,30345,1,8,0:0:0:0:
256,192,30516,1,8,0:0:0:0:
256,192,30686,1,8,0:0:0:0:
256,192,30856,1,8,0:0:0:0:
256,192,31027,1,8,0:0:0:0:
256,192,31368,1,4,0:0:0:0:
256,192,31709,1,12,0:0:0:0:
256,192,31879,1,0,0:0:0:0:
256,192,32050,1,8,0:0:0:0:
224,192,32220,1,8,0:0:0:0:
224,192,32305,1,0,0:0:0:0:
224,192,32391,1,0,0:0:0:0:
224,192,32561,1,0,0:0:0:0:
224,192,32731,1,8,0:0:0:0:
256,224,33072,1,8,0:0:0:0:
224,160,33243,1,0,0:0:0:0:
224,160,33413,1,8,0:0:0:0:
224,160,33584,1,0,0:0:0:0:
224,160,33669,1,0,0:0:0:0:
224,160,33754,1,8,0:0:0:0:
224,160,33925,1,0,0:0:0:0:
224,160,34095,1,0,0:0:0:0:
224,160,34266,1,0,0:0:0:0:
224,160,34436,1,8,0:0:0:0:
224,160,34692,1,0,0:0:0:0:
224,160,34777,1,8,0:0:0:0:
224,160,34947,1,8,0:0:0:0:
224,160,35033,1,0,0:0:0:0:
224,160,35118,1,0,0:0:0:0:
224,160,35288,1,0,0:0:0:0:
224,160,35459,1,8,0:0:0:0:
224,160,35800,1,8,0:0:0:0:
224,160,35970,1,0,0:0:0:0:
224,160,36141,1,8,0:0:0:0:
224,160,36311,1,0,0:0:0:0:
256,192,36396,1,0,0:0:0:0:
224,160,36481,1,8,0:0:0:0:
224,160,36737,1,8,0:0:0:0:
224,160,36822,1,0,0:0:0:0:
224,160,36993,1,8,0:0:0:0:
224,160,37163,1,0,0:0:0:0:
224,160,37504,1,8,0:0:0:0:
224,160,37675,1,8,0:0:0:0:
224,160,37760,1,0,0:0:0:0:
224,160,37845,1,0,0:0:0:0:
224,160,38016,1,0,0:0:0:0:
224,160,38186,1,8,0:0:0:0:
224,160,38356,1,8,0:0:0:0:
30,162,38697,1,0,0:0:0:0:
256,160,38868,1,8,0:0:0:0:
160,160,39038,1,0,0:0:0:0:
224,160,39209,1,0,0:0:0:0:
224,160,39379,1,8,0:0:0:0:
137,139,39550,1,0,0:0:0:0:
254,164,39720,1,8,0:0:0:0:
224,160,39891,1,0,0:0:0:0:
224,192,40146,1,0,0:0:0:0:
224,128,40231,1,8,0:0:0:0:
224,128,40402,1,8,0:0:0:0:
224,128,40487,1,0,0:0:0:0:
224,128,40572,1,0,0:0:0:0:
224,128,40743,1,0,0:0:0:0:
224,128,40913,1,8,0:0:0:0:
224,160,41084,1,0,0:0:0:0:
224,128,41254,1,8,0:0:0:0:
224,128,41425,1,8,0:0:0:0:
224,128,41595,1,8,0:0:0:0:
224,128,41766,1,0,0:0:0:0:
224,128,41851,1,0,0:0:0:0:
224,128,41936,1,8,0:0:0:0:
256,128,42192,1,8,0:0:0:0:
224,128,42277,1,0,0:0:0:0:
224,128,42447,1,12,0:0:0:0:
224,128,42618,1,0,0:0:0:0:
224,128,42959,1,8,0:0:0:0:
224,128,43129,1,8,0:0:0:0:
224,128,43214,1,0,0:0:0:0:
224,128,43300,1,0,0:0:0:0:
224,128,43470,1,0,0:0:0:0:
224,128,43641,1,8,0:0:0:0:
224,128,43981,1,0,0:0:0:0:
160,128,44152,1,8,0:0:0:0:
224,128,44237,1,8,0:0:0:0:
256,128,44322,1,0,0:0:0:0:
224,128,44493,1,8,0:0:0:0:
224,160,44663,1,0,0:0:0:0:
224,160,44748,1,0,0:0:0:0:
224,128,44834,1,0,0:0:0:0:
224,128,45004,1,8,0:0:0:0:
224,128,45175,1,0,0:0:0:0:
224,128,45345,1,0,0:0:0:0:
224,128,45686,1,8,0:0:0:0:
224,128,45856,1,8,0:0:0:0:
224,128,45942,1,0,0:0:0:0:
224,128,46027,1,0,0:0:0:0:
224,128,46197,1,0,0:0:0:0:
224,128,46368,1,8,0:0:0:0:
224,128,46709,1,0,0:0:0:0:
224,160,46879,1,8,0:0:0:0:
224,128,46965,1,8,0:0:0:0:
224,128,47050,1,0,0:0:0:0:
224,128,47220,1,8,0:0:0:0:
224,128,47391,1,0,0:0:0:0:
256,160,47476,1,0,0:0:0:0:
224,128,47561,1,8,0:0:0:0:
224,128,47731,1,0,0:0:0:0:
224,128,47902,1,12,0:0:0:0:
256,128,48072,1,0,0:0:0:0:
256,128,48413,1,8,0:0:0:0:
256,128,48584,1,8,0:0:0:0:
256,128,48669,1,0,0:0:0:0:
256,128,48754,1,0,0:0:0:0:
256,128,48925,1,0,0:0:0:0:
224,128,49095,1,8,0:0:0:0:
256,128,49436,1,0,0:0:0:0:
256,128,49606,1,8,0:0:0:0:
256,128,49692,1,8,0:0:0:0:
256,128,49777,1,0,0:0:0:0:
256,128,49947,1,0,0:0:0:0:
256,128,50118,1,8,0:0:0:0:
256,128,50288,1,0,0:0:0:0:
256,128,50459,1,8,0:0:0:0:
256,128,50800,1,0,0:0:0:0:
169,135,50970,1,0,0:0:0:0:
256,128,51141,1,8,0:0:0:0:
256,128,51226,1,0,0:0:0:0:
224,128,51311,1,0,0:0:0:0:
224,128,51482,1,8,0:0:0:0:
256,128,51567,1,8,0:0:0:0:
250,136,51652,1,0,0:0:0:0:
256,128,51737,1,0,0:0:0:0:
263,132,51822,1,8,0:0:0:0:
224,128,51993,1,0,0:0:0:0:
256,128,52163,1,8,0:0:0:0:
256,128,52334,1,0,0:0:0:0:
224,128,52419,1,0,0:0:0:0:
256,128,52504,1,8,0:0:0:0:
256,128,52675,1,0,0:0:0:0:
256,128,52845,1,8,0:0:0:0:
224,128,52930,1,8,0:0:0:0:
256,128,53016,1,0,0:0:0:0:
256,128,53186,1,12,0:0:0:0:
256,128,53527,1,8,0:0:0:0:
256,128,53868,1,8,0:0:0:0:
256,128,54209,1,8,0:0:0:0:
256,128,54379,1,8,0:0:0:0:
256,128,54550,1,8,0:0:0:0:
256,128,54891,1,8,0:0:0:0:
256,128,55061,1,8,0:0:0:0:
256,128,55231,1,8,0:0:0:0:
256,128,55402,1,8,0:0:0:0:
256,128,55572,1,8,0:0:0:0:
256,128,55913,1,4,0:0:0:0:
256,128,56254,1,8,0:0:0:0:
256,128,56595,1,8,0:0:0:0:
256,128,56936,1,8,0:0:0:0:
256,128,57106,1,8,0:0:0:0:
256,128,57277,1,8,0:0:0:0:
256,128,57618,1,8,0:0:0:0:
256,128,57788,1,8,0:0:0:0:
256,128,57959,1,8,0:0:0:0:
256,128,58129,1,8,0:0:0:0:
256,128,58300,1,8,0:0:0:0:
260,129,58470,1,8,0:0:0:0:
260,129,58555,1,8,0:0:0:0:
256,128,58641,1,8,0:0:0:0:
256,128,58726,1,8,0:0:0:0:
256,128,58811,1,8,0:0:0:0:
256,128,58896,1,8,0:0:0:0:
256,128,58981,1,0,0:0:0:0:
288,224,59152,1,0,0:0:0:0:
256,128,59322,1,8,0:0:0:0:
256,128,59493,1,0,0:0:0:0:
256,128,59578,1,0,0:0:0:0:
256,128,59663,1,8,0:0:0:0:
256,128,59834,1,0,0:0:0:0:
256,128,60004,1,8,0:0:0:0:
256,128,60175,1,0,0:0:0:0:
256,128,60345,1,0,0:0:0:0:
256,128,60516,1,8,0:0:0:0:
256,128,60686,1,0,0:0:0:0:
256,128,60856,1,8,0:0:0:0:
256,128,60942,1,8,0:0:0:0:
256,128,61027,1,0,0:0:0:0:
256,128,61197,1,8,0:0:0:0:
256,128,61368,1,0,0:0:0:0:
256,128,61538,1,8,0:0:0:0:
256,128,61623,1,0,0:0:0:0:
256,128,61709,1,0,0:0:0:0:
256,128,62050,1,8,0:0:0:0:
256,128,62220,1,0,0:0:0:0:
256,128,62391,1,8,0:0:0:0:
256,128,62561,1,0,0:0:0:0:
256,128,62646,1,0,0:0:0:0:
256,128,62731,1,8,0:0:0:0:
256,128,62902,1,0,0:0:0:0:
256,128,63072,1,8,0:0:0:0:
256,128,63158,1,8,0:0:0:0:
256,128,63242,1,0,0:0:0:0:
256,128,63328,1,0,0:0:0:0:
256,128,63413,1,8,0:0:0:0:
256,128,63584,1,0,0:0:0:0:
256,128,63754,1,8,0:0:0:0:
256,128,64095,1,8,0:0:0:0:
256,128,64266,1,0,0:0:0:0:
256,128,64351,1,0,0:0:0:0:
256,128,64436,1,0,0:0:0:0:
256,128,64606,1,0,0:0:0:0:
256,128,64777,1,8,0:0:0:0:
256,128,64947,1,0,0:0:0:0:
256,128,65033,1,0,0:0:0:0:
256,128,65118,1,8,0:0:0:0:
256,128,65288,1,0,0:0:0:0:
256,128,65459,1,8,0:0:0:0:
288,128,65629,1,0,0:0:0:0:
256,128,65800,1,0,0:0:0:0:
256,128,65970,1,8,0:0:0:0:
256,128,66141,1,0,0:0:0:0:
288,192,66311,1,8,0:0:0:0:
288,192,66396,1,8,0:0:0:0:
288,192,66481,1,0,0:0:0:0:
288,192,66652,1,8,0:0:0:0:
288,192,66822,1,0,0:0:0:0:
288,192,66993,1,8,0:0:0:0:
288,192,67078,1,0,0:0:0:0:
288,192,67163,1,0,0:0:0:0:
288,192,67504,1,8,0:0:0:0:
288,192,67675,1,0,0:0:0:0:
288,192,67845,1,8,0:0:0:0:
288,192,68016,1,0,0:0:0:0:
288,192,68101,1,0,0:0:0:0:
288,192,68186,1,8,0:0:0:0:
256,160,68356,1,0,0:0:0:0:
224,192,68527,1,8,0:0:0:0:
288,192,68612,1,8,0:0:0:0:
288,192,68697,1,0,0:0:0:0:
288,192,68783,1,0,0:0:0:0:
288,192,68868,1,8,0:0:0:0:
288,192,69038,1,0,0:0:0:0:
288,192,69209,1,0,0:0:0:0:
288,192,69379,1,8,0:0:0:0:
288,192,69464,1,8,0:0:0:0:
288,192,69550,1,8,0:0:0:0:
288,192,69635,1,8,0:0:0:0:
288,192,69720,1,8,0:0:0:0:
288,192,69891,1,4,0:0:0:0:
256,192,70231,1,0,0:0:0:0:
256,192,70572,1,0,0:0:0:0:
256,192,70913,1,0,0:0:0:0:
256,192,71254,1,12,0:0:0:0:
256,192,71766,1,12,0:0:0:0:
256,192,72618,1,4,0:0:0:0:
128,192,72959,1,0,0:0:0:0:
128,192,73300,1,0,0:0:0:0:
128,192,73641,1,0,0:0:0:0:
256,192,73981,1,12,0:0:0:0:
256,192,74493,1,12,0:0:0:0:
256,192,75345,1,4,0:0:0:0:
256,192,75516,1,4,0:0:0:0:
256,192,75686,1,4,0:0:0:0:
256,192,75856,1,4,0:0:0:0:
256,192,76027,1,4,0:0:0:0:
256,192,76368,1,12,0:0:0:0:
256,192,76709,1,12,0:0:0:0:
256,192,76879,1,0,0:0:0:0:
256,192,77050,1,8,0:0:0:0:
256,192,77220,1,8,0:0:0:0:
256,192,77305,1,0,0:0:0:0:
256,192,77391,1,0,0:0:0:0:
256,192,77561,1,0,0:0:0:0:
256,192,77731,1,8,0:0:0:0:
256,192,78072,1,8,0:0:0:0:
256,192,78243,1,0,0:0:0:0:
256,192,78413,1,8,0:0:0:0:
256,192,78584,1,0,0:0:0:0:
256,192,78669,1,0,0:0:0:0:
256,192,78754,1,8,0:0:0:0:
256,192,78925,1,8,0:0:0:0:
256,192,79095,1,8,0:0:0:0:
256,160,79266,1,0,0:0:0:0:
256,160,79436,1,0,0:0:0:0:
256,160,79606,1,8,0:0:0:0:
256,160,79777,1,8,0:0:0:0:
256,160,79947,1,8,0:0:0:0:
256,160,80033,1,0,0:0:0:0:
256,160,80118,1,0,0:0:0:0:
256,160,80288,1,0,0:0:0:0:
256,160,80459,1,8,0:0:0:0:
256,192,80800,1,0,0:0:0:0:
256,192,80970,1,8,0:0:0:0:
256,160,81141,1,8,0:0:0:0:
256,160,81311,1,0,0:0:0:0:
256,160,81396,1,0,0:0:0:0:
256,192,81481,1,8,0:0:0:0:
256,192,81737,1,8,0:0:0:0:
256,192,81822,1,0,0:0:0:0:
256,192,81993,1,8,0:0:0:0:
256,160,82163,1,12,0:0:0:0:
224,160,82504,1,12,0:0:0:0:
224,160,82845,1,4,0:0:0:0:
256,160,83356,1,8,0:0:0:0:
256,160,83527,1,0,0:0:0:0:
256,160,83697,1,0,0:0:0:0:
256,160,83868,1,8,0:0:0:0:
256,160,84038,1,0,0:0:0:0:
256,160,84209,1,0,0:0:0:0:
256,192,84294,1,0,0:0:0:0:
256,192,84379,1,8,0:0:0:0:
256,192,84550,1,0,0:0:0:0:
256,160,84891,1,8,0:0:0:0:
256,160,85061,1,0,0:0:0:0:
256,160,85231,1,8,0:0:0:0:
256,160,85402,1,8,0:0:0:0:
256,192,85487,1,0,0:0:0:0:
288,192,85572,1,0,0:0:0:0:
256,160,85743,1,0,0:0:0:0:
256,160,85913,1,8,0:0:0:0:
256,160,86084,1,0,0:0:0:0:
256,160,86254,1,8,0:0:0:0:
256,160,86595,1,8,0:0:0:0:
224,160,86766,1,0,0:0:0:0:
256,160,86851,1,0,0:0:0:0:
256,160,86936,1,8,0:0:0:0:
256,160,87192,1,8,0:0:0:0:
256,160,87277,1,0,0:0:0:0:
256,160,87447,1,12,0:0:0:0:
224,128,87618,1,0,0:0:0:0:
256,160,87959,1,8,0:0:0:0:
256,160,88129,1,8,0:0:0:0:
256,160,88214,1,0,0:0:0:0:
256,160,88300,1,0,0:0:0:0:
256,160,88470,1,0,0:0:0:0:
256,160,88641,1,8,0:0:0:0:
256,160,88981,1,0,0:0:0:0:
224,160,89152,1,8,0:0:0:0:
256,160,89237,1,8,0:0:0:0:
256,160,89322,1,0,0:0:0:0:
256,160,89493,1,8,0:0:0:0:
256,160,89663,1,0,0:0:0:0:
256,96,89748,1,0,0:0:0:0:
256,160,89834,1,0,0:0:0:0:
256,160,90004,1,8,0:0:0:0:
256,160,90175,1,8,0:0:0:0:
256,160,90345,1,0,0:0:0:0:
256,128,90516,1,0,0:0:0:0:
256,160,90686,1,8,0:0:0:0:
256,160,90856,1,8,0:0:0:0:
256,160,90942,1,0,0:0:0:0:
256,160,91027,1,0,0:0:0:0:
256,160,91197,1,0,0:0:0:0:
256,160,91368,1,8,0:0:0:0:
256,160,91709,1,0,0:0:0:0:
256,160,91879,1,8,0:0:0:0:
256,160,91965,1,8,0:0:0:0:
256,160,92050,1,0,0:0:0:0:
256,160,92220,1,8,0:0:0:0:
256,160,92391,1,0,0:0:0:0:
256,160,92476,1,0,0:0:0:0:
256,160,92561,1,8,0:0:0:0:
256,160,92731,1,0,0:0:0:0:
256,160,92902,1,12,0:0:0:0:
256,160,93072,1,0,0:0:0:0:
256,160,93413,1,8,0:0:0:0:
256,160,93584,1,8,0:0:0:0:
256,160,93669,1,0,0:0:0:0:
256,160,93754,1,0,0:0:0:0:
256,160,93925,1,0,0:0:0:0:
256,160,94095,1,8,0:0:0:0:
320,160,94436,1,0,0:0:0:0:
256,160,94606,1,8,0:0:0:0:
256,160,94692,1,8,0:0:0:0:
256,160,94777,1,0,0:0:0:0:
256,160,94947,1,8,0:0:0:0:
256,160,95118,1,0,0:0:0:0:
288,160,95203,1,0,0:0:0:0:
256,160,95288,1,8,0:0:0:0:
256,160,95459,1,8,0:0:0:0:
256,160,95800,1,8,0:0:0:0:
288,160,95970,1,0,0:0:0:0:
288,160,96055,1,0,0:0:0:0:
256,160,96141,1,8,0:0:0:0:
256,160,96311,1,0,0:0:0:0:
256,160,96396,1,0,0:0:0:0:
256,160,96481,1,8,0:0:0:0:
256,160,96567,1,8,0:0:0:0:
256,160,96652,1,0,0:0:0:0:
192,128,96822,1,8,0:0:0:0:
256,160,96993,1,0,0:0:0:0:
256,160,97078,1,8,0:0:0:0:
256,160,97163,1,8,0:0:0:0:
256,160,97334,1,0,0:0:0:0:
256,160,97504,1,8,0:0:0:0:
224,128,97589,1,8,0:0:0:0:
256,160,97675,1,0,0:0:0:0:
256,160,97845,1,8,0:0:0:0:
256,160,98016,1,0,0:0:0:0:
256,160,98186,1,8,0:0:0:0:
224,160,98271,1,8,0:0:0:0:
224,160,98356,1,0,0:0:0:0:
192,160,98527,1,12,0:0:0:0:
192,160,98868,1,8,0:0:0:0:
192,160,99209,1,8,0:0:0:0:
192,160,99379,1,8,0:0:0:0:
192,160,99550,1,8,0:0:0:0:
192,160,99891,1,8,0:0:0:0:
192,160,100061,1,8,0:0:0:0:
192,160,100231,1,8,0:0:0:0:
192,160,100402,1,8,0:0:0:0:
192,160,100572,1,8,0:0:0:0:
192,160,100913,1,4,0:0:0:0:
192,160,101254,1,8,0:0:0:0:
192,160,101595,1,8,0:0:0:0:
192,160,101936,1,8,0:0:0:0:
192,160,102106,1,8,0:0:0:0:
192,160,102277,1,8,0:0:0:0:
192,160,102618,1,8,0:0:0:0:
192,160,102788,1,8,0:0:0:0:
192,160,102959,1,8,0:0:0:0:
192,160,103129,1,8,0:0:0:0:
192,160,103300,1,8,0:0:0:0:
192,160,103470,1,8,0:0:0:0:
192,160,103555,1,8,0:0:0:0:
192,160,103641,1,8,0:0:0:0:
192,160,103726,1,8,0:0:0:0:
192,160,103811,1,8,0:0:0:0:
192,160,103896,1,8,0:0:0:0:
192,160,103981,1,0,0:0:0:0:
224,192,104152,1,0,0:0:0:0:
256,128,104322,1,8,0:0:0:0:
256,128,104493,1,0,0:0:0:0:
256,128,104578,1,0,0:0:0:0:
256,128,104663,1,8,0:0:0:0:
256,128,104834,1,0,0:0:0:0:
256,128,105004,1,8,0:0:0:0:
256,160,105175,1,0,0:0:0:0:
256,128,105345,1,0,0:0:0:0:
256,128,105516,1,8,0:0:0:0:
256,128,105686,1,0,0:0:0:0:
256,128,105856,1,8,0:0:0:0:
256,128,105942,1,8,0:0:0:0:
256,128,106027,1,0,0:0:0:0:
256,128,106197,1,8,0:0:0:0:
256,128,106368,1,0,0:0:0:0:
256,128,106538,1,8,0:0:0:0:
256,128,106623,1,0,0:0:0:0:
256,128,106709,1,0,0:0:0:0:
256,128,107050,1,8,0:0:0:0:
256,128,107220,1,0,0:0:0:0:
256,128,107391,1,8,0:0:0:0:
256,128,107561,1,0,0:0:0:0:
256,128,107646,1,0,0:0:0:0:
256,128,107731,1,8,0:0:0:0:
256,128,107902,1,0,0:0:0:0:
256,128,108072,1,8,0:0:0:0:
256,128,108158,1,8,0:0:0:0:
256,128,108242,1,0,0:0:0:0:
256,128,108328,1,0,0:0:0:0:
256,128,108413,1,8,0:0:0:0:
256,128,108584,1,0,0:0:0:0:
256,128,108754,1,8,0:0:0:0:
256,128,109095,1,8,0:0:0:0:
256,128,109266,1,0,0:0:0:0:
256,128,109351,1,0,0:0:0:0:
256,128,109436,1,0,0:0:0:0:
256,128,109606,1,0,0:0:0:0:
256,128,109777,1,8,0:0:0:0:
256,128,109947,1,0,0:0:0:0:
256,128,110033,1,0,0:0:0:0:
256,128,110118,1,8,0:0:0:0:
256,128,110288,1,0,0:0:0:0:
256,128,110459,1,8,0:0:0:0:
96,160,110629,1,0,0:0:0:0:
256,128,110800,1,0,0:0:0:0:
256,128,110970,1,8,0:0:0:0:
256,128,111141,1,0,0:0:0:0:
288,192,111311,1,8,0:0:0:0:
288,192,111396,1,8,0:0:0:0:
288,192,111481,1,0,0:0:0:0:
288,192,111652,1,8,0:0:0:0:
288,192,111822,1,0,0:0:0:0:
288,192,111993,1,8,0:0:0:0:
288,192,112078,1,0,0:0:0:0:
288,192,112163,1,0,0:0:0:0:
288,192,112504,1,8,0:0:0:0:
288,192,112675,1,0,0:0:0:0:
288,192,112845,1,8,0:0:0:0:
288,192,113016,1,0,0:0:0:0:
288,192,113186,1,8,0:0:0:0:
288,192,113271,1,8,0:0:0:0:
288,192,113356,1,0,0:0:0:0:
288,192,113442,1,0,0:0:0:0:
224,192,113527,1,8,0:0:0:0:
288,192,113697,1,0,0:0:0:0:
288,192,113868,1,8,0:0:0:0:
288,192,114038,1,0,0:0:0:0:
288,192,114209,1,0,0:0:0:0:
256,192,114550,1,8,0:0:0:0:
256,192,114720,1,0,0:0:0:0:
256,192,114891,1,8,0:0:0:0:
256,192,114976,1,8,0:0:0:0:
256,192,115061,1,0,0:0:0:0:
256,192,115146,1,0,0:0:0:0:
256,192,115231,1,8,0:0:0:0:
256,192,115402,1,0,0:0:0:0:
256,192,115487,1,0,0:0:0:0:
256,192,115572,1,8,0:0:0:0:
256,192,115743,1,0,0:0:0:0:
256,192,115913,1,0,0:0:0:0:
256,192,116084,1,8,0:0:0:0:
256,192,116425,1,0,0:0:0:0:
256,192,116510,1,0,0:0:0:0:
256,192,116595,1,8,0:0:0:0:
288,192,116680,1,8,0:0:0:0:
256,192,116766,1,0,0:0:0:0:
256,192,117106,1,0,0:0:0:0:
256,192,117192,1,0,0:0:0:0:
256,192,117277,1,8,0:0:0:0:
256,192,117362,1,8,0:0:0:0:
256,192,117447,1,0,0:0:0:0:
192,64,117618,1,8,0:0:0:0:
192,64,117788,1,0,0:0:0:0:
192,64,118129,1,0,0:0:0:0:
192,64,118300,1,8,0:0:0:0:
192,64,118470,1,8,0:0:0:0:
192,64,118811,1,0,0:0:0:0:
224,160,118981,1,0,0:0:0:0:
160,96,119067,1,0,0:0:0:0:
192,64,119152,1,0,0:0:0:0:
192,128,119237,1,0,0:0:0:0:
192,64,119322,1,8,0:0:0:0:
192,128,119493,1,0,0:0:0:0:
192,96,119663,1,0,0:0:0:0:
224,160,119748,1,0,0:0:0:0:
224,96,119834,1,0,0:0:0:0:
224,96,119919,1,0,0:0:0:0:
224,96,120004,1,8,0:0:0:0:
192,128,120175,1,0,0:0:0:0:
224,160,120344,1,8,0:0:0:0:
224,160,120430,1,8,0:0:0:0:
224,96,120515,1,0,0:0:0:0:
224,160,120601,1,0,0:0:0:0:
224,96,120686,1,8,0:0:0:0:
288,160,120856,1,0,0:0:0:0:
224,160,120942,1,0,0:0:0:0:
224,160,121027,1,8,0:0:0:0:
224,160,121197,1,0,0:0:0:0:
224,160,121368,1,0,0:0:0:0:
224,160,121538,1,8,0:0:0:0:
224,192,121879,1,0,0:0:0:0:
224,192,121964,1,0,0:0:0:0:
224,192,122050,1,8,0:0:0:0:
224,192,122135,1,8,0:0:0:0:
224,192,122220,1,0,0:0:0:0:
224,192,122561,1,0,0:0:0:0:
224,192,122646,1,0,0:0:0:0:
224,192,122731,1,8,0:0:0:0:
224,192,122817,1,8,0:0:0:0:
224,192,122902,1,0,0:0:0:0:
224,192,123243,1,8,0:0:0:0:
224,192,123413,1,0,0:0:0:0:
224,192,123754,1,8,0:0:0:0:
224,192,123925,1,0,0:0:0:0:
224,192,124266,1,0,0:0:0:0:
224,192,124436,1,0,0:0:0:0:
224,192,124521,1,0,0:0:0:0:
256,192,124606,1,0,0:0:0:0:
256,192,124692,1,0,0:0:0:0:
224,192,124777,1,8,0:0:0:0:
224,192,124947,1,0,0:0:0:0:
224,192,125118,1,0,0:0:0:0:
224,192,125288,1,8,0:0:0:0:
224,192,125373,1,8,0:0:0:0:
224,192,125459,1,8,0:0:0:0:
224,192,125544,1,8,0:0:0:0:
224,192,125629,1,8,0:0:0:0:
288,192,125800,1,4,0:0:0:0:
224,224,126141,1,0,0:0:0:0:
224,224,126481,1,0,0:0:0:0:
224,224,126822,1,0,0:0:0:0:
256,192,127163,1,12,0:0:0:0:
256,192,127675,1,12,0:0:0:0:
256,192,128527,1,4,0:0:0:0:
224,224,128868,1,0,0:0:0:0:
224,224,129209,1,0,0:0:0:0:
224,224,129550,1,0,0:0:0:0:
256,192,129890,1,12,0:0:0:0:
256,192,130402,1,12,0:0:0:0:
256,192,131254,1,4,0:0:0:0:
256,192,131425,1,4,0:0:0:0:
256,192,131595,1,4,0:0:0:0:
256,192,131765,1,4,0:0:0:0:
256,192,131936,1,4,0:0:0:0:
288,192,132277,1,12,0:0:0:0:
256,192,132618,1,4,0:0:0:0:
256,192,132959,1,8,0:0:0:0:
256,192,133300,1,8,0:0:0:0:
256,192,133470,1,0,0:0:0:0:
256,192,133641,1,8,0:0:0:0:
256,192,133811,1,0,0:0:0:0:
256,192,133981,1,0,0:0:0:0:
256,192,134067,1,8,0:0:0:0:
256,192,134152,1,0,0:0:0:0:
256,192,134237,1,0,0:0:0:0:
256,192,134322,1,8,0:0:0:0:
256,192,134493,1,0,0:0:0:0:
256,192,134663,1,8,0:0:0:0:
256,192,134834,1,8,0:0:0:0:
256,192,135004,1,8,0:0:0:0:
256,192,135175,1,0,0:0:0:0:
256,192,135260,1,0,0:0:0:0:
256,192,135345,1,8,0:0:0:0:
256,192,135516,1,8,0:0:0:0:
256,192,135686,1,0,0:0:0:0:
256,192,135856,1,8,0:0:0:0:
256,192,136027,1,8,0:0:0:0:
256,192,136197,1,0,0:0:0:0:
256,192,136368,1,8,0:0:0:0:
256,192,136453,1,0,0:0:0:0:
256,192,136538,1,8,0:0:0:0:
256,192,136709,1,0,0:0:0:0:
256,192,136879,1,0,0:0:0:0:
256,192,137050,1,8,0:0:0:0:
256,192,137220,1,0,0:0:0:0:
256,192,137391,1,8,0:0:0:0:
256,192,137646,1,8,0:0:0:0:
256,192,137731,1,0,0:0:0:0:
256,192,137902,1,12,0:0:0:0:
256,160,138072,1,8,0:0:0:0:
288,192,138158,1,0,0:0:0:0:
256,160,138328,1,0,0:0:0:0:
256,160,138413,1,8,0:0:0:0:
256,160,138498,1,8,0:0:0:0:
256,160,138584,1,0,0:0:0:0:
256,160,138754,1,0,0:0:0:0:
256,160,138925,1,0,0:0:0:0:
256,160,139095,1,8,0:0:0:0:
256,160,139436,1,0,0:0:0:0:
256,160,139777,1,8,0:0:0:0:
256,160,140118,1,0,0:0:0:0:
256,160,140459,1,0,0:0:0:0:
256,192,140800,1,0,0:0:0:0:
256,192,140885,1,0,0:0:0:0:
288,256,140970,1,0,0:0:0:0:
256,160,141055,1,0,0:0:0:0:
256,160,141141,1,8,0:0:0:0:
256,160,141311,1,8,0:0:0:0:
256,160,141481,1,0,0:0:0:0:
256,192,141567,1,0,0:0:0:0:
256,192,141652,1,0,0:0:0:0:
256,160,141737,1,0,0:0:0:0:
256,160,141822,1,8,0:0:0:0:
256,192,141993,1,8,0:0:0:0:
288,160,142163,1,0,0:0:0:0:
256,192,142248,1,0,0:0:0:0:
256,192,142334,1,0,0:0:0:0:
288,160,142419,1,0,0:0:0:0:
288,160,142504,1,8,0:0:0:0:
288,160,142675,1,8,0:0:0:0:
224,160,142845,1,8,0:0:0:0:
224,160,142930,1,8,0:0:0:0:
224,160,143016,1,8,0:0:0:0:
224,160,143101,1,8,0:0:0:0:
224,160,143186,1,8,0:0:0:0:
224,160,143271,1,8,0:0:0:0:
224,160,143356,1,8,0:0:0:0:
224,160,143442,1,8,0:0:0:0:
224,160,143527,1,0,0:0:0:0:
224,192,143697,1,0,0:0:0:0:
224,160,143868,1,8,0:0:0:0:
224,160,144038,1,8,0:0:0:0:
224,160,144123,1,0,0:0:0:0:
224,160,144209,1,0,0:0:0:0:
224,160,144379,1,0,0:0:0:0:
224,160,144550,1,8,0:0:0:0:
192,160,144891,1,0,0:0:0:0:
224,160,145061,1,0,0:0:0:0:
192,160,145231,1,8,0:0:0:0:
192,160,145402,1,8,0:0:0:0:
192,160,145487,1,0,0:0:0:0:
192,160,145572,1,0,0:0:0:0:
192,160,145743,1,0,0:0:0:0:
192,160,145913,1,8,0:0:0:0:
192,160,146084,1,0,0:0:0:0:
192,160,146254,1,0,0:0:0:0:
192,160,146595,1,8,0:0:0:0:
192,160,146766,1,8,0:0:0:0:
192,160,146851,1,0,0:0:0:0:
192,160,146936,1,8,0:0:0:0:
192,160,147106,1,8,0:0:0:0:
192,160,147277,1,0,0:0:0:0:
320,160,147447,1,0,0:0:0:0:
192,160,147618,1,8,0:0:0:0:
192,160,147788,1,0,0:0:0:0:
192,160,147959,1,8,0:0:0:0:
192,160,148129,1,0,0:0:0:0:
192,160,148214,1,0,0:0:0:0:
192,160,148300,1,8,0:0:0:0:
192,160,148470,1,0,0:0:0:0:
192,160,148641,1,8,0:0:0:0:
192,160,148811,1,0,0:0:0:0:
192,160,148896,1,0,0:0:0:0:
160,160,148981,1,8,0:0:0:0:
160,160,149322,1,0,0:0:0:0:
160,160,149493,1,8,0:0:0:0:
160,160,149663,1,0,0:0:0:0:
160,160,149748,1,0,0:0:0:0:
160,160,149834,1,8,0:0:0:0:
160,160,150004,1,0,0:0:0:0:
160,160,150175,1,8,0:0:0:0:
192,160,150345,1,0,0:0:0:0:
160,128,150687,1,8,0:0:0:0:
160,128,150856,1,0,0:0:0:0:
160,128,151027,1,8,0:0:0:0:
160,128,151112,1,0,0:0:0:0:
160,128,151197,1,0,0:0:0:0:
160,128,151367,1,8,0:0:0:0:
160,128,151538,1,8,0:0:0:0:
160,128,151709,1,0,0:0:0:0:
160,128,152220,1,0,0:0:0:0:
160,128,152731,1,8,0:0:0:0:
256,192,153072,12,0,154266,0:0:0:0:
224,192,154436,5,8,0:0:0:0:
224,192,154692,1,8,0:0:0:0:
224,192,154777,1,8,0:0:0:0:
224,192,154947,1,0,0:0:0:0:
224,192,155118,1,0,0:0:0:0:
224,192,155203,1,8,0:0:0:0:
224,192,155288,1,8,0:0:0:0:
224,192,155459,1,8,0:0:0:0:
224,192,155629,1,0,0:0:0:0:
192,160,155800,1,12,0:0:0:0:
192,160,156141,1,8,0:0:0:0:
192,160,156482,1,8,0:0:0:0:
192,160,156652,1,8,0:0:0:0:
192,160,156823,1,8,0:0:0:0:
192,160,157164,1,8,0:0:0:0:
192,160,157334,1,8,0:0:0:0:
192,160,157504,1,8,0:0:0:0:
192,160,157675,1,8,0:0:0:0:
192,160,157845,1,8,0:0:0:0:
192,160,158186,1,4,0:0:0:0:
192,160,158527,1,8,0:0:0:0:
192,160,158868,1,8,0:0:0:0:
192,160,159209,1,8,0:0:0:0:
192,160,159379,1,8,0:0:0:0:
192,160,159550,1,8,0:0:0:0:
192,160,159891,1,8,0:0:0:0:
192,160,160061,1,8,0:0:0:0:
192,160,160232,1,8,0:0:0:0:
192,160,160402,1,8,0:0:0:0:
192,160,160573,1,8,0:0:0:0:
192,160,160743,1,8,0:0:0:0:
192,160,160828,1,8,0:0:0:0:
192,160,160914,1,8,0:0:0:0:
192,160,160999,1,8,0:0:0:0:
192,160,161084,1,8,0:0:0:0:
192,192,161169,1,8,0:0:0:0:
192,160,161254,1,0,0:0:0:0:
224,192,161425,1,0,0:0:0:0:
256,128,161595,1,8,0:0:0:0:
256,128,161766,1,0,0:0:0:0:
256,128,161851,1,0,0:0:0:0:
256,128,161936,1,8,0:0:0:0:
256,128,162107,1,0,0:0:0:0:
256,128,162277,1,8,0:0:0:0:
256,160,162447,1,0,0:0:0:0:
256,128,162618,1,8,0:0:0:0:
256,128,162788,1,0,0:0:0:0:
256,128,162959,1,8,0:0:0:0:
256,128,163129,1,0,0:0:0:0:
256,128,163215,1,0,0:0:0:0:
256,128,163300,1,8,0:0:0:0:
256,128,163470,1,0,0:0:0:0:
256,128,163641,1,8,0:0:0:0:
256,128,163811,1,8,0:0:0:0:
256,128,163896,1,0,0:0:0:0:
256,128,163982,1,0,0:0:0:0:
224,160,164152,1,0,0:0:0:0:
256,128,164323,1,8,0:0:0:0:
256,128,164493,1,0,0:0:0:0:
256,128,164664,1,8,0:0:0:0:
256,128,164834,1,0,0:0:0:0:
256,128,164919,1,0,0:0:0:0:
256,128,165004,1,8,0:0:0:0:
256,128,165175,1,0,0:0:0:0:
256,128,165345,1,8,0:0:0:0:
256,128,165430,1,8,0:0:0:0:
256,128,165515,1,0,0:0:0:0:
256,128,165601,1,0,0:0:0:0:
256,128,165686,1,8,0:0:0:0:
256,128,165857,1,0,0:0:0:0:
256,128,166027,1,8,0:0:0:0:
256,128,166368,1,8,0:0:0:0:
256,128,166539,1,0,0:0:0:0:
256,128,166624,1,0,0:0:0:0:
256,128,166709,1,0,0:0:0:0:
256,128,166879,1,0,0:0:0:0:
256,128,167050,1,8,0:0:0:0:
256,128,167220,1,0,0:0:0:0:
256,128,167306,1,0,0:0:0:0:
256,128,167391,1,8,0:0:0:0:
256,128,167561,1,0,0:0:0:0:
256,128,167732,1,8,0:0:0:0:
256,128,167902,1,0,0:0:0:0:
256,128,168073,1,8,0:0:0:0:
256,128,168243,1,0,0:0:0:0:
256,128,168413,1,8,0:0:0:0:
288,192,168584,1,0,0:0:0:0:
288,192,168669,1,0,0:0:0:0:
288,192,168754,1,8,0:0:0:0:
288,192,168925,1,0,0:0:0:0:
288,192,169095,1,8,0:0:0:0:
288,192,169266,1,8,0:0:0:0:
288,192,169351,1,0,0:0:0:0:
288,192,169436,1,0,0:0:0:0:
256,128,169606,1,0,0:0:0:0:
288,192,169777,1,8,0:0:0:0:
288,192,169948,1,0,0:0:0:0:
288,192,170118,1,8,0:0:0:0:
288,192,170289,1,0,0:0:0:0:
288,192,170459,1,8,0:0:0:0:
288,192,170544,1,8,0:0:0:0:
288,192,170629,1,0,0:0:0:0:
288,192,170715,1,0,0:0:0:0:
224,192,170800,1,8,0:0:0:0:
288,192,170970,1,0,0:0:0:0:
288,192,171141,1,8,0:0:0:0:
288,192,171311,1,0,0:0:0:0:
288,192,171482,1,8,0:0:0:0:
256,192,171823,1,8,0:0:0:0:
224,192,171993,1,0,0:0:0:0:
256,192,172164,1,8,0:0:0:0:
256,192,172248,1,8,0:0:0:0:
256,192,172334,1,0,0:0:0:0:
256,192,172419,1,0,0:0:0:0:
256,192,172504,1,8,0:0:0:0:
256,192,172675,1,0,0:0:0:0:
256,192,172760,1,0,0:0:0:0:
256,192,172845,1,8,0:0:0:0:
256,192,173016,1,0,0:0:0:0:
256,192,173186,1,0,0:0:0:0:
256,192,173356,1,8,0:0:0:0:
256,192,173698,1,0,0:0:0:0:
256,192,173783,1,0,0:0:0:0:
256,192,173868,1,8,0:0:0:0:
256,192,173953,1,8,0:0:0:0:
256,192,174039,1,0,0:0:0:0:
256,192,174379,1,0,0:0:0:0:
256,192,174464,1,0,0:0:0:0:
256,192,174550,1,8,0:0:0:0:
288,192,174635,1,8,0:0:0:0:
256,192,174720,1,0,0:0:0:0:
192,64,174891,1,8,0:0:0:0:
192,64,175061,1,8,0:0:0:0:
192,64,175402,1,0,0:0:0:0:
192,64,175573,1,8,0:0:0:0:
192,64,175743,1,8,0:0:0:0:
192,64,176084,1,8,0:0:0:0:
224,160,176254,1,0,0:0:0:0:
224,160,176339,1,0,0:0:0:0:
192,64,176425,1,0,0:0:0:0:
192,64,176510,1,0,0:0:0:0:
192,64,176595,1,8,0:0:0:0:
192,96,176766,1,0,0:0:0:0:
192,96,176936,1,0,0:0:0:0:
224,160,177021,1,0,0:0:0:0:
224,96,177107,1,0,0:0:0:0:
224,96,177192,1,0,0:0:0:0:
224,96,177277,1,8,0:0:0:0:
224,96,177448,1,0,0:0:0:0:
224,96,177618,1,8,0:0:0:0:
224,160,177703,1,8,0:0:0:0:
224,160,177789,1,0,0:0:0:0:
224,160,177873,1,0,0:0:0:0:
224,96,177959,1,8,0:0:0:0:
288,160,178129,1,0,0:0:0:0:
288,160,178215,1,0,0:0:0:0:
288,160,178300,1,8,0:0:0:0:
224,160,178470,1,0,0:0:0:0:
224,160,178641,1,0,0:0:0:0:
224,160,178811,1,8,0:0:0:0:
224,192,179152,1,0,0:0:0:0:
224,192,179237,1,0,0:0:0:0:
224,192,179323,1,8,0:0:0:0:
224,192,179408,1,8,0:0:0:0:
224,192,179493,1,0,0:0:0:0:
224,192,179834,1,0,0:0:0:0:
224,192,179919,1,0,0:0:0:0:
224,192,180004,1,8,0:0:0:0:
224,192,180089,1,8,0:0:0:0:
224,192,180175,1,0,0:0:0:0:
224,192,180516,1,8,0:0:0:0:
224,192,180686,1,0,0:0:0:0:
224,192,181027,1,8,0:0:0:0:
224,192,181198,1,0,0:0:0:0:
224,192,181539,1,0,0:0:0:0:
224,192,181709,1,0,0:0:0:0:
224,192,181794,1,0,0:0:0:0:
224,192,181879,1,0,0:0:0:0:
224,192,181964,1,0,0:0:0:0:
224,192,182050,1,8,0:0:0:0:
224,192,182220,1,0,0:0:0:0:
224,192,182391,1,0,0:0:0:0:
224,192,182476,1,0,0:0:0:0:
224,192,182561,1,0,0:0:0:0:
224,192,182646,1,0,0:0:0:0:
224,192,182731,1,8,0:0:0:0:
224,192,182902,1,0,0:0:0:0:
224,192,183072,1,12,0:0:0:0:
224,192,183243,1,0,0:0:0:0:
224,192,183328,1,0,0:0:0:0:
224,192,183413,1,8,0:0:0:0:
192,224,183498,1,8,0:0:0:0:
224,192,183584,1,0,0:0:0:0:
224,192,183669,1,0,0:0:0:0:
224,192,183754,1,8,0:0:0:0:
224,192,183925,1,0,0:0:0:0:
224,192,184095,1,8,0:0:0:0:
224,192,184266,1,0,0:0:0:0:
256,192,184436,1,8,0:0:0:0:
224,192,184606,1,0,0:0:0:0:
224,192,184692,1,0,0:0:0:0:
224,192,184777,1,8,0:0:0:0:
224,192,184862,1,8,0:0:0:0:
224,192,184947,1,0,0:0:0:0:
256,192,185118,1,8,0:0:0:0:
224,192,185288,1,0,0:0:0:0:
224,192,185373,1,0,0:0:0:0:
224,192,185459,1,8,0:0:0:0:
224,192,185544,1,8,0:0:0:0:
224,192,185629,1,0,0:0:0:0:
224,192,185800,1,0,0:0:0:0:
224,192,185970,1,0,0:0:0:0:
224,192,186141,1,8,0:0:0:0:
224,192,186311,1,0,0:0:0:0:
224,192,186481,1,8,0:0:0:0:
224,192,186652,1,0,0:0:0:0:
224,192,186822,1,8,0:0:0:0:
224,192,186993,1,0,0:0:0:0:
224,192,187163,1,0,0:0:0:0:
224,192,187248,1,0,0:0:0:0:
224,192,187334,1,0,0:0:0:0:
224,192,187419,1,0,0:0:0:0:
224,192,187504,1,8,0:0:0:0:
224,192,187675,1,0,0:0:0:0:
224,192,187845,1,0,0:0:0:0:
224,192,187930,1,0,0:0:0:0:
224,192,188016,1,0,0:0:0:0:
224,192,188101,1,0,0:0:0:0:
224,192,188186,1,8,0:0:0:0:
224,224,188356,1,0,0:0:0:0:
224,192,188527,1,12,0:0:0:0:
224,192,188697,1,0,0:0:0:0:
224,192,188783,1,0,0:0:0:0:
224,192,188868,1,8,0:0:0:0:
256,192,188953,1,8,0:0:0:0:
224,192,189038,1,0,0:0:0:0:
224,192,189123,1,0,0:0:0:0:
224,192,189209,1,8,0:0:0:0:
224,192,189379,1,0,0:0:0:0:
224,192,189550,1,8,0:0:0:0:
224,192,189720,1,0,0:0:0:0:
224,192,189891,1,8,0:0:0:0:
224,192,190061,1,0,0:0:0:0:
224,192,190146,1,0,0:0:0:0:
224,192,190231,1,8,0:0:0:0:
224,192,190317,1,8,0:0:0:0:
224,192,190402,1,0,0:0:0:0:
224,192,190572,1,8,0:0:0:0:
224,192,190743,1,0,0:0:0:0:
224,192,190828,1,0,0:0:0:0:
224,192,190913,1,8,0:0:0:0:
224,192,190998,1,8,0:0:0:0:
224,192,191084,1,0,0:0:0:0:
224,192,191254,1,0,0:0:0:0:
224,192,191425,1,0,0:0:0:0:
224,192,191595,1,8,0:0:0:0:
224,192,191766,1,0,0:0:0:0:
224,192,191936,1,8,0:0:0:0:
224,192,192106,1,0,0:0:0:0:
224,192,192277,1,8,0:0:0:0:
224,192,192447,1,0,0:0:0:0:
224,192,192618,1,0,0:0:0:0:
192,192,192703,1,0,0:0:0:0:
224,192,192788,1,0,0:0:0:0:
224,192,192873,1,0,0:0:0:0:
224,192,192959,1,8,0:0:0:0:
224,160,193129,1,0,0:0:0:0:
224,192,193300,1,0,0:0:0:0:
224,192,193470,1,8,0:0:0:0:
224,192,193555,1,8,0:0:0:0:
224,192,193641,1,8,0:0:0:0:
224,192,193726,1,8,0:0:0:0:
224,192,193811,1,8,0:0:0:0:
288,192,193981,1,4,0:0:0:0:
224,224,194322,1,0,0:0:0:0:
224,224,194663,1,0,0:0:0:0:
224,224,195004,1,0,0:0:0:0:
256,192,195344,1,12,0:0:0:0:
256,192,195856,1,12,0:0:0:0:
256,192,196708,1,4,0:0:0:0:
224,224,197050,1,0,0:0:0:0:
224,224,197391,1,0,0:0:0:0:
224,224,197731,1,0,0:0:0:0:
256,192,198071,1,12,0:0:0:0:
256,192,198583,1,12,0:0:0:0:
256,192,199435,1,4,0:0:0:0:
256,192,199606,1,4,0:0:0:0:
256,192,199776,1,4,0:0:0:0:
256,192,199946,1,4,0:0:0:0:
256,192,200117,1,4,0:0:0:0:
256,192,200459,1,12,0:0:0:0:
