osu file format v14

[General]
AudioFilename: audio.mp3
AudioLeadIn: 0
PreviewTime: 161254
Countdown: 0
SampleSet: Normal
StackLeniency: 0.7
Mode: 1
LetterboxInBreaks: 0
WidescreenStoryboard: 0

[Editor]
Bookmarks: 18072,31709,76709,132618,143527
DistanceSpacing: 2.5
BeatDivisor: 4
GridSize: 32
TimelineZoom: 2.1

[Metadata]
Title:Digital Coffee 2017
TitleUnicode:Digital Coffee 2017
Artist:POLYSICS
ArtistUnicode:POLYSICS
Creator:Karee Pan
Version:Muzukashii
Source:
Tags:
BeatmapID:1343658
BeatmapSetID:633042

[Difficulty]
HPDrainRate:5.5
CircleSize:5
OverallDifficulty:5
ApproachRate:5
SliderMultiplier:1.4
SliderTickRate:1

[Events]
//Background and Video events
0,0,"polysics.jpg",0,0
//Break Periods
//Storyboard Layer 0 (Background)
//Storyboard Layer 1 (Fail)
//Storyboard Layer 2 (Pass)
//Storyboard Layer 3 (Foreground)
//Storyboard Sound Samples

[TimingPoints]
5800.13612830405,340.909090909091,4,1,0,80,1,0
16709,-100,4,1,0,90,0,0
18072,-100,4,1,0,70,0,0
29067,-125,4,1,0,80,0,0
31709,-100,4,1,0,70,0,0
53527,-125,4,1,0,70,0,0
58981,-100,4,1,0,90,0,1
69891,-100,4,1,0,80,0,0
76709,-100,4,1,0,70,0,0
98612,-125,4,1,0,80,0,0
103981,-100,4,1,0,90,0,1
125800,-100,4,1,0,90,0,0
155885,-125,4,1,0,90,0,0
161254,-100,4,1,0,90,0,1
193981,-100,4,1,0,80,0,0

[HitObjects]
256,192,5800,5,4,0:0:0:0:
256,192,7163,1,12,0:0:0:0:
256,192,7675,1,12,0:0:0:0:
256,192,8527,1,4,0:0:0:0:
256,192,9891,1,12,0:0:0:0:
256,192,10402,1,12,0:0:0:0:
256,192,11254,1,4,0:0:0:0:
256,192,12618,1,12,0:0:0:0:
256,192,13129,1,12,0:0:0:0:
256,192,13981,1,4,0:0:0:0:
256,192,15345,1,12,0:0:0:0:
256,192,15856,1,12,0:0:0:0:
256,192,16709,1,4,0:0:0:0:
256,192,16879,1,4,0:0:0:0:
256,192,17050,1,4,0:0:0:0:
256,192,17220,1,4,0:0:0:0:
256,192,17391,1,4,0:0:0:0:
256,192,17731,1,12,0:0:0:0:
256,192,18072,5,4,0:0:0:0:
256,192,18413,1,8,0:0:0:0:
256,192,18584,1,0,0:0:0:0:
256,192,18669,1,0,0:0:0:0:
256,192,18754,1,0,0:0:0:0:
256,192,18925,1,0,0:0:0:0:
256,192,19095,1,8,0:0:0:0:
256,192,19436,1,0,0:0:0:0:
256,192,19777,1,8,0:0:0:0:
256,192,20118,1,0,0:0:0:0:
256,192,20288,1,8,0:0:0:0:
256,192,20459,1,0,0:0:0:0:
256,192,20800,1,8,0:0:0:0:
256,192,21055,1,8,0:0:0:0:
256,192,21311,1,0,0:0:0:0:
256,192,21396,1,0,0:0:0:0:
256,192,21481,1,0,0:0:0:0:
256,192,21652,1,0,0:0:0:0:
256,192,21822,1,8,0:0:0:0:
192,160,22163,1,0,0:0:0:0:
192,160,22504,1,8,0:0:0:0:
192,160,22845,1,0,0:0:0:0:
192,160,23101,1,8,0:0:0:0:
256,192,23186,1,0,0:0:0:0:
224,160,23356,1,8,0:0:0:0:
224,160,23527,1,0,0:0:0:0:
192,160,23868,1,8,0:0:0:0:
192,160,24038,1,0,0:0:0:0:
192,160,24123,1,0,0:0:0:0:
192,160,24209,1,0,0:0:0:0:
256,192,24379,1,0,0:0:0:0:
288,192,24550,1,8,0:0:0:0:
256,192,24891,1,0,0:0:0:0:
256,160,25231,1,8,0:0:0:0:
256,160,25572,1,0,0:0:0:0:
256,160,25743,1,0,0:0:0:0:
256,192,25913,1,8,0:0:0:0:
256,160,26084,1,0,0:0:0:0:
288,160,26254,1,0,0:0:0:0:
288,160,26595,1,8,0:0:0:0:
288,160,26766,1,0,0:0:0:0:
288,160,26851,1,0,0:0:0:0:
288,160,26936,1,0,0:0:0:0:
256,192,27106,1,0,0:0:0:0:
288,160,27277,1,8,0:0:0:0:
256,160,27618,1,8,0:0:0:0:
256,160,27788,1,8,0:0:0:0:
256,160,27959,1,0,0:0:0:0:
256,160,28129,1,8,0:0:0:0:
256,160,28300,1,0,0:0:0:0:
256,160,28470,1,8,0:0:0:0:
256,160,28555,1,8,0:0:0:0:
256,160,28641,1,8,0:0:0:0:
256,160,28981,1,12,0:0:0:0:
256,160,29322,1,8,0:0:0:0:
256,160,29663,1,8,0:0:0:0:
256,160,29834,1,8,0:0:0:0:
256,160,30004,1,8,0:0:0:0:
256,160,30345,1,8,0:0:0:0:
256,160,30516,1,8,0:0:0:0:
256,160,30686,1,8,0:0:0:0:
256,160,30856,1,8,0:0:0:0:
256,160,31027,1,8,0:0:0:0:
256,160,31368,1,4,0:0:0:0:
256,160,31709,1,4,0:0:0:0:
256,160,32050,1,8,0:0:0:0:
256,160,32220,1,0,0:0:0:0:
256,160,32305,1,0,0:0:0:0:
256,160,32391,1,0,0:0:0:0:
256,192,32561,1,0,0:0:0:0:
256,160,32731,1,8,0:0:0:0:
256,160,33072,1,0,0:0:0:0:
224,160,33413,1,8,0:0:0:0:
224,160,33754,1,8,0:0:0:0:
224,160,33925,1,0,0:0:0:0:
224,160,34095,1,0,0:0:0:0:
224,160,34266,1,0,0:0:0:0:
224,160,34436,1,8,0:0:0:0:
224,160,34777,1,8,0:0:0:0:
224,160,34947,1,0,0:0:0:0:
224,160,35033,1,0,0:0:0:0:
224,160,35118,1,0,0:0:0:0:
256,192,35288,1,0,0:0:0:0:
224,160,35459,1,8,0:0:0:0:
224,160,35800,1,8,0:0:0:0:
224,160,36141,1,8,0:0:0:0:
224,160,36481,1,0,0:0:0:0:
224,160,36737,1,8,0:0:0:0:
224,160,36822,1,0,0:0:0:0:
224,160,36993,1,8,0:0:0:0:
224,160,37163,1,0,0:0:0:0:
224,160,37504,1,8,0:0:0:0:
224,160,37675,1,0,0:0:0:0:
224,160,37760,1,0,0:0:0:0:
224,160,37845,1,0,0:0:0:0:
256,192,38016,1,0,0:0:0:0:
224,160,38186,1,8,0:0:0:0:
224,160,38356,1,8,0:0:0:0:
224,160,38697,1,8,0:0:0:0:
224,160,38868,1,0,0:0:0:0:
224,160,39038,1,0,0:0:0:0:
224,160,39209,1,0,0:0:0:0:
224,160,39379,1,8,0:0:0:0:
224,160,39550,1,0,0:0:0:0:
192,160,39720,1,8,0:0:0:0:
192,160,39891,1,0,0:0:0:0:
224,160,40231,1,8,0:0:0:0:
224,160,40402,1,0,0:0:0:0:
224,160,40487,1,0,0:0:0:0:
224,160,40572,1,0,0:0:0:0:
256,192,40743,1,0,0:0:0:0:
224,160,40913,1,8,0:0:0:0:
224,160,41254,1,0,0:0:0:0:
224,160,41595,1,8,0:0:0:0:
224,160,41936,1,0,0:0:0:0:
224,160,42192,1,8,0:0:0:0:
224,160,42277,1,0,0:0:0:0:
224,160,42447,1,12,0:0:0:0:
224,160,42618,1,0,0:0:0:0:
224,160,42959,1,8,0:0:0:0:
224,160,43129,1,0,0:0:0:0:
224,160,43214,1,0,0:0:0:0:
224,160,43300,1,0,0:0:0:0:
256,192,43470,1,0,0:0:0:0:
224,160,43641,1,8,0:0:0:0:
224,160,43981,1,0,0:0:0:0:
224,160,44322,1,8,0:0:0:0:
224,160,44493,1,8,0:0:0:0:
224,160,44663,1,0,0:0:0:0:
224,160,44834,1,0,0:0:0:0:
224,160,45004,1,8,0:0:0:0:
224,160,45175,1,0,0:0:0:0:
224,160,45345,1,0,0:0:0:0:
224,160,45686,1,8,0:0:0:0:
224,160,45856,1,0,0:0:0:0:
224,160,45942,1,0,0:0:0:0:
224,160,46027,1,0,0:0:0:0:
256,192,46197,1,0,0:0:0:0:
224,160,46368,1,8,0:0:0:0:
224,160,46709,1,0,0:0:0:0:
224,160,47050,1,8,0:0:0:0:
224,160,47220,1,8,0:0:0:0:
224,160,47391,1,0,0:0:0:0:
224,160,47561,1,8,0:0:0:0:
224,160,47731,1,0,0:0:0:0:
224,160,47902,1,12,0:0:0:0:
224,160,48072,1,0,0:0:0:0:
224,160,48413,1,8,0:0:0:0:
224,160,48584,1,0,0:0:0:0:
224,160,48669,1,0,0:0:0:0:
224,160,48754,1,0,0:0:0:0:
256,192,48925,1,0,0:0:0:0:
224,160,49095,1,8,0:0:0:0:
224,160,49436,1,0,0:0:0:0:
224,160,49777,1,8,0:0:0:0:
224,160,49947,1,0,0:0:0:0:
224,160,50118,1,8,0:0:0:0:
224,160,50288,1,8,0:0:0:0:
224,160,50459,1,0,0:0:0:0:
224,160,50629,1,8,0:0:0:0:
224,160,50800,1,0,0:0:0:0:
192,160,51141,1,8,0:0:0:0:
256,160,51311,1,0,0:0:0:0:
256,160,51396,1,0,0:0:0:0:
192,160,51481,1,0,0:0:0:0:
192,160,51652,1,0,0:0:0:0:
192,160,51822,1,8,0:0:0:0:
192,160,52163,1,8,0:0:0:0:
192,160,52419,1,0,0:0:0:0:
192,160,52504,1,8,0:0:0:0:
192,160,52675,1,0,0:0:0:0:
192,160,52845,1,8,0:0:0:0:
192,160,53016,1,0,0:0:0:0:
192,160,53186,1,12,0:0:0:0:
192,160,53527,1,8,0:0:0:0:
192,160,53868,1,8,0:0:0:0:
192,160,54209,1,8,0:0:0:0:
192,160,54379,1,8,0:0:0:0:
192,160,54550,1,8,0:0:0:0:
192,160,54891,1,8,0:0:0:0:
192,160,55061,1,8,0:0:0:0:
192,160,55231,1,8,0:0:0:0:
192,160,55402,1,8,0:0:0:0:
192,160,55572,1,8,0:0:0:0:
192,160,55913,1,4,0:0:0:0:
192,160,56254,1,8,0:0:0:0:
192,160,56595,1,8,0:0:0:0:
192,160,56936,1,8,0:0:0:0:
192,160,57106,1,8,0:0:0:0:
192,160,57277,1,8,0:0:0:0:
192,160,57618,1,8,0:0:0:0:
192,160,57788,1,8,0:0:0:0:
192,160,57959,1,8,0:0:0:0:
192,160,58129,1,8,0:0:0:0:
192,160,58300,1,8,0:0:0:0:
192,160,58470,1,8,0:0:0:0:
192,160,58555,1,8,0:0:0:0:
192,160,58641,1,8,0:0:0:0:
192,160,58811,1,8,0:0:0:0:
192,160,58981,1,0,0:0:0:0:
192,160,59322,1,8,0:0:0:0:
192,160,59493,1,0,0:0:0:0:
192,160,59578,1,0,0:0:0:0:
192,160,59663,1,0,0:0:0:0:
192,160,59834,1,0,0:0:0:0:
192,160,60004,1,8,0:0:0:0:
192,160,60345,1,0,0:0:0:0:
192,160,60686,1,8,0:0:0:0:
192,160,60856,1,0,0:0:0:0:
192,160,60942,1,0,0:0:0:0:
192,160,61027,1,0,0:0:0:0:
192,160,61197,1,0,0:0:0:0:
192,160,61368,1,8,0:0:0:0:
160,128,61538,5,8,0:0:0:0:
192,160,61709,1,0,0:0:0:0:
192,160,62050,1,8,0:0:0:0:
192,160,62220,1,0,0:0:0:0:
192,160,62391,1,8,0:0:0:0:
192,160,62561,1,8,0:0:0:0:
192,160,62731,1,8,0:0:0:0:
192,160,62902,1,0,0:0:0:0:
192,160,63072,1,8,0:0:0:0:
192,160,63243,1,0,0:0:0:0:
192,160,63584,1,0,0:0:0:0:
192,160,64436,1,0,0:0:0:0:
192,160,64777,1,8,0:0:0:0:
192,160,64947,1,0,0:0:0:0:
192,160,65033,1,0,0:0:0:0:
192,160,65118,1,0,0:0:0:0:
192,160,65288,1,0,0:0:0:0:
192,160,65459,1,8,0:0:0:0:
192,160,65800,1,0,0:0:0:0:
192,160,66141,1,8,0:0:0:0:
192,160,66311,1,0,0:0:0:0:
192,160,66396,1,0,0:0:0:0:
192,160,66481,1,0,0:0:0:0:
192,160,66652,1,0,0:0:0:0:
192,160,66822,1,8,0:0:0:0:
192,160,66993,1,8,0:0:0:0:
192,160,67163,1,0,0:0:0:0:
192,160,67504,1,8,0:0:0:0:
192,160,67675,1,0,0:0:0:0:
192,160,67845,1,8,0:0:0:0:
192,160,68016,1,8,0:0:0:0:
224,160,68186,1,8,0:0:0:0:
224,160,68356,1,0,0:0:0:0:
224,160,68527,1,8,0:0:0:0:
224,160,68697,1,0,0:0:0:0:
224,160,69038,1,0,0:0:0:0:
224,160,69209,1,0,0:0:0:0:
224,160,69379,1,8,0:0:0:0:
224,160,69464,1,8,0:0:0:0:
224,160,69550,1,8,0:0:0:0:
224,160,69720,1,8,0:0:0:0:
224,160,69891,1,4,0:0:0:0:
256,192,71254,1,12,0:0:0:0:
256,192,71766,1,12,0:0:0:0:
256,192,72618,1,4,0:0:0:0:
256,192,73981,1,12,0:0:0:0:
256,192,74493,1,12,0:0:0:0:
256,192,75345,1,4,0:0:0:0:
256,192,75516,1,4,0:0:0:0:
256,192,75686,1,4,0:0:0:0:
256,192,75856,1,4,0:0:0:0:
256,192,76027,1,4,0:0:0:0:
256,192,76368,1,12,0:0:0:0:
256,192,76709,1,4,0:0:0:0:
256,192,77050,1,8,0:0:0:0:
256,192,77220,1,0,0:0:0:0:
256,192,77305,1,0,0:0:0:0:
256,192,77391,1,0,0:0:0:0:
256,192,77561,1,0,0:0:0:0:
256,192,77731,1,8,0:0:0:0:
256,192,78072,1,0,0:0:0:0:
256,192,78413,1,8,0:0:0:0:
256,192,78584,1,0,0:0:0:0:
256,192,78754,1,0,0:0:0:0:
256,192,78925,1,8,0:0:0:0:
256,192,79095,1,8,0:0:0:0:
256,192,79266,1,0,0:0:0:0:
256,192,79436,1,0,0:0:0:0:
256,192,79777,1,8,0:0:0:0:
256,192,79947,1,0,0:0:0:0:
256,192,80033,1,0,0:0:0:0:
256,192,80118,1,0,0:0:0:0:
256,192,80288,1,0,0:0:0:0:
256,192,80459,1,8,0:0:0:0:
256,192,80800,1,0,0:0:0:0:
256,192,80970,1,8,0:0:0:0:
256,192,81311,1,8,0:0:0:0:
256,192,81481,1,0,0:0:0:0:
256,192,81737,1,8,0:0:0:0:
256,192,81822,1,0,0:0:0:0:
256,192,81993,1,8,0:0:0:0:
256,192,82163,1,12,0:0:0:0:
256,192,82504,1,12,0:0:0:0:
256,192,82845,1,4,0:0:0:0:
256,160,83356,1,8,0:0:0:0:
256,192,83527,1,0,0:0:0:0:
224,192,83697,1,0,0:0:0:0:
256,192,83868,1,8,0:0:0:0:
256,192,84038,1,0,0:0:0:0:
256,192,84209,1,0,0:0:0:0:
256,192,84379,1,8,0:0:0:0:
256,192,84550,1,0,0:0:0:0:
256,160,84720,1,8,0:0:0:0:
256,192,84891,1,0,0:0:0:0:
256,192,85231,1,8,0:0:0:0:
256,192,85402,1,0,0:0:0:0:
256,192,85487,1,0,0:0:0:0:
256,192,85572,1,0,0:0:0:0:
256,160,85743,1,0,0:0:0:0:
256,160,85913,1,8,0:0:0:0:
256,160,86254,1,8,0:0:0:0:
256,160,86595,1,8,0:0:0:0:
256,160,86766,1,0,0:0:0:0:
256,160,86936,1,8,0:0:0:0:
256,160,87192,1,8,0:0:0:0:
256,160,87277,1,0,0:0:0:0:
256,160,87447,1,12,0:0:0:0:
256,160,87618,1,0,0:0:0:0:
256,160,87959,1,8,0:0:0:0:
256,160,88129,1,0,0:0:0:0:
256,160,88214,1,0,0:0:0:0:
256,160,88300,1,0,0:0:0:0:
256,160,88470,1,0,0:0:0:0:
256,160,88641,1,8,0:0:0:0:
256,160,88981,1,0,0:0:0:0:
256,160,89322,1,8,0:0:0:0:
256,160,89493,1,8,0:0:0:0:
256,160,89663,1,0,0:0:0:0:
256,160,89834,1,0,0:0:0:0:
256,160,90004,1,8,0:0:0:0:
256,160,90175,1,0,0:0:0:0:
256,160,90345,1,0,0:0:0:0:
256,160,90686,1,8,0:0:0:0:
256,160,90856,1,0,0:0:0:0:
256,160,90942,1,0,0:0:0:0:
256,160,91027,1,0,0:0:0:0:
256,160,91197,1,0,0:0:0:0:
256,160,91368,1,8,0:0:0:0:
256,160,91709,1,0,0:0:0:0:
256,160,92050,1,8,0:0:0:0:
256,160,92220,1,8,0:0:0:0:
256,160,92391,1,0,0:0:0:0:
256,160,92561,1,8,0:0:0:0:
256,160,92731,1,0,0:0:0:0:
256,160,92902,1,12,0:0:0:0:
256,160,93072,1,0,0:0:0:0:
256,160,93413,1,8,0:0:0:0:
256,160,93584,1,0,0:0:0:0:
256,160,93669,1,0,0:0:0:0:
256,160,93754,1,0,0:0:0:0:
256,160,93925,1,0,0:0:0:0:
256,160,94095,1,8,0:0:0:0:
256,160,94436,1,0,0:0:0:0:
256,160,94777,1,8,0:0:0:0:
256,160,94947,1,0,0:0:0:0:
256,160,95118,1,8,0:0:0:0:
256,160,95288,1,8,0:0:0:0:
256,160,95459,1,0,0:0:0:0:
128,160,95629,1,0,0:0:0:0:
256,160,95800,1,8,0:0:0:0:
256,192,96141,1,8,0:0:0:0:
288,192,96311,1,0,0:0:0:0:
224,96,96396,1,0,0:0:0:0:
256,192,96481,1,0,0:0:0:0:
192,96,96652,1,0,0:0:0:0:
224,160,96822,1,8,0:0:0:0:
416,192,96993,1,0,0:0:0:0:
256,160,97078,1,0,0:0:0:0:
256,192,97163,1,0,0:0:0:0:
224,160,97334,1,0,0:0:0:0:
256,160,97504,1,8,0:0:0:0:
256,160,97675,1,0,0:0:0:0:
256,160,97845,1,8,0:0:0:0:
256,160,98016,1,0,0:0:0:0:
256,160,98186,1,8,0:0:0:0:
256,192,98527,1,12,0:0:0:0:
256,192,98868,1,8,0:0:0:0:
256,192,99209,1,8,0:0:0:0:
256,192,99379,1,8,0:0:0:0:
256,192,99550,1,8,0:0:0:0:
256,192,99891,1,8,0:0:0:0:
256,192,100061,1,8,0:0:0:0:
256,192,100231,1,8,0:0:0:0:
256,192,100402,1,8,0:0:0:0:
256,192,100572,1,8,0:0:0:0:
256,192,100913,1,4,0:0:0:0:
256,192,101254,1,8,0:0:0:0:
256,192,101595,1,8,0:0:0:0:
256,192,101936,1,8,0:0:0:0:
256,192,102106,1,8,0:0:0:0:
256,192,102277,1,8,0:0:0:0:
256,192,102618,1,8,0:0:0:0:
256,192,102788,1,8,0:0:0:0:
256,192,102959,1,8,0:0:0:0:
256,192,103129,1,8,0:0:0:0:
256,192,103300,1,8,0:0:0:0:
256,192,103470,1,8,0:0:0:0:
256,192,103555,1,8,0:0:0:0:
256,192,103641,1,8,0:0:0:0:
256,192,103811,1,8,0:0:0:0:
192,160,103981,1,0,0:0:0:0:
192,160,104322,1,8,0:0:0:0:
192,160,104493,1,0,0:0:0:0:
192,160,104578,1,0,0:0:0:0:
192,160,104663,1,0,0:0:0:0:
192,160,104834,1,0,0:0:0:0:
192,160,105004,1,8,0:0:0:0:
192,160,105345,1,0,0:0:0:0:
192,160,105686,1,8,0:0:0:0:
192,160,105856,1,0,0:0:0:0:
192,160,105942,1,0,0:0:0:0:
192,160,106027,1,0,0:0:0:0:
192,160,106197,1,0,0:0:0:0:
192,160,106368,1,8,0:0:0:0:
160,128,106538,5,8,0:0:0:0:
192,160,106709,1,0,0:0:0:0:
192,160,107050,1,8,0:0:0:0:
192,160,107220,1,0,0:0:0:0:
192,160,107391,1,8,0:0:0:0:
192,160,107561,1,8,0:0:0:0:
192,160,107731,1,8,0:0:0:0:
192,160,107902,1,0,0:0:0:0:
192,160,108072,1,8,0:0:0:0:
192,160,108243,1,0,0:0:0:0:
192,160,108584,1,0,0:0:0:0:
192,160,109436,1,0,0:0:0:0:
192,160,109777,1,8,0:0:0:0:
192,160,109947,1,0,0:0:0:0:
192,160,110033,1,0,0:0:0:0:
192,160,110118,1,0,0:0:0:0:
192,160,110288,1,0,0:0:0:0:
192,160,110459,1,8,0:0:0:0:
192,160,110800,1,0,0:0:0:0:
192,160,111141,1,8,0:0:0:0:
192,160,111311,1,0,0:0:0:0:
192,160,111396,1,0,0:0:0:0:
192,160,111481,1,0,0:0:0:0:
192,160,111652,1,0,0:0:0:0:
192,160,111822,1,8,0:0:0:0:
192,160,111993,1,8,0:0:0:0:
192,160,112163,1,0,0:0:0:0:
192,160,112504,1,8,0:0:0:0:
192,160,112675,1,0,0:0:0:0:
192,160,112845,1,8,0:0:0:0:
192,160,113016,1,8,0:0:0:0:
224,160,113186,1,8,0:0:0:0:
224,160,113356,1,0,0:0:0:0:
224,160,113527,1,8,0:0:0:0:
224,160,113697,1,0,0:0:0:0:
224,160,114038,1,0,0:0:0:0:
224,160,114891,1,8,0:0:0:0:
256,128,115061,1,0,0:0:0:0:
256,160,115146,1,0,0:0:0:0:
224,160,115231,1,0,0:0:0:0:
224,160,115402,1,0,0:0:0:0:
224,160,115572,1,8,0:0:0:0:
224,160,115743,1,0,0:0:0:0:
224,160,115913,1,8,0:0:0:0:
224,160,116084,1,0,0:0:0:0:
224,160,116425,1,0,0:0:0:0:
224,160,116595,1,8,0:0:0:0:
224,160,116680,1,8,0:0:0:0:
224,160,116766,1,8,0:0:0:0:
192,96,117106,1,0,0:0:0:0:
224,160,117277,1,8,0:0:0:0:
192,96,117362,1,8,0:0:0:0:
192,96,117447,1,8,0:0:0:0:
224,160,117618,1,8,0:0:0:0:
224,160,117788,1,0,0:0:0:0:
224,160,118129,1,0,0:0:0:0:
224,160,118300,1,8,0:0:0:0:
224,160,118470,1,0,0:0:0:0:
224,160,118811,1,0,0:0:0:0:
224,160,118981,1,8,0:0:0:0:
224,160,119152,1,0,0:0:0:0:
224,128,119322,1,8,0:0:0:0:
224,128,119408,1,8,0:0:0:0:
224,128,119493,1,8,0:0:0:0:
224,128,119834,1,0,0:0:0:0:
224,128,120004,1,8,0:0:0:0:
256,160,120089,1,8,0:0:0:0:
224,128,120175,1,8,0:0:0:0:
224,160,120345,1,8,0:0:0:0:
256,128,120515,1,0,0:0:0:0:
256,160,120600,1,0,0:0:0:0:
224,160,120685,1,0,0:0:0:0:
224,160,120856,1,0,0:0:0:0:
224,160,121026,1,8,0:0:0:0:
224,160,121197,1,0,0:0:0:0:
224,160,121367,1,8,0:0:0:0:
224,160,121538,1,0,0:0:0:0:
224,160,121879,1,0,0:0:0:0:
224,160,122049,1,8,0:0:0:0:
224,160,122134,1,8,0:0:0:0:
224,160,122220,1,8,0:0:0:0:
192,96,122560,1,0,0:0:0:0:
224,160,122731,1,8,0:0:0:0:
192,96,122816,1,8,0:0:0:0:
192,96,122901,1,8,0:0:0:0:
224,160,123243,1,8,0:0:0:0:
192,160,123413,1,0,0:0:0:0:
224,160,123754,1,8,0:0:0:0:
224,160,123924,1,0,0:0:0:0:
224,160,124265,1,0,0:0:0:0:
256,160,124436,1,0,0:0:0:0:
224,128,124521,1,0,0:0:0:0:
224,160,124606,1,0,0:0:0:0:
288,128,124777,1,8,0:0:0:0:
192,160,124947,1,0,0:0:0:0:
224,128,125288,1,8,0:0:0:0:
224,128,125373,1,8,0:0:0:0:
224,128,125458,1,8,0:0:0:0:
224,128,125629,1,8,0:0:0:0:
256,160,125800,1,4,0:0:0:0:
256,192,127163,1,12,0:0:0:0:
256,192,127675,1,12,0:0:0:0:
256,192,128527,1,4,0:0:0:0:
256,192,129891,1,12,0:0:0:0:
256,192,130402,1,12,0:0:0:0:
256,192,131254,1,4,0:0:0:0:
256,192,131425,1,4,0:0:0:0:
256,192,131595,1,4,0:0:0:0:
256,192,131766,1,4,0:0:0:0:
256,192,131936,1,4,0:0:0:0:
256,192,132277,1,12,0:0:0:0:
256,192,132618,1,0,0:0:0:0:
256,192,132959,1,8,0:0:0:0:
256,192,133300,1,8,0:0:0:0:
256,192,133470,1,0,0:0:0:0:
256,192,133641,1,8,0:0:0:0:
256,192,133811,1,0,0:0:0:0:
256,192,133981,1,0,0:0:0:0:
256,192,134152,1,8,0:0:0:0:
256,192,134237,1,8,0:0:0:0:
256,192,134322,1,8,0:0:0:0:
256,192,134493,1,0,0:0:0:0:
288,192,134663,1,8,0:0:0:0:
288,192,134834,1,8,0:0:0:0:
288,192,135004,1,8,0:0:0:0:
256,192,135345,1,0,0:0:0:0:
256,192,135516,1,8,0:0:0:0:
256,192,135686,1,8,0:0:0:0:
256,192,135856,1,0,0:0:0:0:
256,192,136027,1,8,0:0:0:0:
256,192,136197,1,0,0:0:0:0:
256,192,136368,1,8,0:0:0:0:
256,192,136453,1,8,0:0:0:0:
256,192,136538,1,8,0:0:0:0:
256,192,136709,1,0,0:0:0:0:
256,192,136879,1,0,0:0:0:0:
256,192,137050,1,8,0:0:0:0:
256,192,137391,1,0,0:0:0:0:
256,192,137561,1,8,0:0:0:0:
256,192,137646,1,8,0:0:0:0:
256,192,137731,1,8,0:0:0:0:
256,192,137902,1,0,0:0:0:0:
192,192,138072,1,8,0:0:0:0:
192,192,138413,1,0,0:0:0:0:
192,192,138498,1,0,0:0:0:0:
192,192,138584,1,0,0:0:0:0:
192,192,138754,1,8,0:0:0:0:
256,160,138925,1,0,0:0:0:0:
256,160,139095,1,8,0:0:0:0:
224,160,139436,1,0,0:0:0:0:
224,160,139777,1,8,0:0:0:0:
224,160,140118,1,0,0:0:0:0:
224,160,140459,1,0,0:0:0:0:
224,160,140800,1,0,0:0:0:0:
224,160,140970,1,8,0:0:0:0:
224,160,141055,1,8,0:0:0:0:
224,160,141141,1,8,0:0:0:0:
224,160,141311,1,0,0:0:0:0:
224,160,141481,1,0,0:0:0:0:
224,160,141822,1,8,0:0:0:0:
224,160,142163,1,0,0:0:0:0:
224,160,142334,1,8,0:0:0:0:
224,160,142419,1,8,0:0:0:0:
224,160,142504,1,8,0:0:0:0:
224,160,142675,1,0,0:0:0:0:
224,160,142845,1,8,0:0:0:0:
224,160,143016,1,8,0:0:0:0:
192,160,143101,1,8,0:0:0:0:
192,160,143186,1,8,0:0:0:0:
224,160,143356,1,8,0:0:0:0:
192,160,143527,1,0,0:0:0:0:
192,128,143868,1,8,0:0:0:0:
192,128,144038,1,0,0:0:0:0:
192,128,144123,1,0,0:0:0:0:
192,128,144209,1,0,0:0:0:0:
192,160,144379,1,0,0:0:0:0:
192,128,144550,1,8,0:0:0:0:
192,160,144891,1,0,0:0:0:0:
192,160,145231,1,8,0:0:0:0:
192,160,145402,1,0,0:0:0:0:
192,160,145487,1,0,0:0:0:0:
192,160,145572,1,0,0:0:0:0:
192,160,145743,1,0,0:0:0:0:
192,160,145913,1,8,0:0:0:0:
192,160,146254,1,0,0:0:0:0:
192,160,146595,1,8,0:0:0:0:
192,160,146766,1,8,0:0:0:0:
192,160,146851,1,8,0:0:0:0:
192,160,146936,1,8,0:0:0:0:
192,160,147106,1,8,0:0:0:0:
192,160,147277,1,0,0:0:0:0:
192,160,147618,1,8,0:0:0:0:
192,160,147959,1,0,0:0:0:0:
192,160,148129,1,8,0:0:0:0:
192,160,148214,1,8,0:0:0:0:
192,160,148300,1,8,0:0:0:0:
192,160,148470,1,8,0:0:0:0:
192,160,148641,1,0,0:0:0:0:
192,160,148981,1,8,0:0:0:0:
192,160,149067,1,8,0:0:0:0:
192,160,149152,1,8,0:0:0:0:
192,128,149322,1,0,0:0:0:0:
192,160,149493,1,8,0:0:0:0:
192,160,149663,1,0,0:0:0:0:
160,128,149834,1,8,0:0:0:0:
224,160,150004,1,0,0:0:0:0:
224,160,150345,1,0,0:0:0:0:
224,160,150430,1,0,0:0:0:0:
224,160,150516,1,0,0:0:0:0:
224,160,150686,1,8,0:0:0:0:
224,160,150856,1,0,0:0:0:0:
224,160,151027,1,8,0:0:0:0:
224,160,151197,1,0,0:0:0:0:
192,128,151368,1,8,0:0:0:0:
192,128,151709,1,0,0:0:0:0:
192,128,152220,1,0,0:0:0:0:
192,128,152731,1,8,0:0:0:0:
256,192,153072,12,0,154095,0:0:0:0:
224,192,154436,5,8,0:0:0:0:
224,160,154777,1,8,0:0:0:0:
224,160,154947,1,0,0:0:0:0:
224,160,155118,1,8,0:0:0:0:
224,160,155203,1,8,0:0:0:0:
224,160,155288,1,8,0:0:0:0:
224,160,155459,1,8,0:0:0:0:
256,160,155629,1,0,0:0:0:0:
256,192,155800,5,12,0:0:0:0:
256,192,156141,1,8,0:0:0:0:
256,192,156482,1,8,0:0:0:0:
256,192,156652,1,8,0:0:0:0:
256,192,156823,1,8,0:0:0:0:
256,192,157164,1,8,0:0:0:0:
256,192,157334,1,8,0:0:0:0:
256,192,157504,1,8,0:0:0:0:
256,192,157675,1,8,0:0:0:0:
256,192,157845,1,8,0:0:0:0:
256,192,158186,1,4,0:0:0:0:
256,192,158527,1,8,0:0:0:0:
256,192,158868,1,8,0:0:0:0:
256,192,159209,1,8,0:0:0:0:
256,192,159379,1,8,0:0:0:0:
256,192,159550,1,8,0:0:0:0:
256,192,159891,1,8,0:0:0:0:
256,192,160061,1,8,0:0:0:0:
256,192,160232,1,8,0:0:0:0:
256,192,160402,1,8,0:0:0:0:
256,192,160573,1,8,0:0:0:0:
256,192,160743,1,8,0:0:0:0:
256,192,160828,1,8,0:0:0:0:
256,192,160914,1,8,0:0:0:0:
256,192,161084,1,8,0:0:0:0:
192,160,161254,1,0,0:0:0:0:
192,160,161595,1,8,0:0:0:0:
192,160,161766,1,0,0:0:0:0:
192,160,161851,1,0,0:0:0:0:
192,160,161936,1,0,0:0:0:0:
192,160,162107,1,0,0:0:0:0:
192,160,162277,1,8,0:0:0:0:
192,160,162618,1,0,0:0:0:0:
192,160,162959,1,8,0:0:0:0:
192,160,163129,1,0,0:0:0:0:
192,160,163215,1,0,0:0:0:0:
192,160,163300,1,0,0:0:0:0:
192,160,163470,1,0,0:0:0:0:
192,160,163641,1,8,0:0:0:0:
160,128,163811,5,8,0:0:0:0:
192,160,163982,1,0,0:0:0:0:
192,160,164323,1,8,0:0:0:0:
192,160,164493,1,0,0:0:0:0:
192,160,164664,1,8,0:0:0:0:
192,160,164834,1,8,0:0:0:0:
192,160,165004,1,8,0:0:0:0:
192,160,165175,1,0,0:0:0:0:
192,160,165345,1,8,0:0:0:0:
192,160,165516,1,0,0:0:0:0:
192,160,165857,1,0,0:0:0:0:
192,160,166197,1,0,0:0:0:0:
192,160,166368,1,8,0:0:0:0:
192,160,166538,1,8,0:0:0:0:
192,160,166709,1,0,0:0:0:0:
192,160,167050,1,8,0:0:0:0:
192,160,167220,1,0,0:0:0:0:
192,160,167306,1,0,0:0:0:0:
192,160,167391,1,0,0:0:0:0:
192,160,167561,1,0,0:0:0:0:
192,160,167732,1,8,0:0:0:0:
192,160,168073,1,0,0:0:0:0:
192,160,168414,1,8,0:0:0:0:
192,160,168584,1,0,0:0:0:0:
192,160,168669,1,0,0:0:0:0:
192,160,168754,1,0,0:0:0:0:
192,160,168925,1,0,0:0:0:0:
192,160,169095,1,8,0:0:0:0:
192,160,169266,1,8,0:0:0:0:
192,160,169436,1,0,0:0:0:0:
192,160,169777,1,8,0:0:0:0:
192,160,169948,1,0,0:0:0:0:
192,160,170118,1,8,0:0:0:0:
192,160,170289,1,8,0:0:0:0:
224,160,170459,1,8,0:0:0:0:
224,160,170629,1,0,0:0:0:0:
224,160,170800,1,8,0:0:0:0:
224,160,170970,1,0,0:0:0:0:
224,160,171311,1,0,0:0:0:0:
192,160,171652,1,0,0:0:0:0:
192,160,171822,1,8,0:0:0:0:
192,160,171993,1,0,0:0:0:0:
224,160,172163,1,12,0:0:0:0:
256,128,172334,1,0,0:0:0:0:
256,160,172419,1,0,0:0:0:0:
224,160,172504,1,0,0:0:0:0:
224,160,172675,1,0,0:0:0:0:
224,160,172845,1,8,0:0:0:0:
224,160,173016,1,0,0:0:0:0:
224,160,173186,1,8,0:0:0:0:
224,160,173357,1,0,0:0:0:0:
224,160,173698,1,0,0:0:0:0:
224,160,173868,1,8,0:0:0:0:
224,160,173953,1,8,0:0:0:0:
224,160,174039,1,8,0:0:0:0:
192,96,174379,1,0,0:0:0:0:
224,160,174550,1,8,0:0:0:0:
192,96,174635,1,8,0:0:0:0:
192,96,174720,1,8,0:0:0:0:
224,160,174891,1,8,0:0:0:0:
224,160,175061,1,0,0:0:0:0:
224,160,175402,1,0,0:0:0:0:
224,160,175573,1,8,0:0:0:0:
224,160,175743,1,0,0:0:0:0:
224,160,176084,1,0,0:0:0:0:
256,160,176254,1,8,0:0:0:0:
224,160,176425,1,0,0:0:0:0:
224,128,176595,1,8,0:0:0:0:
224,128,176681,1,8,0:0:0:0:
224,128,176766,1,8,0:0:0:0:
192,128,177106,1,0,0:0:0:0:
224,128,177277,1,8,0:0:0:0:
192,128,177362,1,8,0:0:0:0:
224,128,177447,1,8,0:0:0:0:
224,160,177618,1,8,0:0:0:0:
256,128,177788,1,0,0:0:0:0:
256,160,177873,1,0,0:0:0:0:
224,160,177958,1,0,0:0:0:0:
224,160,178129,1,0,0:0:0:0:
224,160,178299,1,8,0:0:0:0:
224,160,178470,1,0,0:0:0:0:
224,160,178640,1,8,0:0:0:0:
224,160,178811,1,0,0:0:0:0:
224,160,179152,1,0,0:0:0:0:
224,160,179322,1,8,0:0:0:0:
224,160,179407,1,8,0:0:0:0:
224,160,179493,1,8,0:0:0:0:
192,96,179833,1,0,0:0:0:0:
224,160,180004,1,8,0:0:0:0:
192,96,180089,1,8,0:0:0:0:
192,96,180174,1,8,0:0:0:0:
224,160,180516,1,8,0:0:0:0:
192,160,180686,1,0,0:0:0:0:
224,160,181027,1,8,0:0:0:0:
224,160,181197,1,0,0:0:0:0:
224,160,181538,1,0,0:0:0:0:
224,160,181879,1,8,0:0:0:0:
224,128,182220,1,0,0:0:0:0:
224,160,182561,1,0,0:0:0:0:
224,160,182731,1,8,0:0:0:0:
224,160,182902,1,0,0:0:0:0:
256,192,183072,1,12,0:0:0:0:
224,160,183243,1,0,0:0:0:0:
256,192,183413,1,8,0:0:0:0:
256,192,183498,1,8,0:0:0:0:
256,192,183584,1,8,0:0:0:0:
256,192,183754,1,8,0:0:0:0:
256,192,183925,1,0,0:0:0:0:
256,192,184095,1,8,0:0:0:0:
256,192,184436,1,0,0:0:0:0:
256,192,184606,1,8,0:0:0:0:
256,192,184692,1,8,0:0:0:0:
256,192,184777,1,8,0:0:0:0:
256,160,184947,1,0,0:0:0:0:
256,192,185288,1,8,0:0:0:0:
256,192,185373,1,8,0:0:0:0:
256,192,185459,1,8,0:0:0:0:
256,192,185629,1,0,0:0:0:0:
256,192,185800,1,0,0:0:0:0:
256,192,185970,1,0,0:0:0:0:
256,192,186141,1,8,0:0:0:0:
256,192,186311,1,8,0:0:0:0:
256,192,186481,1,8,0:0:0:0:
256,192,186652,1,8,0:0:0:0:
256,192,186822,1,0,0:0:0:0:
256,192,186993,1,0,0:0:0:0:
256,192,187334,1,8,0:0:0:0:
256,192,187419,1,8,0:0:0:0:
256,192,187504,1,8,0:0:0:0:
256,192,187675,1,0,0:0:0:0:
256,192,188016,1,8,0:0:0:0:
256,192,188101,1,8,0:0:0:0:
256,192,188186,1,8,0:0:0:0:
256,192,188356,1,0,0:0:0:0:
256,192,188527,1,12,0:0:0:0:
256,192,188697,1,0,0:0:0:0:
256,192,188868,1,8,0:0:0:0:
256,192,188953,1,8,0:0:0:0:
256,192,189039,1,8,0:0:0:0:
256,192,189209,1,8,0:0:0:0:
256,192,189380,1,0,0:0:0:0:
256,192,189550,1,8,0:0:0:0:
256,192,189721,1,0,0:0:0:0:
256,192,190061,1,8,0:0:0:0:
256,192,190147,1,8,0:0:0:0:
256,192,190232,1,8,0:0:0:0:
256,160,190402,1,0,0:0:0:0:
256,192,190743,1,8,0:0:0:0:
256,192,190828,1,8,0:0:0:0:
256,192,190914,1,8,0:0:0:0:
256,192,191084,1,0,0:0:0:0:
256,192,191255,1,0,0:0:0:0:
256,192,191425,1,0,0:0:0:0:
256,192,191596,1,8,0:0:0:0:
256,192,191766,1,8,0:0:0:0:
256,192,191936,1,8,0:0:0:0:
256,192,192106,1,8,0:0:0:0:
256,192,192277,1,0,0:0:0:0:
256,192,192448,1,0,0:0:0:0:
256,192,192789,1,8,0:0:0:0:
256,192,192874,1,8,0:0:0:0:
256,192,192959,1,8,0:0:0:0:
256,192,193129,1,0,0:0:0:0:
256,192,193471,1,8,0:0:0:0:
256,192,193556,1,8,0:0:0:0:
256,192,193641,1,8,0:0:0:0:
256,192,193811,1,8,0:0:0:0:
224,160,193981,1,4,0:0:0:0:
256,192,195344,1,12,0:0:0:0:
256,192,195856,1,12,0:0:0:0:
256,192,196708,1,4,0:0:0:0:
256,192,198071,1,12,0:0:0:0:
256,192,198583,1,12,0:0:0:0:
256,192,199435,1,4,0:0:0:0:
256,192,199606,1,4,0:0:0:0:
256,192,199776,1,4,0:0:0:0:
256,192,199946,1,4,0:0:0:0:
256,192,200117,1,4,0:0:0:0:
256,192,200458,1,12,0:0:0:0:
