osu file format v14

[General]
AudioFilename: audio.mp3
AudioLeadIn: 0
PreviewTime: 43940
Countdown: 0
SampleSet: Soft
StackLeniency: 0.4
Mode: 0
LetterboxInBreaks: 0
WidescreenStoryboard: 1

[Editor]
DistanceSpacing: 1.8
BeatDivisor: 2
GridSize: 4
TimelineZoom: 1.6

[Metadata]
Title:SHAKE! SHAKE! (Shizuku Kariuta ver.)
TitleUnicode:SHAKE! SHAKE!(雫カリウタver.)
Artist:POLKADOT STINGRAY
ArtistUnicode:ポルカドットスティングレイ
Creator:Flake
Version:NORMAL!
Source:
Tags:moph lecandy what nanimono 何者 japanese sawana alt alternative rock pop j-pop j-rock 私立恵比寿中学 shiritsu ebisu chugaku chūgaku chuugaku jrock jpop
BeatmapID:3000877
BeatmapSetID:1431222

[Difficulty]
HPDrainRate:3
CircleSize:3
OverallDifficulty:4
ApproachRate:6
SliderMultiplier:0.999999999999999
SliderTickRate:1

[Events]
//Background and Video events
0,0,"906251.jpg",0,0
//Break Periods
2,131029,140606
2,159675,162261
//Storyboard Layer 0 (Background)
//Storyboard Layer 1 (Fail)
//Storyboard Layer 2 (Pass)
//Storyboard Layer 3 (Foreground)
//Storyboard Layer 4 (Overlay)
//Storyboard Sound Samples

[TimingPoints]
905,451.127819548872,4,2,1,45,1,0
13536,-100,4,2,1,65,0,0
15341,-100,4,2,1,55,0,0
18273,-100,4,2,1,65,0,0
18950,-100,4,2,1,55,0,0
22051,-100,4,2,1,55,0,0
22108,-100,4,2,1,55,0,0
22164,-100,4,2,1,55,0,0
22220,-100,4,2,1,55,0,0
25660,-100,4,2,1,55,0,0
25717,-100,4,2,1,55,0,0
27972,-100,4,2,1,45,0,0
28198,-100,4,2,1,65,0,0
29100,-100,4,2,1,45,0,0
29269,-100,4,2,1,45,0,0
29326,-100,4,2,1,65,0,0
29777,-100,4,2,1,55,0,0
31581,-100,4,2,2,55,0,0
32032,-100,4,2,1,55,0,0
38799,-100,4,2,2,55,0,0
39250,-100,4,2,1,55,0,0
42859,-100,4,2,1,75,0,0
43762,-100,4,2,1,45,0,0
44213,-100,4,2,1,65,0,1
49626,-100,4,2,1,75,0,1
50077,-100,4,2,1,70,0,1
50529,-100,4,2,1,65,0,1
50980,-100,4,2,1,60,0,1
51431,-100,4,2,1,65,0,1
56844,-100,4,2,1,75,0,1
58423,-100,4,2,1,55,0,1
58649,-100,4,2,1,45,0,0
59100,-100,4,2,1,65,0,1
59551,-100,4,2,1,45,0,1
60002,-100,4,2,1,65,0,1
64965,-100,4,2,1,75,0,1
65867,-100,4,2,1,65,0,0
80303,-100,4,2,1,55,0,0
92483,-100,4,2,1,65,0,0
92935,-100,4,2,1,55,0,0
93837,-100,4,2,1,45,0,0
94288,-100,4,2,1,65,0,0
94739,-100,4,2,1,55,0,0
98517,-100,4,2,1,55,0,0
98574,-100,4,2,1,55,0,0
100322,-100,4,2,1,55,0,0
100379,-100,4,2,1,55,0,0
107822,-100,4,2,1,75,0,0
108724,-100,4,2,1,55,0,0
109175,-100,4,2,1,65,0,1
114589,-100,4,2,1,75,0,1
115040,-100,4,2,1,70,0,1
115491,-100,4,2,1,65,0,1
115942,-100,4,2,1,60,0,1
116393,-100,4,2,1,65,0,1
121807,-100,4,2,1,75,0,1
123386,-100,4,2,1,55,0,1
123611,-100,4,2,1,45,0,0
124062,-100,4,2,1,65,0,1
124514,-100,4,2,1,45,0,1
124965,-100,4,2,1,65,0,1
129927,-100,4,2,1,75,0,1
130829,-100,4,2,1,55,0,0
141656,-100,4,2,1,65,0,0
143461,-100,4,2,1,45,0,0
143686,-100,4,2,1,50,0,0
143912,-100,4,2,1,55,0,0
144138,-100,4,2,1,60,0,0
144363,-100,4,2,1,65,0,0
144589,-100,4,2,1,70,0,0
145265,-100,4,2,1,75,0,1
145717,-100,4,2,1,65,0,0
151356,-100,4,2,1,65,0,0
152032,-100,4,2,1,65,0,0
152483,-100,4,2,1,75,0,1
152540,-100,4,2,1,65,0,0
156036,-100,4,2,1,65,0,0
156092,-100,4,2,1,65,0,0
156149,-100,4,2,1,65,0,0
156205,-100,4,2,1,65,0,0
156318,-100,4,2,1,65,0,0
156431,-100,4,2,1,65,0,0
156487,-100,4,2,1,65,0,0
156544,-100,4,2,1,65,0,0
158743,-100,4,2,1,65,0,0
158799,-100,4,2,1,75,0,0
159673,-100,4,2,1,65,0,0
163311,-100,4,2,1,65,0,0
163762,-100,4,2,1,60,0,0
164213,-100,4,2,1,55,0,0
164664,-100,4,2,1,50,0,0
165115,-100,4,2,1,45,0,0
165566,-100,4,2,1,50,0,0
166017,-100,4,2,1,55,0,0
166468,-100,4,2,1,60,0,0
166920,-100,4,2,1,65,0,1
172333,-100,4,2,1,75,0,1
172784,-100,4,2,1,70,0,1
173235,-100,4,2,1,65,0,1
173686,-100,4,2,1,60,0,1
174138,-100,4,2,1,65,0,1
179495,-100,4,2,1,65,0,1
179551,-100,4,2,1,75,0,1
181130,-100,4,2,1,55,0,1
181299,-100,4,2,1,55,0,1
181356,-100,4,2,1,45,0,0
181807,-100,4,2,1,65,0,1
182258,-100,4,2,1,45,0,1
182709,-100,4,2,1,65,0,1
187671,-100,4,2,1,75,0,1
188235,-100,4,2,1,75,0,0

[Colours]
Combo1 : 200,179,221
Combo2 : 171,202,155
Combo3 : 206,196,153
Combo4 : 192,222,220

[HitObjects]
32,365,904,6,0,P|24:327|2:261,1,99.9999999999999,4|2,0:0|0:0,0:0:0:0:
40,91,1807,2,0,P|69:99|88:113,1,50,2|2,0:0|0:0,0:0:0:0:
133,186,2258,2,0,P|162:178|181:164,1,50,2|2,0:0|0:0,0:0:0:0:
267,156,2709,6,0,P|266:126|296:49,1,99.9999999999999,2|0,0:3|0:0,0:0:0:0:
478,72,3611,2,0,L|465:13,2,50,2|2|2,0:0|0:0|0:0,0:0:0:0:
502,250,4514,6,0,B|452:236|452:236|414:274,1,99.9999999999999,2|2,0:3|0:0,0:0:0:0:
261,357,5416,2,0,L|210:348,1,50,2|2,0:0|0:0,0:0:0:0:
192,260,5867,2,0,L|141:269,1,50,2|2,0:0|0:0,0:0:0:0:
103,350,6318,6,0,L|-5:328,1,99.9999999999999,2|0,0:3|0:0,0:0:0:0:
72,163,7220,1,2,0:0:0:0:
219,265,7671,1,2,0:0:0:0:
378,180,8123,6,0,B|389:131|389:131|344:80,1,99.9999999999999,6|2,0:0|3:2,0:0:0:0:
197,8,9025,2,0,L|145:22,1,50,2|2,0:0|0:0,0:0:0:0:
146,111,9476,2,0,L|91:99,1,50,2|2,3:2|0:0,0:0:0:0:
16,139,9927,6,0,L|40:239,1,99.9999999999999,0|0,0:0|3:0,0:0:0:0:
204,308,10829,2,0,L|189:375,2,50,2|2|2,0:0|0:0|3:2,0:0:0:0:
307,161,11732,5,2,0:3:0:0:
307,161,11957,2,0,P|334:172|356:190,2,50,2|2|2,0:0|3:2|0:0,0:0:0:0:
236,104,12634,2,0,P|191:114|147:158,1,99.9999999999999,2|2,0:0|3:2,0:0:0:0:
68,182,13311,1,2,0:0:0:0:
139,238,13536,6,0,L|152:343,1,99.9999999999999,10|10,0:0|0:0,0:0:0:0:
330,351,14438,2,0,L|317:251,1,99.9999999999999,10|10,0:0|0:0,0:0:0:0:
493,212,15341,6,0,L|505:112,1,99.9999999999999,6|10,3:2|0:0,0:0:0:0:
489,29,16017,1,2,0:0:0:0:
489,29,16243,2,0,P|455:40|438:55,1,50,2|2,0:0|3:2,0:0:0:0:
378,110,16694,1,10,0:0:0:0:
198,121,17145,6,0,B|195:94|195:94|211:72,2,50,2|2|10,3:2|0:0|0:0,0:0:0:0:
279,160,17822,2,0,P|273:185|266:211,1,50,2|2,0:0|0:0,0:0:0:0:
276,302,18273,5,2,3:1:0:0:
276,302,18498,2,0,B|227:284|227:284|177:312,1,99.9999999999999,10|2,0:1|3:2,0:0:0:0:
16,372,19401,2,0,L|0:318,1,50,10|2,0:0|0:0,0:0:0:0:
17,235,19852,2,0,P|41:224|62:202,1,50,2|2,0:0|3:2,0:0:0:0:
30,122,20303,1,8,0:0:0:0:
208,147,20754,6,0,L|319:163,1,99.9999999999999,2|8,3:2|0:0,0:0:0:0:
369,91,21431,1,2,0:0:0:0:
453,119,21656,2,0,B|474:167|474:167|443:214,1,99.9999999999999,2|8,0:0|0:0,0:0:0:0:
303,315,22559,6,0,L|385:328,2,74.9999999999999,6|2|2,3:2|3:2|0:0,0:0:0:0:
226,275,23461,2,0,P|191:280|148:333,1,99.9999999999999,0|10,0:0|0:0,0:0:0:0:
48,177,24363,6,0,L|-11:170,2,50,2|2|10,3:2|0:0|0:0,0:0:0:0:
93,254,25040,2,0,L|142:249,1,50,2|2,0:0|0:0,0:0:0:0:
228,276,25491,2,0,B|273:297|273:297|322:264,1,99.9999999999999,2|2,3:2|0:3,0:0:0:0:
404,265,26168,5,2,3:2:0:0:
474,99,26619,2,0,P|450:78|421:69,1,50,10|0,0:0|0:0,0:0:0:0:
369,134,27070,2,0,L|259:154,1,99.9999999999999,2|8,0:0|0:0,0:0:0:0:
97,201,27972,6,0,L|106:146,1,50,2|10,3:2|0:0,0:0:0:0:
74,66,28423,2,0,B|34:59|34:59|8:88,2,74.9999999999999,10|10|8,0:0|0:0|3:0,0:0:0:0:
163,82,29326,2,0,L|217:72,1,50,8|0,0:0|3:0,0:0:0:0:
289,25,29777,6,0,B|338:16|338:16|374:57,1,99.9999999999999,6|10,3:2|0:0,0:0:0:0:
408,229,30679,2,0,L|485:214,2,74.9999999999999,2|2|2,0:0|0:0|3:2,0:0:0:0:
337,283,31581,6,0,L|235:262,1,99.9999999999999,2|8,3:0|0:0,0:0:0:0:
89,363,32483,1,0,0:0:0:0:
0,208,32935,2,0,P|39:171|60:130,1,99.9999999999999,8|4,0:0|3:2,0:0:0:0:
128,71,33611,5,2,3:2:0:0:
158,155,33837,2,0,L|213:161,1,50,10|2,0:0|0:0,0:0:0:0:
288,119,34288,2,0,L|365:110,2,74.9999999999999,2|2|0,0:0|0:0|0:0,0:0:0:0:
207,160,35190,5,0,3:2:0:0:
274,326,35641,2,0,L|329:320,1,50,10|2,0:0|0:0,0:0:0:0:
394,265,36092,2,0,B|426:304|426:304|405:361,1,99.9999999999999,2|8,0:0|0:0,0:0:0:0:
457,176,36995,6,0,L|477:69,1,99.9999999999999,6|10,3:2|0:0,0:0:0:0:
295,67,37897,2,0,P|268:54|237:14,2,74.9999999999999,2|2|2,0:0|0:0|3:2,0:0:0:0:
354,135,38799,6,0,B|369:186|369:186|333:224,1,99.9999999999999,2|8,3:0|0:0,0:0:0:0:
269,279,39476,2,0,L|286:337,2,50,0|0|0,0:0|0:0|3:0,0:0:0:0:
244,192,40153,2,0,P|199:193|153:229,1,99.9999999999999,8|4,0:0|3:2,0:0:0:0:
31,354,41055,5,10,0:0:0:0:
1,176,41506,2,0,B|3:126|3:126|55:99,1,99.9999999999999,2|10,0:0|0:0,0:0:0:0:
107,35,42183,1,2,3:2:0:0:
151,112,42408,6,0,L|200:102,1,50,8|0,0:3|3:0,0:0:0:0:
249,26,42859,2,0,L|199:16,2,50,14|0|2,0:0|0:0|0:0,0:0:0:0:
426,60,43762,1,8,3:3:0:0:
476,232,44213,6,0,P|435:232|395:279,1,99.9999999999999,4|10,3:2|0:0,0:0:0:0:
370,361,44889,1,2,0:0:0:0:
370,361,45115,2,0,P|341:349|320:331,1,50,2|2,3:2|0:0,0:0:0:0:
310,248,45566,2,0,P|334:228|360:219,1,50,10|2,0:0|0:0,0:0:0:0:
420,279,46017,5,0,3:0:0:0:
241,302,46468,1,8,0:0:0:0:
227,122,46920,2,0,L|169:112,2,50,2|2|10,3:2|0:0|0:0,0:0:0:0:
73,215,47822,6,0,B|61:265|61:265|101:304,1,99.9999999999999,2|10,3:2|0:0,0:0:0:0:
187,315,48498,1,2,0:0:0:0:
187,315,48724,2,0,L|200:364,2,50,2|2|8,3:2|0:0|0:0,0:0:0:0:
165,227,49401,1,2,0:3:0:0:
146,139,49626,6,0,B|193:123|193:123|234:162,1,99.9999999999999,2|10,3:2|0:0,0:0:0:0:
309,319,50529,2,0,B|356:334|356:334|392:299,1,99.9999999999999,2|10,3:2|0:0,0:0:0:0:
489,147,51431,6,0,L|468:43,1,99.9999999999999,4|10,3:2|0:0,0:0:0:0:
391,15,52108,1,2,0:0:0:0:
391,15,52333,2,0,P|368:25|350:41,1,50,2|2,3:2|0:0,0:0:0:0:
300,117,52784,2,0,L|245:104,1,50,10|2,0:0|0:0,0:0:0:0:
178,52,53235,5,0,3:0:0:0:
212,228,53686,1,8,0:0:0:0:
57,135,54138,2,0,L|-6:120,2,50,2|2|10,3:2|0:0|0:0,0:0:0:0:
41,314,55040,6,0,L|151:291,1,99.9999999999999,0|10,3:0|0:0,0:0:0:0:
226,305,55717,1,2,0:0:0:0:
226,305,55942,2,0,P|252:318|270:335,1,50,2|2,3:2|0:0,0:0:0:0:
352,302,56393,2,0,P|350:272|355:248,1,50,8|4,0:0|3:2,0:0:0:0:
392,166,56844,6,0,B|401:113|401:113|361:59,1,99.9999999999999,2|10,3:2|3:2,0:0:0:0:
196,111,57747,2,0,B|187:164|187:164|227:218,1,99.9999999999999,2|8,3:2|0:0,0:0:0:0:
130,360,58649,6,0,L|15:332,1,99.9999999999999,4|14,0:3|0:0,0:0:0:0:
30,156,59551,2,0,L|127:132,1,99.9999999999999,0|14,3:0|0:0,0:0:0:0:
206,176,60228,1,2,0:0:0:0:
246,96,60453,6,0,L|229:12,2,74.9999999999999,0|2|2,3:0|0:0|0:0,0:0:0:0:
336,86,61356,2,0,B|385:92|385:92|406:141,1,99.9999999999999,2|8,3:0|0:0,0:0:0:0:
446,313,62258,6,0,L|344:292,1,99.9999999999999,0|8,3:0|0:0,0:0:0:0:
280,233,62935,1,2,0:0:0:0:
191,216,63160,2,0,B|160:256|160:256|178:301,2,99.9999999999999,2|10|0,3:2|0:0|3:0,0:0:0:0:
368,186,64514,1,8,0:0:0:0:
253,46,64965,5,10,0:1:0:0:
191,216,65416,1,10,0:1:0:0:
56,96,65867,6,0,B|91:126|91:126|142:111,1,99.9999999999999,6|8,3:2|0:0,0:0:0:0:
322,107,66769,2,0,B|373:92|373:92|415:128,1,99.9999999999999,2|10,3:2|0:0,0:0:0:0:
498,129,67446,2,0,L|483:185,1,50,2|0,0:0|3:0,0:0:0:0:
414,233,67897,1,2,0:0:0:0:
414,233,68123,2,0,L|429:289,1,50,8|2,0:0|0:3,0:0:0:0:
388,362,68574,1,2,3:2:0:0:
337,189,69025,1,10,0:0:0:0:
265,354,69476,6,0,L|146:372,1,99.9999999999999,0|10,3:0|0:0,0:0:0:0:
103,310,70153,1,2,0:0:0:0:
103,310,70378,2,0,B|85:262|85:262|122:224,1,99.9999999999999,2|8,3:2|0:0,0:0:0:0:
294,187,71280,6,0,P|333:187|382:132,1,99.9999999999999,0|10,3:2|0:0,0:0:0:0:
382,62,71957,1,2,0:0:0:0:
382,62,72183,2,0,L|268:49,1,99.9999999999999,2|8,3:2|0:0,0:0:0:0:
103,29,73085,5,6,3:2:0:0:
69,205,73536,1,8,0:0:0:0:
230,125,73987,2,0,P|279:134|310:171,1,99.9999999999999,2|8,3:2|0:0,0:0:0:0:
332,258,74664,2,0,P|353:283|381:297,1,50,2|0,0:0|3:0,0:0:0:0:
454,273,75115,1,2,0:0:0:0:
454,273,75341,2,0,P|465:241|462:210,1,50,8|2,0:0|0:3,0:0:0:0:
384,185,75792,1,2,3:2:0:0:
427,359,76243,1,10,0:0:0:0:
262,286,76694,6,0,L|161:310,1,99.9999999999999,0|10,3:0|0:0,0:0:0:0:
100,254,77371,1,2,0:0:0:0:
100,254,77596,2,0,L|120:148,1,99.9999999999999,2|8,3:2|0:0,0:0:0:0:
162,77,78273,1,14,0:0:0:0:
247,100,78498,6,0,L|362:79,2,99.9999999999999,0|10|10,3:0|0:0|3:2,0:0:0:0:
81,29,79852,2,0,L|24:41,1,50,4|0,0:3|3:0,0:0:0:0:
11,127,80303,6,0,B|45:165|45:165|31:219,1,99.9999999999999,6|10,3:2|0:0,0:0:0:0:
70,300,80980,1,0,0:0:0:0:
70,300,81205,2,0,L|175:283,1,99.9999999999999,2|10,0:0|0:0,0:0:0:0:
345,320,82108,6,0,B|397:335|397:335|439:300,1,99.9999999999999,2|10,3:2|0:0,0:0:0:0:
489,237,82784,1,2,0:0:0:0:
489,237,83010,2,0,L|469:133,1,99.9999999999999,2|10,0:0|0:0,0:0:0:0:
339,19,83912,6,0,P|312:27|291:43,1,50,0|2,3:2|0:0,0:0:0:0:
253,119,84363,2,0,L|195:105,1,50,10|0,0:0|0:0,0:0:0:0:
129,56,84814,2,0,B|91:88|91:88|101:145,1,99.9999999999999,2|8,0:0|0:0,0:0:0:0:
171,303,85717,6,0,L|59:286,1,99.9999999999999,2|8,3:2|0:0,0:0:0:0:
242,229,86619,2,0,L|340:244,1,99.9999999999999,2|8,0:0|0:0,0:0:0:0:
412,189,87295,1,0,0:0:0:0:
479,249,87521,6,0,L|457:357,2,99.9999999999999,6|10|2,3:2|0:0|0:0,0:0:0:0:
393,90,88874,2,0,L|342:95,1,50,10|0,0:0|0:0,0:0:0:0:
271,39,89326,6,0,P|242:43|192:95,1,99.9999999999999,2|10,3:2|0:0,0:0:0:0:
189,184,90002,1,2,0:0:0:0:
189,184,90228,2,0,L|85:158,1,99.9999999999999,2|8,0:0|0:0,0:0:0:0:
171,321,91130,6,0,B|222:327|222:327|268:296,1,99.9999999999999,2|10,3:2|0:0,0:0:0:0:
403,187,92032,2,0,L|454:200,2,50,2|2|10,0:0|3:2|0:1,0:0:0:0:
284,51,92935,6,0,L|169:76,1,99.9999999999999,2|10,3:2|0:0,0:0:0:0:
98,42,93611,1,2,3:2:0:0:
36,108,93837,2,0,B|35:159|35:159|81:195,1,99.9999999999999,8|8,0:3|0:0,0:0:0:0:
180,334,94739,6,0,P|211:300|265:300,1,99.9999999999999,6|10,3:2|0:0,0:0:0:0:
431,359,95641,2,0,L|505:341,2,74.9999999999999,2|2|2,0:0|0:0|3:2,0:0:0:0:
349,319,96544,6,0,L|372:211,1,99.9999999999999,2|8,3:0|0:0,0:0:0:0:
436,160,97220,2,0,L|490:170,2,50,0|0|0,0:0|0:0|3:0,0:0:0:0:
384,85,97897,2,0,P|352:79|296:124,1,99.9999999999999,8|4,0:0|3:2,0:0:0:0:
265,292,98799,5,10,0:0:0:0:
134,168,99250,2,0,P|97:168|66:190,2,74.9999999999999,2|2|0,0:0|0:0|0:0,0:0:0:0:
200,229,100153,5,0,3:2:0:0:
346,124,100604,2,0,L|394:134,1,50,10|2,0:0|0:0,0:0:0:0:
479,165,101055,2,0,B|497:120|497:120|468:77,1,99.9999999999999,2|8,0:0|0:0,0:0:0:0:
283,13,101957,6,0,L|172:39,1,99.9999999999999,6|10,3:2|0:0,0:0:0:0:
128,206,102859,2,0,B|138:247|138:247|111:289,2,74.9999999999999,2|2|2,0:0|0:0|3:2,0:0:0:0:
97,120,103762,6,0,P|141:114|198:148,1,99.9999999999999,2|8,3:0|0:0,0:0:0:0:
255,200,104438,2,0,L|240:259,2,50,0|0|0,0:0|0:0|3:0,0:0:0:0:
333,155,105115,2,0,B|318:105|318:105|348:60,1,99.9999999999999,8|4,0:0|3:2,0:0:0:0:
425,25,105792,5,2,3:2:0:0:
464,205,106243,1,2,3:2:0:0:
464,205,106468,2,0,L|405:198,1,50,2|2,0:0|3:2,0:0:0:0:
343,255,106920,2,0,L|358:307,1,50,10|2,0:0|3:2,0:0:0:0:
276,344,107371,5,8,0:3:0:0:
98,370,107822,2,0,B|73:329|73:329|20:324,1,99.9999999999999,14|2,0:0|0:0,0:0:0:0:
8,145,108724,1,8,3:3:0:0:
200,172,109175,6,0,L|174:67,1,99.9999999999999,4|10,3:2|0:0,0:0:0:0:
246,18,109852,1,2,0:0:0:0:
246,18,110077,2,0,L|299:28,1,50,2|2,3:2|0:0,0:0:0:0:
385,23,110529,2,0,L|375:76,1,50,10|2,0:0|0:0,0:0:0:0:
440,135,110980,5,0,3:0:0:0:
399,315,111431,1,8,0:0:0:0:
265,194,111882,2,0,L|271:139,2,50,2|2|10,3:2|0:0|0:0,0:0:0:0:
146,328,112784,6,0,L|126:212,1,99.9999999999999,2|10,3:2|0:0,0:0:0:0:
66,166,113461,1,2,0:0:0:0:
66,167,113686,2,0,P|44:154|19:150,2,50,2|2|8,3:2|0:0|0:0,0:0:0:0:
130,230,114363,1,2,0:3:0:0:
195,168,114589,6,0,P|189:120|219:67,1,99.9999999999999,2|10,3:2|0:0,0:0:0:0:
386,34,115491,2,0,P|430:52|461:105,1,99.9999999999999,2|10,3:2|0:0,0:0:0:0:
476,273,116393,6,0,L|373:257,1,99.9999999999999,4|10,3:2|0:0,0:0:0:0:
305,213,117070,1,2,0:0:0:0:
305,213,117295,2,0,L|293:269,1,50,2|2,3:2|0:0,0:0:0:0:
300,349,117747,2,0,L|239:338,1,50,10|2,0:0|0:0,0:0:0:0:
164,365,118198,5,0,3:0:0:0:
6,277,118649,1,8,0:0:0:0:
168,199,119100,2,0,L|217:207,2,50,2|2|10,3:2|0:0|0:0,0:0:0:0:
107,29,120002,6,0,P|64:37|26:85,1,99.9999999999999,0|10,3:0|0:0,0:0:0:0:
9,169,120679,1,2,0:0:0:0:
9,169,120904,2,0,L|18:224,1,50,2|2,3:2|0:0,0:0:0:0:
13,308,121356,2,0,L|62:299,1,50,8|4,0:0|3:2,0:0:0:0:
138,346,121807,6,0,P|190:350|240:314,1,99.9999999999999,2|10,3:2|3:2,0:0:0:0:
275,152,122709,2,0,P|324:147|367:171,1,99.9999999999999,2|8,3:2|0:0,0:0:0:0:
450,331,123611,5,4,0:3:0:0:
487,155,124062,1,14,0:0:0:0:
338,257,124514,2,0,L|228:240,1,99.9999999999999,0|14,3:0|0:0,0:0:0:0:
184,170,125190,1,2,0:0:0:0:
94,158,125416,6,0,L|108:76,2,74.9999999999999,0|2|2,3:0|0:0|0:0,0:0:0:0:
36,227,126318,2,0,B|71:262|71:262|119:246,1,99.9999999999999,2|8,3:0|0:0,0:0:0:0:
282,321,127220,6,0,L|308:216,1,99.9999999999999,0|8,3:0|0:0,0:0:0:0:
395,212,127897,1,2,0:0:0:0:
369,125,128123,2,0,B|402:87|402:87|385:29,2,99.9999999999999,2|10|0,3:2|0:0|3:0,0:0:0:0:
233,243,129476,1,8,0:0:0:0:
163,76,129927,5,10,0:1:0:0:
21,186,130378,1,10,0:1:0:0:
99,347,130829,5,2,3:2:0:0:
256,192,141656,12,0,144363,3:0:0:0:
5,273,145265,6,0,B|27:259|27:259|112:290,1,99.9999999999999,6|8,0:2|0:0,0:0:0:0:
156,351,145942,1,2,0:3:0:0:
238,315,146168,2,0,L|293:324,2,50,2|2|10,3:2|0:3|0:0,0:0:0:0:
181,144,147070,6,0,B|200:150|200:150|280:118,1,99.9999999999999,2|10,3:2|0:0,0:0:0:0:
305,35,147747,1,2,0:3:0:0:
394,28,147972,2,0,B|414:35|414:35|441:121,1,99.9999999999999,2|10,3:2|0:0,0:0:0:0:
286,207,148874,2,0,B|275:191|275:191|265:155,1,50,0|2,3:0|0:3,0:0:0:0:
244,73,149326,6,0,B|231:62|231:62|191:70,1,50,10|2,0:0|0:3,0:0:0:0:
117,30,149777,2,0,B|89:47|89:47|70:123,1,99.9999999999999,0|10,3:2|0:0,0:0:0:0:
60,271,150679,6,0,B|70:249|70:249|146:226,1,99.9999999999999,2|10,3:2|0:0,0:0:0:0:
215,174,151356,1,2,0:3:0:0:
274,245,151581,2,0,B|251:319|251:319|259:344,1,99.9999999999999,2|8,3:2|0:0,0:0:0:0:
434,305,152483,6,0,B|415:287|415:287|431:199,1,99.9999999999999,6|10,0:0|0:0,0:0:0:0:
486,145,153160,1,2,0:3:0:0:
418,85,153386,2,0,B|401:109|401:109|321:128,1,99.9999999999999,2|10,3:2|0:0,0:0:0:0:
162,65,154288,6,0,B|142:41|142:41|61:38,1,99.9999999999999,2|10,3:2|0:0,0:0:0:0:
13,105,154965,1,2,0:3:0:0:
70,174,155190,2,0,B|48:247|48:247|56:271,1,99.9999999999999,2|10,3:2|0:0,0:0:0:0:
145,260,155867,1,2,0:3:0:0:
185,340,156092,6,0,B|210:339|210:339|291:358,1,99.9999999999999,6|10,3:2|0:0,0:0:0:0:
438,264,156995,2,0,B|437:239|437:239|456:158,1,99.9999999999999,6|10,0:0|0:0,0:0:0:0:
350,18,157897,6,0,B|337:35|337:35|305:53,1,50,2|2,3:2|3:2,0:0:0:0:
291,136,158348,2,0,B|269:139|269:139|234:129,1,50,8|2,3:0|3:3,0:0:0:0:
176,69,158799,2,0,B|150:64|150:64|85:133|85:133|55:128,1,150,2|8,3:1|0:0,0:0:0:0:
62,138,163311,6,0,P|46:187|69:245,2,99.9999999999999,10|10|10,0:0|0:0|0:0,0:0:0:0:
190,265,164664,1,10,0:0:0:0:
246,94,165115,2,0,P|281:128|290:177,2,99.9999999999999,10|10|10,0:0|0:0|0:0,0:0:0:0:
190,265,166468,1,10,0:0:0:0:
345,355,166920,6,0,L|449:337,1,99.9999999999999,4|10,3:2|0:0,0:0:0:0:
482,259,167596,1,2,0:0:0:0:
482,259,167822,2,0,L|480:204,1,50,2|2,3:2|0:0,0:0:0:0:
394,182,168273,2,0,L|368:230,1,50,10|2,0:0|0:0,0:0:0:0:
294,275,168724,5,0,3:0:0:0:
139,366,169175,1,8,0:0:0:0:
42,214,169626,2,0,P|18:222|-7:245,2,50,2|2|10,3:2|0:0|0:0,0:0:0:0:
198,124,170529,6,0,L|302:142,1,99.9999999999999,2|10,3:2|0:0,0:0:0:0:
387,167,171205,1,2,0:0:0:0:
387,167,171431,2,0,P|412:188|420:215,2,50,2|2|8,3:2|0:0|0:0,0:0:0:0:
320,227,172108,1,2,0:3:0:0:
296,141,172333,6,0,P|299:88|261:38,1,99.9999999999999,2|10,3:2|0:0,0:0:0:0:
100,90,173235,2,0,P|97:143|135:193,1,99.9999999999999,2|10,3:2|0:0,0:0:0:0:
257,298,174138,6,0,B|286:256|286:256|272:203,1,99.9999999999999,4|10,3:2|0:0,0:0:0:0:
206,157,174814,1,2,0:0:0:0:
206,157,175040,2,0,P|224:134|248:123,1,50,2|2,3:2|0:0,0:0:0:0:
277,41,175491,2,0,P|305:45|327:60,1,50,10|2,0:0|0:0,0:0:0:0:
329,146,175942,5,0,3:0:0:0:
167,65,176393,1,8,0:0:0:0:
99,231,176844,2,0,L|49:222,2,50,2|2|10,3:2|0:0|0:0,0:0:0:0:
229,355,177747,6,0,P|279:353|323:313,1,99.9999999999999,0|10,3:0|0:0,0:0:0:0:
363,247,178423,1,2,0:0:0:0:
363,247,178649,2,0,B|330:208|330:208|342:158,1,99.9999999999999,2|8,3:2|0:0,0:0:0:0:
412,105,179326,1,4,3:2:0:0:
338,54,179551,6,0,L|236:70,1,99.9999999999999,2|10,3:2|3:2,0:0:0:0:
198,244,180453,2,0,L|96:228,1,99.9999999999999,2|8,3:2|0:0,0:0:0:0:
46,52,181356,5,4,0:3:0:0:
16,229,181807,1,14,0:0:0:0:
176,147,182258,2,0,L|274:162,1,99.9999999999999,0|14,3:0|0:0,0:0:0:0:
308,245,182935,1,2,0:0:0:0:
368,178,183160,6,0,L|381:82,2,74.9999999999999,0|2|2,3:0|0:0|0:0,0:0:0:0:
400,262,184062,2,0,B|423:308|423:308|389:355,1,99.9999999999999,2|8,3:0|0:0,0:0:0:0:
214,337,184965,6,0,B|191:291|191:291|225:244,1,99.9999999999999,0|8,3:0|0:0,0:0:0:0:
309,246,185641,1,2,0:0:0:0:
264,167,185867,2,0,L|280:57,2,99.9999999999999,2|10|0,3:2|0:0|3:0,0:0:0:0:
299,343,187220,1,8,0:0:0:0:
165,222,187671,5,10,0:1:0:0:
13,320,188123,1,10,0:1:0:0:
