osu file format v14

[General]
AudioFilename: audio.mp3
AudioLeadIn: 0
PreviewTime: 43940
Countdown: 0
SampleSet: Soft
StackLeniency: 0.4
Mode: 0
LetterboxInBreaks: 0
WidescreenStoryboard: 1

[Editor]
DistanceSpacing: 1.6
BeatDivisor: 4
GridSize: 4
TimelineZoom: 2.299999

[Metadata]
Title:SHAKE! SHAKE! (Shizuku Kariuta ver.)
TitleUnicode:SHAKE! SHAKE!(雫カリウタver.)
Artist:POLKADOT STINGRAY
ArtistUnicode:ポルカドットスティングレイ
Creator:Flake
Version:LIGHT INSANE!
Source:
Tags:moph lecandy what nanimono 何者 japanese sawana alt alternative rock pop j-pop j-rock 私立恵比寿中学 shiritsu ebisu chugaku chūgaku chuugaku jrock jpop
BeatmapID:3095744
BeatmapSetID:1431222

[Difficulty]
HPDrainRate:4.5
CircleSize:4
OverallDifficulty:7
ApproachRate:8.5
SliderMultiplier:0.999999999999999
SliderTickRate:1

[Events]
//Background and Video events
0,0,"906251.jpg",0,0
//Break Periods
2,131029,140981
2,159675,162636
//Storyboard Layer 0 (Background)
//Storyboard Layer 1 (Fail)
//Storyboard Layer 2 (Pass)
//Storyboard Layer 3 (Foreground)
//Storyboard Layer 4 (Overlay)
//Storyboard Sound Samples

[TimingPoints]
905,451.127819548872,4,2,1,45,1,0
13536,-100,4,2,1,65,0,0
15341,-66.6666666666667,4,2,1,55,0,0
18273,-66.6666666666667,4,2,1,65,0,0
18950,-66.6666666666667,4,2,1,55,0,0
22051,-66.6666666666667,4,2,1,55,0,0
22108,-66.6666666666667,4,2,1,55,0,0
22164,-66.6666666666667,4,2,1,55,0,0
22220,-66.6666666666667,4,2,1,55,0,0
25660,-66.6666666666667,4,2,1,55,0,0
25717,-66.6666666666667,4,2,1,55,0,0
27972,-66.6666666666667,4,2,1,45,0,0
28198,-66.6666666666667,4,2,1,65,0,0
29100,-66.6666666666667,4,2,1,45,0,0
29269,-66.6666666666667,4,2,1,45,0,0
29326,-66.6666666666667,4,2,1,65,0,0
29777,-66.6666666666667,4,2,1,55,0,0
31581,-66.6666666666667,4,2,2,55,0,0
32032,-66.6666666666667,4,2,1,55,0,0
38799,-66.6666666666667,4,2,2,55,0,0
39250,-66.6666666666667,4,2,1,55,0,0
42859,-66.6666666666667,4,2,1,75,0,0
43762,-66.6666666666667,4,2,1,45,0,0
44213,-50,4,2,1,65,0,1
49626,-50,4,2,1,75,0,1
50077,-50,4,2,1,70,0,1
50529,-50,4,2,1,65,0,1
50980,-50,4,2,1,60,0,1
51431,-50,4,2,1,65,0,1
56844,-50,4,2,1,75,0,1
58423,-50,4,2,1,55,0,1
58649,-50,4,2,1,45,0,0
59100,-40,4,2,1,65,0,1
59551,-50,4,2,1,45,0,1
60002,-50,4,2,1,65,0,1
64965,-50,4,2,1,75,0,1
65867,-40,4,2,1,65,0,0
66768,-50,4,2,1,65,0,0
73084,-40,4,2,1,65,0,0
73986,-50,4,2,1,65,0,0
80303,-66.6666666666667,4,2,1,55,0,0
92483,-66.6666666666667,4,2,1,65,0,0
92935,-66.6666666666667,4,2,1,55,0,0
93837,-66.6666666666667,4,2,1,45,0,0
94288,-66.6666666666667,4,2,1,65,0,0
94739,-66.6666666666667,4,2,1,55,0,0
98517,-66.6666666666667,4,2,1,55,0,0
98574,-66.6666666666667,4,2,1,55,0,0
100322,-66.6666666666667,4,2,1,55,0,0
100379,-66.6666666666667,4,2,1,55,0,0
107822,-66.6666666666667,4,2,1,75,0,0
108724,-66.6666666666667,4,2,1,55,0,0
109175,-50,4,2,1,65,0,1
114589,-50,4,2,1,75,0,1
115040,-50,4,2,1,70,0,1
115491,-50,4,2,1,65,0,1
115942,-50,4,2,1,60,0,1
116393,-50,4,2,1,65,0,1
121807,-50,4,2,1,75,0,1
123386,-50,4,2,1,55,0,1
123611,-50,4,2,1,45,0,0
124062,-40,4,2,1,65,0,1
124514,-50,4,2,1,45,0,1
124965,-50,4,2,1,65,0,1
129927,-50,4,2,1,75,0,1
130829,-133.333333333333,4,2,1,55,0,0
141656,-133.333333333333,4,2,1,65,0,0
143461,-133.333333333333,4,2,1,45,0,0
143686,-133.333333333333,4,2,1,50,0,0
143912,-133.333333333333,4,2,1,55,0,0
144138,-133.333333333333,4,2,1,60,0,0
144363,-133.333333333333,4,2,1,65,0,0
144589,-133.333333333333,4,2,1,70,0,0
145265,-40,4,2,1,75,0,1
145717,-50,4,2,1,65,0,0
151356,-50,4,2,1,65,0,0
152032,-50,4,2,1,65,0,0
152483,-50,4,2,1,75,0,1
152540,-50,4,2,1,65,0,0
156036,-50,4,2,1,65,0,0
156092,-50,4,2,1,65,0,0
156149,-50,4,2,1,65,0,0
156205,-50,4,2,1,65,0,0
156318,-50,4,2,1,65,0,0
156431,-50,4,2,1,65,0,0
156487,-50,4,2,1,65,0,0
156544,-50,4,2,1,65,0,0
157896,-44.4444444444445,4,2,1,65,0,0
158743,-44.4444444444445,4,2,1,65,0,0
158799,-44.4444444444445,4,2,1,75,0,0
159673,-44.4444444444445,4,2,1,65,0,0
163311,-100,4,2,1,65,0,0
163762,-100,4,2,1,60,0,0
164213,-100,4,2,1,55,0,0
164664,-100,4,2,1,50,0,0
165115,-100,4,2,1,45,0,0
165566,-100,4,2,1,50,0,0
166017,-100,4,2,1,55,0,0
166468,-100,4,2,1,60,0,0
166920,-50,4,2,1,65,0,1
172333,-50,4,2,1,75,0,1
172784,-50,4,2,1,70,0,1
173235,-50,4,2,1,65,0,1
173686,-50,4,2,1,60,0,1
174138,-50,4,2,1,65,0,1
179495,-50,4,2,1,65,0,1
179551,-50,4,2,1,75,0,1
181130,-50,4,2,1,55,0,1
181299,-50,4,2,1,55,0,1
181356,-50,4,2,1,45,0,0
181807,-40,4,2,1,65,0,1
182258,-50,4,2,1,45,0,1
182709,-50,4,2,1,65,0,1
187671,-50,4,2,1,75,0,1
188235,-25,4,2,1,75,0,0

[Colours]
Combo1 : 200,179,221
Combo2 : 171,202,155
Combo3 : 206,196,153
Combo4 : 192,222,220

[HitObjects]
5,338,904,6,0,L|122:306,1,99.9999999999999,4|2,0:0|0:0,0:0:0:0:
187,245,1694,1,0,0:0:0:0:
187,245,1807,2,0,P|215:253|233:272,1,50,2|2,0:0|0:0,0:0:0:0:
236,352,2257,1,2,0:0:0:0:
313,305,2483,1,2,0:0:0:0:
313,305,2596,1,2,0:0:0:0:
313,305,2709,6,0,L|330:198,1,99.9999999999999,2|0,0:3|0:0,0:0:0:0:
341,129,3385,1,0,0:0:0:0:
405,173,3611,2,0,L|431:169,2,25,2|2|2,0:0|0:0|0:0,0:0:0:0:
257,154,4062,2,0,L|242:65,1,74.9999999999999,2|2,0:0|0:0,0:0:0:0:
241,68,4514,6,0,P|197:44|143:65,1,99.9999999999999,2|2,0:3|0:0,0:0:0:0:
50,110,5302,1,0,0:0:0:0:
50,110,5415,2,0,L|-11:99,2,50,2|2|2,0:0|0:0|0:0,0:0:0:0:
183,145,6092,2,0,B|168:170|168:170|177:194,1,50,2|2,0:0|0:3,0:0:0:0:
249,198,6543,2,0,B|263:172|263:172|254:148,1,50,2|0,0:0|0:0,0:0:0:0:
149,266,6994,6,0,L|160:316,1,50,2|2,0:0|0:0,0:0:0:0:
80,312,7445,1,2,0:0:0:0:
80,312,7671,2,0,L|30:323,1,50,2|0,0:0|0:0,0:0:0:0:
255,193,8123,6,0,L|242:292,1,99.9999999999999,6|2,0:0|3:2,0:0:0:0:
315,357,8912,1,2,0:0:0:0:
315,357,9025,2,0,L|372:344,1,50,2|2,0:0|0:0,0:0:0:0:
390,236,9476,2,0,L|447:249,1,50,2|2,3:2|0:0,0:0:0:0:
392,144,9927,6,0,P|341:153|312:190,1,99.9999999999999,0|0,0:0|3:0,0:0:0:0:
313,190,10829,2,0,L|307:152,2,25,2|2|2,0:0|0:0|0:0,0:0:0:0:
240,236,11280,2,0,P|195:229|158:182,1,99.9999999999999,2|2,3:2|0:3,0:0:0:0:
22,136,11957,5,2,0:0:0:0:
96,118,12183,2,0,L|147:109,1,50,2|2,3:2|0:0,0:0:0:0:
200,49,12634,2,0,L|302:66,1,99.9999999999999,2|2,0:0|3:2,0:0:0:0:
246,137,13311,1,2,0:0:0:0:
362,116,13536,6,0,B|394:75|394:75|367:22,3,99.9999999999999,10|10|10|10,0:0|0:0|0:0|0:0,0:0:0:0:
372,32,15341,6,0,L|455:46,1,75.000002861023,6|2,3:2|0:0,0:0:0:0:
456,47,15679,1,2,3:2:0:0:
466,49,15792,2,0,P|496:76|505:117,1,75.000002861023,10|2,0:0|0:0,0:0:0:0:
434,231,16243,6,0,P|390:234|327:182,1,112.500004291534,2|2,0:0|0:0,0:0:0:0:
335,185,16694,2,0,L|349:105,1,75.000002861023,10|2,0:0|0:3,0:0:0:0:
226,31,17145,6,0,L|150:47,1,75.000002861023,2|2,3:2|0:0,0:0:0:0:
141,44,17483,1,2,3:2:0:0:
129,42,17596,2,0,L|147:120,1,75.000002861023,10|2,0:0|0:0,0:0:0:0:
89,168,18047,1,2,0:0:0:0:
78,164,18160,1,0,0:0:0:0:
67,160,18273,5,2,3:1:0:0:
15,218,18498,2,0,B|1:254|1:254|23:287,1,75.000002861023,10|2,0:1|0:3,0:0:0:0:
77,360,18950,6,0,L|166:341,1,75.000002861023,2|2,3:2|0:0,0:0:0:0:
157,352,19288,1,2,3:2:0:0:
165,358,19401,2,0,P|196:334|210:286,1,75.000002861023,10|2,0:0|0:0,0:0:0:0:
158,213,19852,5,2,0:0:0:0:
164,203,19965,1,2,0:0:0:0:
170,194,20077,2,0,L|250:204,1,75.000002861023,2|8,3:2|0:0,0:0:0:0:
307,150,20529,1,2,0:3:0:0:
357,215,20754,5,2,3:2:0:0:
353,225,20867,1,2,0:0:0:0:
350,235,20980,1,2,0:0:0:0:
416,291,21205,2,0,L|442:209,1,75.000002861023,8|2,0:0|0:0,0:0:0:0:
442,208,21544,1,10,0:0:0:0:
445,197,21656,1,2,0:0:0:0:
512,49,21882,6,0,B|488:77|488:77|448:72,1,75.000002861023,6|8,3:2|0:0,0:0:0:0:
439,70,22220,2,0,B|401:65|401:65|377:94,1,75.000002861023,6|0,3:2|0:0,0:0:0:0:
372,103,22559,6,0,L|354:25,1,75.000002861023,6|0,3:2|0:0,0:0:0:0:
353,18,22897,1,2,3:2:0:0:
349,7,23010,1,10,0:0:0:0:
287,92,23235,2,0,P|219:96|163:20,1,150.000005722046,2|0,0:0|3:0,0:0:0:0:
88,121,23912,2,0,L|97:74,2,37.5000014305115,10|2|2,0:0|0:0|0:0,0:0:0:0:
11,183,24363,5,2,3:2:0:0:
21,180,24476,1,2,0:0:0:0:
31,177,24589,1,2,0:0:0:0:
97,243,24814,2,0,L|19:264,1,75.000002861023,10|2,0:0|0:0,0:0:0:0:
13,266,25153,1,10,0:0:0:0:
2,269,25265,1,2,0:0:0:0:
44,354,25491,2,0,B|81:355|81:355|114:331,1,75.000002861023,2|8,3:2|0:0,0:0:0:0:
119,324,25829,2,0,B|149:301|149:301|186:302,1,75.000002861023,2|2,0:0|0:0,0:0:0:0:
197,304,26168,6,0,L|184:260,2,37.5000014305115,2|2|2,3:2|0:0|0:0,0:0:0:0:
299,254,26619,1,10,0:0:0:0:
296,265,26732,2,0,L|277:346,1,75.000002861023,2|10,0:0|0:0,0:0:0:0:
367,306,27070,6,0,P|414:300|464:360,2,112.500004291535,2|2|2,0:0|0:0|0:3,0:0:0:0:
299,254,27972,2,0,L|254:265,2,37.5000014305115,2|2|10,3:2|0:0|0:0,0:0:0:0:
415,199,28423,6,0,L|431:118,1,75.000002861023,10|0,0:0|3:0,0:0:0:0:
420,118,28762,2,0,L|405:191,1,75.000002861023,10|0,0:0|0:0,0:0:0:0:
402,202,29100,1,8,3:0:0:0:
335,143,29326,2,0,L|274:158,2,37.5000014305115,8|8|0,0:0|3:3|3:0,0:0:0:0:
352,61,29777,6,0,P|294:21|204:61,1,150.000005722046,6|10,3:2|0:0,0:0:0:0:
114,164,30679,2,0,B|68:129|68:129|12:149,2,112.500004291534,2|2|2,0:0|0:0|3:2,0:0:0:0:
33,371,31581,6,0,B|124:355|66:301|165:291,1,150.000005722046,2|8,3:0|0:0,0:0:0:0:
244,308,32258,2,0,L|229:224,2,75.000002861023,0|0|0,0:0|0:0|3:0,0:0:0:0:
326,365,32935,2,0,L|356:203,1,150.000005722046,8|4,0:0|3:2,0:0:0:0:
425,181,33611,5,2,3:2:0:0:
433,188,33724,1,2,0:0:0:0:
441,194,33837,2,0,L|433:113,1,75.000002861023,10|2,0:0|0:0,0:0:0:0:
346,95,34288,2,0,P|388:90|442:32,2,112.500004291534,2|2|0,0:0|0:0|0:0,0:0:0:0:
291,37,35190,1,0,3:2:0:0:
211,63,35416,5,2,3:2:0:0:
218,71,35529,1,2,0:0:0:0:
224,79,35641,2,0,L|141:67,1,75.000002861023,10|2,0:0|0:0,0:0:0:0:
0,76,36092,2,0,P|46:85|92:151,1,112.500004291534,2|2,0:0|0:0,0:0:0:0:
87,143,36544,2,0,L|4:155,1,75.000002861023,8|0,0:0|0:0,0:0:0:0:
190,317,36995,6,0,P|227:310|287:221,1,150.000005722046,6|10,3:2|0:0,0:0:0:0:
312,146,37897,2,0,P|351:142|407:194,2,112.500004291534,2|2|2,0:0|0:0|3:2,0:0:0:0:
176,150,38799,6,0,L|147:-10,1,150.000005722046,2|8,3:0|0:0,0:0:0:0:
242,20,39476,2,0,B|269:45|269:45|255:83,2,75.000002861023,0|0|0,0:0|0:0|3:0,0:0:0:0:
160,63,40153,2,0,L|73:76,1,75.000002861023,8|0,0:0|3:0,0:0:0:0:
13,31,40604,5,4,3:2:0:0:
39,146,40829,2,0,P|15:175|5:216,2,75.000002861023,2|10|2,3:2|0:0|3:2,0:0:0:0:
164,239,41506,2,0,P|169:201|158:161,1,75.000002861023,2|2,0:0|3:2,0:0:0:0:
144,333,41957,2,0,L|231:314,1,75.000002861023,10|2,0:0|3:2,0:0:0:0:
300,345,42408,5,8,0:3:0:0:
310,347,42521,1,8,0:3:0:0:
320,349,42634,1,0,3:0:0:0:
330,351,42747,1,0,3:0:0:0:
340,353,42859,2,0,B|321:319|321:319|337:275,1,75.000002861023,14|0,0:0|0:0,0:0:0:0:
417,253,43311,2,0,L|258:231,1,150.000005722046,2|8,0:0|3:3,0:0:0:0:
268,232,44213,6,0,P|284:200|199:204,1,150,4|2,3:2|0:0,0:0:0:0:
141,224,44664,2,0,P|78:223|68:176,1,99.9999999999999,10|2,0:0|0:0,0:0:0:0:
66,187,45002,1,0,0:0:0:0:
66,178,45115,6,0,P|41:194|31:219,1,50,2|0,3:2|0:0,0:0:0:0:
141,224,45341,2,0,P|142:253|159:274,1,50,2|0,0:0|0:0,0:0:0:0:
151,368,45566,2,0,P|126:352|116:327,1,50,10|0,0:0|0:0,0:0:0:0:
226,322,45792,2,0,P|227:292|244:271,1,50,2|2,0:0|0:0,0:0:0:0:
310,350,46017,6,0,L|421:363,1,99.9999999999999,0|2,3:0|0:3,0:0:0:0:
141,224,46468,2,0,L|30:237,1,99.9999999999999,8|2,0:0|0:3,0:0:0:0:
371,130,46920,6,0,P|389:112|398:83,2,50,2|2|2,3:2|0:0|0:0,0:0:0:0:
303,200,47371,2,0,L|282:99,1,99.9999999999999,10|0,0:0|0:0,0:0:0:0:
289,95,47709,1,2,0:0:0:0:
295,89,47822,6,0,B|260:62|261:22|261:22|248:60|195:74,1,150,2|2,3:2|0:0,0:0:0:0:
136,101,48273,2,0,P|186:105|201:158,1,99.9999999999999,10|2,0:0|0:0,0:0:0:0:
199,155,48611,1,0,0:0:0:0:
193,163,48724,6,0,L|135:174,1,50,2|0,3:2|0:0,0:0:0:0:
205,238,48950,2,0,L|147:249,1,50,2|2,0:0|0:0,0:0:0:0:
84,220,49175,1,8,0:0:0:0:
133,344,49401,6,0,P|146:302|156:234,1,99.9999999999999,2|2,0:3|3:2,0:0:0:0:
267,365,49852,2,0,P|274:315|289:267,1,99.9999999999999,2|10,0:3|0:0,0:0:0:0:
500,221,50303,6,0,P|492:171|477:123,1,99.9999999999999,2|2,0:3|3:2,0:0:0:0:
394,245,50754,1,2,0:3:0:0:
394,245,50980,2,0,P|379:197|371:147,1,99.9999999999999,10|0,0:0|0:0,0:0:0:0:
315,40,51431,6,0,P|252:26|204:111,1,150,4|2,3:2|0:0,0:0:0:0:
138,128,51882,2,0,B|188:124|188:124|227:159,1,99.9999999999999,10|2,0:0|0:0,0:0:0:0:
232,163,52220,1,0,0:0:0:0:
239,169,52333,6,0,P|211:192|202:217,1,50,2|0,3:2|0:0,0:0:0:0:
320,250,52559,2,0,P|286:237|259:241,1,50,2|0,0:0|0:0,0:0:0:0:
177,317,52784,2,0,P|205:294|214:269,1,50,10|0,0:0|0:0,0:0:0:0:
96,236,53010,2,0,P|129:248|156:244,1,50,2|2,0:0|0:0,0:0:0:0:
138,128,53235,6,0,B|109:86|109:86|128:31,1,99.9999999999999,0|2,3:0|0:3,0:0:0:0:
298,28,53686,2,0,B|327:70|327:70|308:125,1,99.9999999999999,8|2,0:0|0:3,0:0:0:0:
288,218,54138,6,0,L|240:204,2,50,2|2|2,3:2|0:0|0:0,0:0:0:0:
333,288,54589,2,0,P|385:282|419:241,1,99.9999999999999,10|0,0:0|0:0,0:0:0:0:
420,239,54927,1,2,0:0:0:0:
421,229,55040,6,0,L|393:72,1,150,0|2,3:0|0:0,0:0:0:0:
350,17,55491,2,0,B|363:42|363:42|338:122,1,99.9999999999999,10|2,0:0|0:0,0:0:0:0:
338,120,55829,1,0,0:0:0:0:
334,129,55942,6,0,L|278:118,1,50,2|0,3:2|0:0,0:0:0:0:
269,43,56168,2,0,L|213:54,1,50,2|0,0:0|0:0,0:0:0:0:
160,120,56393,2,0,L|216:131,1,50,8|0,0:0|0:0,0:0:0:0:
225,206,56619,2,0,L|281:195,1,50,4|0,3:2|0:0,0:0:0:0:
280,281,56844,6,0,P|248:320|230:370,1,99.9999999999999,2|2,3:2|0:3,0:0:0:0:
160,120,57295,2,0,P|142:72|107:32,1,99.9999999999999,10|2,3:2|0:3,0:0:0:0:
102,29,57634,1,10,0:0:0:0:
93,23,57747,6,0,L|194:39,1,99.9999999999999,2|8,3:2|0:3,0:0:0:0:
225,206,58198,2,0,L|274:198,2,50,8|8|4,0:0|0:3|0:3,0:0:0:0:
142,216,58649,5,4,0:3:0:0:
132,217,58762,1,8,0:3:0:0:
122,218,58874,1,4,0:3:0:0:
262,113,59100,6,0,P|324:120|368:173,1,125,14|2,0:0|0:3,0:0:0:0:
378,336,59551,6,0,P|358:290|377:239,1,99.9999999999999,0|2,3:0|0:3,0:0:0:0:
500,191,60002,1,14,0:0:0:0:
446,286,60228,1,2,0:0:0:0:
465,85,60453,6,0,B|404:75|404:75|394:50|394:50|297:34,1,150,0|2,3:0|0:0,0:0:0:0:
263,12,60904,2,0,B|227:51|227:51|242:97,1,99.9999999999999,10|2,0:0|0:0,0:0:0:0:
372,163,61356,2,0,L|382:114,2,50,2|2|2,3:0|0:0|0:0,0:0:0:0:
271,186,61807,2,0,L|300:337,1,150,8|2,0:0|0:0,0:0:0:0:
302,342,62258,5,0,3:0:0:0:
331,270,62483,2,0,L|216:256,1,99.9999999999999,2|8,0:0|0:0,0:0:0:0:
150,247,62935,1,2,0:0:0:0:
188,129,63160,2,0,P|232:91|256:193,1,200,2|10,3:2|0:0,0:0:0:0:
231,257,63837,1,2,0:0:0:0:
150,247,64062,5,0,3:0:0:0:
182,321,64288,1,8,0:0:0:0:
68,318,64514,1,8,0:0:0:0:
58,321,64626,1,8,0:3:0:0:
48,324,64739,1,4,0:3:0:0:
38,328,64852,1,0,3:0:0:0:
30,330,64965,5,10,0:1:0:0:
62,132,65416,1,10,0:1:0:0:
62,132,65867,6,0,P|64:214|135:119,1,250,6|8,3:2|0:0,0:0:0:0:
164,154,66769,2,0,P|224:86|251:172,1,200,2|10,3:2|0:0,0:0:0:0:
303,245,67446,2,0,P|344:255|374:209,1,99.9999999999999,2|0,0:0|3:0,0:0:0:0:
450,179,67897,1,2,0:0:0:0:
448,166,68010,1,2,0:0:0:0:
439,157,68123,1,8,0:0:0:0:
311,169,68348,1,2,0:3:0:0:
370,108,68574,5,2,3:2:0:0:
370,108,68686,2,0,L|382:43,2,50,2|2|2,0:0|0:3|0:3,0:0:0:0:
296,64,69025,5,10,0:0:0:0:
296,64,69138,2,0,L|284:-1,2,50,2|2|2,0:0|0:3|0:3,0:0:0:0:
234,127,69476,5,0,3:0:0:0:
234,127,69701,2,0,P|196:126|168:106,1,50,2|2,0:0|0:0,0:0:0:0:
113,73,69927,1,10,0:0:0:0:
100,76,70040,1,2,0:0:0:0:
88,79,70153,1,2,0:0:0:0:
11,108,70378,6,0,P|60:100|57:167,1,99.9999999999999,2|2,3:2|0:3,0:0:0:0:
72,242,70717,2,0,P|90:195|146:230,1,99.9999999999999,2|0,0:0|0:0,0:0:0:0:
172,266,71055,2,0,P|182:295|221:314,1,50,2|2,0:0|0:0,0:0:0:0:
271,290,71280,5,0,3:2:0:0:
271,290,71732,1,10,0:0:0:0:
276,278,71844,1,2,0:0:0:0:
281,266,71957,1,2,0:0:0:0:
347,310,72183,6,0,P|383:346|389:266,1,150,2|2,3:2|0:0,0:0:0:0:
459,217,72634,2,0,P|402:239|375:185,1,99.9999999999999,8|2,0:0|0:3,0:0:0:0:
419,79,73085,6,0,P|393:23|355:125,1,250,6|8,3:2|0:0,0:0:0:0:
345,122,73987,2,0,P|352:209|279:160,1,200,2|8,3:2|0:0,0:0:0:0:
236,112,74664,2,0,P|197:97|179:153,1,99.9999999999999,2|0,0:0|3:0,0:0:0:0:
170,218,75115,1,2,0:0:0:0:
157,218,75228,1,2,0:0:0:0:
145,212,75341,1,8,0:0:0:0:
280,178,75566,1,2,0:3:0:0:
243,252,75792,5,2,3:2:0:0:
243,252,75904,2,0,L|229:314,2,50,2|2|2,0:0|0:3|0:3,0:0:0:0:
314,301,76243,5,10,0:0:0:0:
314,301,76356,2,0,L|328:363,2,50,2|2|2,0:0|0:3|0:3,0:0:0:0:
363,233,76694,5,0,3:0:0:0:
363,233,76920,2,0,P|392:240|411:262,1,50,2|2,0:0|0:0,0:0:0:0:
479,289,77145,1,10,0:0:0:0:
482,277,77258,1,2,0:0:0:0:
486,265,77371,1,2,0:0:0:0:
509,175,77596,6,0,P|453:187|439:125,1,99.9999999999999,2|2,3:2|0:3,0:0:0:0:
423,67,77935,2,0,P|405:121|344:102,1,99.9999999999999,2|0,0:0|0:0,0:0:0:0:
315,61,78273,6,0,L|250:74,1,50,14|0,0:0|0:0,0:0:0:0:
189,84,78498,1,0,3:0:0:0:
189,84,78724,6,0,P|161:100|150:119,1,50,2|2,0:3|0:3,0:0:0:0:
54,171,78950,1,10,0:0:0:0:
65,175,79062,1,2,0:0:0:0:
76,179,79175,1,2,0:0:0:0:
87,183,79288,1,10,0:0:0:0:
98,187,79401,6,0,B|143:181|143:181|145:175|145:175|201:167,1,99.9999999999999,10|8,3:2|0:3,0:0:0:0:
214,288,79852,2,0,P|169:308|165:227,1,150,4|0,0:3|0:0,0:0:0:0:
192,168,80303,6,0,L|266:179,1,75.000002861023,6|0,3:2|0:0,0:0:0:0:
274,186,80641,1,2,3:2:0:0:
282,193,80754,2,0,B|308:163|308:163|298:121,1,75.000002861023,10|0,0:0|0:0,0:0:0:0:
257,30,81205,6,0,L|167:43,1,75.000002861023,2|2,0:0|3:3,0:0:0:0:
171,42,81544,1,2,0:0:0:0:
160,44,81656,2,0,P|130:70|123:109,1,75.000002861023,10|2,0:0|0:3,0:0:0:0:
118,187,82108,5,2,3:2:0:0:
128,191,82220,1,2,0:0:0:0:
138,196,82333,1,2,0:0:0:0:
80,255,82559,2,0,B|64:294|64:294|83:328,1,75.000002861023,10|2,0:0|0:0,0:0:0:0:
87,331,82897,1,10,0:0:0:0:
92,340,83010,2,0,L|176:326,1,75.000002861023,2|2,0:0|3:2,0:0:0:0:
177,326,83348,1,2,0:0:0:0:
188,324,83461,1,10,0:0:0:0:
258,378,83686,6,0,L|281:280,1,75.000002861023,2|0,0:3|3:2,0:0:0:0:
278,294,84025,2,0,L|321:285,1,37.5000014305115,2|2,0:0|0:0,0:0:0:0:
364,227,84250,1,2,3:2:0:0:
374,223,84363,2,0,P|418:224|458:283,1,112.500004291534,10|10,0:0|0:0,0:0:0:0:
424,345,84814,5,2,0:0:0:0:
431,353,84927,2,0,L|513:342,2,75.000002861023,2|2|2,0:0|0:0|0:0,0:0:0:0:
352,367,85491,2,0,L|314:362,1,37.5000014305115,2|2,0:3|0:0,0:0:0:0:
239,340,85717,5,2,3:2:0:0:
229,345,85829,1,2,0:0:0:0:
219,350,85942,2,0,L|228:308,1,37.5000014305115,2|2,0:0|3:2,0:0:0:0:
125,284,86168,5,8,0:0:0:0:
135,289,86280,1,2,0:0:0:0:
145,294,86393,2,0,L|136:252,1,37.5000014305115,2|10,0:0|0:0,0:0:0:0:
215,235,86619,6,0,L|224:193,2,37.5000014305115,2|8|2,0:0|0:0|3:2,0:0:0:0:
140,172,87070,5,8,0:0:0:0:
129,167,87183,2,0,P|96:174|69:212,1,75.000002861023,6|2,3:2|0:0,0:0:0:0:
70,216,87521,6,0,L|24:225,2,37.5000014305115,6|2|2,3:2|0:0|0:0,0:0:0:0:
13,138,87972,1,10,0:0:0:0:
18,127,88085,2,0,L|42:41,1,75.000002861023,2|10,0:0|0:0,0:0:0:0:
108,15,88423,6,0,P|151:19|178:48,1,75.000002861023,2|2,0:0|3:2,0:0:0:0:
204,114,88874,1,10,0:0:0:0:
214,111,88987,2,0,L|317:93,1,75.000002861023,2|2,0:0|0:0,0:0:0:0:
377,57,89326,6,0,L|388:22,2,37.5000014305115,2|2|2,3:2|0:0|0:0,0:0:0:0:
374,67,89664,1,0,3:0:0:0:
371,77,89777,2,0,P|411:87|440:116,1,75.000002861023,10|2,0:0|0:0,0:0:0:0:
453,194,90228,6,0,L|494:184,3,37.5000014305115,2|2|2|2,0:0|0:0|3:2|0:0,0:0:0:0:
500,183,90679,2,0,L|483:260,1,75.000002861023,8|2,0:0|0:3,0:0:0:0:
494,331,91130,5,2,3:2:0:0:
417,345,91356,1,2,0:0:0:0:
364,226,91581,5,10,0:0:0:0:
287,212,91807,1,2,0:0:0:0:
200,276,92032,6,0,L|151:288,2,37.5000014305115,2|2|2,0:0|0:0|3:2,0:0:0:0:
272,319,92483,2,0,B|282:274|282:274|275:265|275:265|287:208,1,112.500004291534,10|2,0:1|0:0,0:0:0:0:
289,199,92935,5,2,3:2:0:0:
290,188,93047,1,2,0:0:0:0:
292,177,93160,1,10,0:0:0:0:
247,116,93386,1,10,0:0:0:0:
307,72,93611,1,2,3:2:0:0:
370,31,93837,2,0,P|410:34|481:81,1,112.500004291534,8|0,0:3|0:0,0:0:0:0:
502,91,94288,6,0,L|507:132,2,37.5000014305115,8|8|0,0:0|3:3|3:0,0:0:0:0:
502,91,94739,6,0,B|450:123|450:123|461:222,1,150.000005722046,6|10,3:2|0:0,0:0:0:0:
311,234,95641,2,0,B|306:185|306:185|295:176|295:176|287:102,2,112.500004291534,2|2|2,0:0|0:0|3:2,0:0:0:0:
366,285,96544,6,0,P|309:263|254:333,1,150.000005722046,2|8,3:0|0:0,0:0:0:0:
182,344,97220,2,0,P|145:336|119:310,2,75.000002861023,0|0|0,0:0|0:0|3:0,0:0:0:0:
182,268,97897,2,0,L|35:293,1,150.000005722046,8|4,0:0|3:2,0:0:0:0:
14,220,98574,5,2,3:2:0:0:
10,207,98686,1,2,0:0:0:0:
12,195,98799,1,10,0:0:0:0:
74,153,99025,1,2,0:0:0:0:
143,181,99250,2,0,P|186:177|243:116,2,112.500004291534,2|2|0,0:0|0:0|0:0,0:0:0:0:
162,108,100153,1,0,3:2:0:0:
208,49,100378,5,2,3:2:0:0:
222,53,100491,1,2,0:0:0:0:
236,57,100604,1,10,0:0:0:0:
309,44,100829,1,2,0:0:0:0:
366,92,101055,6,0,L|441:111,1,75.000002861023,2|2,0:0|3:2,0:0:0:0:
452,115,101393,1,2,0:0:0:0:
466,120,101506,1,8,0:0:0:0:
466,120,101957,6,0,B|399:136|399:136|396:147|396:147|324:168,1,150.000005722046,6|10,3:2|0:0,0:0:0:0:
243,289,102859,2,0,B|208:247|208:247|149:259,2,112.500004291534,2|2|2,0:0|0:0|3:2,0:0:0:0:
285,351,103762,6,0,L|261:187,1,150.000005722046,2|8,3:0|0:0,0:0:0:0:
305,140,104438,2,0,P|347:144|375:179,2,75.000002861023,0|0|0,0:0|0:0|3:0,0:0:0:0:
263,202,105115,2,0,P|214:209|154:123,1,150.000005722046,8|4,0:0|3:2,0:0:0:0:
87,103,105792,6,0,L|41:114,2,37.5000014305115,2|0|10,3:2|3:2|0:0,0:0:0:0:
110,31,106243,1,2,3:2:0:0:
124,35,106356,1,0,3:0:0:0:
139,40,106468,2,0,P|180:47|222:55,1,75.000002861023,2|2,0:0|3:2,0:0:0:0:
268,103,106920,2,0,P|274:139|281:176,1,75.000002861023,10|2,0:0|3:2,0:0:0:0:
353,196,107371,5,8,0:3:0:0:
360,186,107483,1,8,0:3:0:0:
367,176,107596,1,0,3:0:0:0:
374,166,107709,1,0,3:0:0:0:
380,156,107822,2,0,L|362:67,1,75.000002861023,14|0,0:0|0:0,0:0:0:0:
355,7,108273,2,0,B|289:21|289:21|280:16|280:16|209:32,1,150.000005722046,2|8,0:0|3:3,0:0:0:0:
209,31,109175,6,0,P|142:34|85:107,1,150,4|2,3:2|0:0,0:0:0:0:
22,126,109626,2,0,P|19:174|51:225,1,99.9999999999999,10|2,0:0|0:0,0:0:0:0:
51,224,109965,1,0,0:0:0:0:
58,230,110077,6,0,B|48:227|48:227|8:238,1,50,2|0,3:2|0:0,0:0:0:0:
138,233,110303,2,0,B|141:223|141:223|130:183,1,50,2|0,0:0|0:0,0:0:0:0:
133,309,110529,2,0,B|143:312|143:312|183:301,1,50,10|0,0:0|0:0,0:0:0:0:
55,303,110754,2,0,B|52:313|52:313|63:353,1,50,2|2,0:0|0:0,0:0:0:0:
187,312,110980,6,0,P|238:318|288:327,1,99.9999999999999,0|2,3:0|0:3,0:0:0:0:
137,173,111431,2,0,P|87:181|38:187,1,99.9999999999999,8|2,0:0|0:3,0:0:0:0:
305,237,111882,6,0,L|310:187,2,50,2|2|2,3:2|0:0|0:0,0:0:0:0:
388,223,112333,2,0,L|399:323,1,99.9999999999999,10|0,0:0|0:0,0:0:0:0:
232,169,112784,6,0,P|252:114|347:74,1,150,2|2,3:2|0:0,0:0:0:0:
394,25,113235,2,0,P|443:40|477:82,1,99.9999999999999,10|2,0:0|0:0,0:0:0:0:
477,82,113574,1,0,0:0:0:0:
483,89,113686,6,0,L|471:145,1,50,2|0,3:2|0:0,0:0:0:0:
395,163,113912,2,0,L|406:220,1,50,2|2,0:0|0:0,0:0:0:0:
484,217,114138,1,8,0:0:0:0:
358,297,114363,6,0,P|311:280|261:273,1,99.9999999999999,2|2,0:3|3:2,0:0:0:0:
395,163,114814,2,0,P|345:156|298:139,1,99.9999999999999,2|10,0:3|0:0,0:0:0:0:
182,55,115265,6,0,P|135:72|85:79,1,99.9999999999999,2|2,0:3|3:2,0:0:0:0:
219,189,115717,1,2,0:3:0:0:
219,189,115942,2,0,P|169:195|122:212,1,99.9999999999999,10|0,0:0|0:0,0:0:0:0:
0,289,116393,6,0,P|38:279|125:361,1,150,4|2,3:2|0:0,0:0:0:0:
198,363,116844,2,0,P|248:346|273:299,1,99.9999999999999,10|2,0:0|0:0,0:0:0:0:
267,297,117183,1,0,0:0:0:0:
260,289,117295,6,0,L|312:301,1,50,2|0,3:2|0:0,0:0:0:0:
357,362,117521,2,0,L|409:350,1,50,2|0,0:0|0:0,0:0:0:0:
512,306,117747,2,0,L|460:294,1,50,10|0,0:0|0:0,0:0:0:0:
415,233,117972,2,0,L|363:245,1,50,2|2,0:0|0:0,0:0:0:0:
308,300,118198,6,0,L|204:276,1,99.9999999999999,0|2,3:0|0:3,0:0:0:0:
436,155,118649,2,0,P|472:168|504:224,1,99.9999999999999,8|2,0:0|0:3,0:0:0:0:
277,194,119100,6,0,L|227:183,2,50,2|2|2,3:2|0:0|0:0,0:0:0:0:
366,244,119551,2,0,B|357:188|357:188|367:176|367:176|351:90,1,150,10|2,0:0|0:0,0:0:0:0:
360,88,120002,6,0,P|286:107|247:38,1,150,0|2,3:0|0:0,0:0:0:0:
175,18,120453,2,0,P|129:33|101:82,1,99.9999999999999,10|2,0:0|0:0,0:0:0:0:
98,84,120792,1,0,0:0:0:0:
89,89,120904,6,0,L|144:104,1,50,2|0,3:2|0:0,0:0:0:0:
66,161,121130,2,0,L|121:176,1,50,2|0,0:0|0:0,0:0:0:0:
212,231,121356,2,0,L|267:216,1,50,8|0,0:0|0:0,0:0:0:0:
189,159,121581,2,0,L|244:144,1,50,4|0,3:2|0:0,0:0:0:0:
312,156,121807,6,0,P|340:118|358:58,1,99.9999999999999,2|2,3:2|0:3,0:0:0:0:
147,276,122258,2,0,P|165:319|208:364,1,99.9999999999999,10|2,3:2|0:3,0:0:0:0:
209,363,122596,1,10,0:0:0:0:
218,365,122709,6,0,L|323:345,1,99.9999999999999,2|8,3:2|0:3,0:0:0:0:
376,224,123160,2,0,L|431:232,2,50,8|8|4,0:0|0:3|0:3,0:0:0:0:
495,271,123611,5,4,0:3:0:0:
490,279,123724,1,8,0:3:0:0:
485,287,123837,1,4,0:3:0:0:
316,346,124062,6,0,L|296:211,1,125,14|2,0:0|0:3,0:0:0:0:
229,179,124514,6,0,P|178:175|136:132,1,99.9999999999999,0|2,3:0|0:3,0:0:0:0:
214,99,124965,1,14,0:0:0:0:
64,153,125190,1,2,0:0:0:0:
152,204,125416,6,0,B|137:265|137:265|143:278|143:278|125:353,1,150,0|2,3:0|0:0,0:0:0:0:
122,362,125867,2,0,B|73:373|73:373|30:339,1,99.9999999999999,10|2,0:0|0:0,0:0:0:0:
218,272,126318,2,0,B|242:266|242:266|264:283,2,50,2|2|2,3:0|0:0|0:0,0:0:0:0:
276,350,126769,2,0,L|247:177,1,150,8|2,0:0|0:0,0:0:0:0:
249,192,127220,5,0,3:0:0:0:
310,141,127446,2,0,B|361:138|361:138|387:180,1,99.9999999999999,2|8,0:0|0:0,0:0:0:0:
460,208,127897,1,2,0:0:0:0:
400,298,128123,2,0,P|356:334|366:239,1,200,2|10,3:2|0:0,0:0:0:0:
478,286,128799,1,2,0:0:0:0:
460,208,129025,5,0,3:0:0:0:
334,240,129250,1,8,0:0:0:0:
410,340,129476,1,8,0:0:0:0:
408,330,129589,1,8,0:3:0:0:
406,320,129701,1,4,0:3:0:0:
404,310,129814,1,0,3:0:0:0:
401,298,129927,5,10,0:1:0:0:
433,100,130378,1,10,0:1:0:0:
228,65,130829,5,2,3:2:0:0:
256,192,141656,12,8,144814,3:2:0:0:
38,238,145265,6,0,B|75:215|75:215|154:278|154:278|198:247,1,187.5,6|0,0:2|0:0,0:0:0:0:
200,258,145717,6,0,B|194:225|194:225|200:214|200:214|189:161,1,99.9999999999999,8|2,0:0|0:3,0:0:0:0:
184,147,146055,1,2,0:0:0:0:
177,137,146168,2,0,L|236:151,1,50,2|0,3:2|0:0,0:0:0:0:
291,47,146393,2,0,L|232:61,1,50,2|0,0:3|0:0,0:0:0:0:
107,36,146619,2,0,B|72:72|72:72|92:127,1,99.9999999999999,10|2,0:0|0:3,0:0:0:0:
94,130,146957,1,0,0:0:0:0:
99,139,147070,2,0,L|39:123,2,50,2|2|2,3:2|0:0|0:3,0:0:0:0:
149,207,147521,6,0,B|137:248|137:248|143:256|143:256|128:310,1,99.9999999999999,10|2,0:0|0:3,0:0:0:0:
127,319,147859,1,2,0:0:0:0:
123,329,147972,1,2,3:2:0:0:
195,366,148198,6,0,P|217:362|244:344,1,50,2|2,0:3|0:0,0:0:0:0:
278,276,148423,2,0,P|320:269|348:321,1,99.9999999999999,10|2,0:0|0:3,0:0:0:0:
432,357,148874,5,0,3:0:0:0:
441,350,148987,1,2,0:0:0:0:
450,343,149100,2,0,L|437:269,1,50,2|2,0:3|0:0,0:0:0:0:
496,238,149326,2,0,L|513:137,1,99.9999999999999,10|2,0:0|0:3,0:0:0:0:
491,62,149777,5,0,3:2:0:0:
480,64,149889,2,0,L|364:88,1,99.9999999999999,2|2,0:0|0:0,0:0:0:0:
301,62,150228,2,0,B|338:96|338:96|317:156,1,99.9999999999999,10|2,0:0|0:3,0:0:0:0:
218,184,150679,6,0,L|232:240,2,50,2|2|2,3:2|0:0|0:0,0:0:0:0:
214,173,151017,1,2,0:0:0:0:
210,162,151130,2,0,P|157:168|136:213,1,99.9999999999999,10|2,0:0|0:3,0:0:0:0:
119,297,151581,6,0,L|57:285,1,50,2|2,3:2|0:0,0:0:0:0:
52,283,151807,1,2,0:3:0:0:
58,197,152032,6,0,L|120:209,1,50,8|0,0:0|0:0,0:0:0:0:
125,211,152258,1,2,0:3:0:0:
181,356,152483,6,0,B|223:344|223:344|225:337|225:337|277:325,1,99.9999999999999,6|2,0:0|0:3,0:0:0:0:
286,325,152822,1,2,0:0:0:0:
297,323,152935,2,0,B|332:355|332:355|391:343,1,99.9999999999999,10|2,0:0|0:3,0:0:0:0:
504,232,153386,6,0,L|513:173,2,50,2|2|2,3:2|0:0|0:3,0:0:0:0:
429,278,153837,2,0,L|412:156,1,99.9999999999999,10|2,0:0|0:3,0:0:0:0:
484,57,154288,6,0,B|439:49|439:49|433:55|433:55|375:45,1,99.9999999999999,2|2,3:2|0:3,0:0:0:0:
373,44,154626,1,2,0:0:0:0:
361,41,154739,2,0,B|320:70|320:70|331:120,1,99.9999999999999,10|2,0:0|0:3,0:0:0:0:
258,197,155190,6,0,L|199:182,2,50,2|2|2,3:2|0:0|0:3,0:0:0:0:
331,218,155641,1,10,0:0:0:0:
156,258,155867,1,2,0:3:0:0:
307,369,156092,5,6,3:2:0:0:
317,364,156205,2,0,B|306:337|309:315|309:315|295:333|256:343,1,99.9999999999999,2|2,0:0|0:0,0:0:0:0:
176,332,156544,2,0,P|216:326|214:256,1,99.9999999999999,10|2,0:0|0:3,0:0:0:0:
46,164,156995,5,6,0:0:0:0:
35,166,157108,1,2,0:0:0:0:
24,169,157220,1,2,0:3:0:0:
13,172,157333,1,2,0:0:0:0:
2,175,157446,2,0,B|46:186|46:186|52:180|52:180|99:188,1,99.9999999999999,10|2,0:0|0:3,0:0:0:0:
116,108,157897,6,0,P|104:63|148:1,1,112.500004291534,2|2,3:2|3:2,0:0:0:0:
267,29,158348,2,0,P|277:82|246:128,1,112.500004291534,8|2,3:0|3:3,0:0:0:0:
241,135,158686,1,2,0:0:0:0:
233,139,158799,6,0,B|290:127|290:127|296:131|296:131|338:124|338:124|355:46|355:46|413:72|413:72|413:79|413:79|491:70,1,337.500012874603,2|8,3:1|0:0,0:0:0:0:
491,69,163311,6,0,B|508:117|508:117|467:152,3,99.9999999999999,10|10|10|10,0:0|0:0|0:0|0:0,0:0:0:0:
254,103,165115,6,0,B|236:54|236:54|277:19,3,99.9999999999999,10|10|10|10,0:0|0:0|0:0|0:0,0:0:0:0:
272,22,166920,6,0,P|207:18|153:84,1,150,4|2,3:2|0:0,0:0:0:0:
71,98,167371,2,0,L|93:198,1,99.9999999999999,10|2,0:0|0:0,0:0:0:0:
95,205,167709,1,0,0:0:0:0:
97,214,167822,6,0,P|71:231|55:259,1,50,2|0,3:2|0:0,0:0:0:0:
127,284,168047,2,0,P|144:310|172:326,1,50,2|0,0:0|0:0,0:0:0:0:
197,254,168273,2,0,P|223:237|239:209,1,50,10|0,0:0|0:0,0:0:0:0:
167,184,168498,2,0,P|150:158|122:142,1,50,2|2,0:0|0:0,0:0:0:0:
154,77,168724,6,0,L|261:95,1,99.9999999999999,0|2,3:0|0:3,0:0:0:0:
235,322,169175,2,0,L|342:304,1,99.9999999999999,8|2,0:0|0:3,0:0:0:0:
480,260,169626,6,0,B|495:279|495:279|488:310,2,50,2|2|2,3:2|0:0|0:0,0:0:0:0:
399,261,170077,2,0,B|411:220|411:220|406:212|406:212|419:165,1,99.9999999999999,10|2,0:0|0:0,0:0:0:0:
428,163,170416,1,2,0:0:0:0:
437,160,170529,6,0,P|403:117|330:164,1,150,2|2,3:2|0:0,0:0:0:0:
314,232,170980,2,0,B|266:246|266:246|257:186,1,99.9999999999999,10|2,0:0|0:0,0:0:0:0:
250,190,171318,1,0,0:0:0:0:
241,185,171431,6,0,L|175:201,1,50,2|0,3:2|0:0,0:0:0:0:
223,113,171656,2,0,L|157:129,1,50,2|2,0:0|0:0,0:0:0:0:
117,182,171882,1,8,0:0:0:0:
91,16,172108,6,0,L|73:117,1,99.9999999999999,2|2,0:3|3:2,0:0:0:0:
240,14,172559,2,0,L|222:115,1,99.9999999999999,2|10,0:3|0:0,0:0:0:0:
258,283,173010,6,0,L|240:182,1,99.9999999999999,2|2,0:3|3:2,0:0:0:0:
407,285,173461,1,2,0:3:0:0:
407,285,173686,2,0,L|389:184,1,99.9999999999999,10|0,0:0|0:0,0:0:0:0:
452,86,174138,6,0,B|398:77|398:77|366:114|366:114|313:106,1,150,4|2,3:2|0:0,0:0:0:0:
240,14,174589,2,0,B|304:1|304:1|333:38,1,99.9999999999999,10|2,0:0|0:0,0:0:0:0:
331,36,174927,1,0,0:0:0:0:
341,36,175040,6,0,L|402:24,1,50,2|0,3:2|0:0,0:0:0:0:
464,7,175265,2,0,L|476:68,1,50,2|0,0:0|0:0,0:0:0:0:
512,145,175491,2,0,L|451:133,1,50,10|0,0:0|0:0,0:0:0:0:
389,116,175717,2,0,L|377:177,1,50,2|2,0:0|0:0,0:0:0:0:
321,223,175942,6,0,P|351:267|350:329,1,99.9999999999999,0|2,3:0|0:3,0:0:0:0:
187,363,176393,2,0,P|158:322|153:273,1,99.9999999999999,8|2,0:0|0:3,0:0:0:0:
261,161,176844,6,0,L|272:107,2,50,2|2|2,3:2|0:0|0:0,0:0:0:0:
222,241,177295,2,0,P|186:205|137:204,1,99.9999999999999,10|0,0:0|0:0,0:0:0:0:
130,208,177634,1,2,0:0:0:0:
121,213,177747,6,0,P|69:225|74:135,1,150,0|2,3:0|0:0,0:0:0:0:
22,79,178198,2,0,P|62:72|114:101,1,99.9999999999999,10|2,0:0|0:0,0:0:0:0:
119,106,178536,1,0,0:0:0:0:
126,113,178649,6,0,L|112:58,1,50,2|0,3:2|0:0,0:0:0:0:
196,71,178874,2,0,L|208:22,1,50,2|0,0:0|0:0,0:0:0:0:
271,109,179100,2,0,L|285:164,1,50,8|0,0:0|0:0,0:0:0:0:
201,151,179326,2,0,L|188:199,1,50,4|0,3:2|0:0,0:0:0:0:
137,336,179551,6,0,P|84:325|48:284,1,99.9999999999999,2|2,3:2|0:3,0:0:0:0:
344,249,180002,2,0,P|397:238|433:197,1,99.9999999999999,10|2,3:2|0:3,0:0:0:0:
433,197,180341,1,10,0:0:0:0:
439,189,180453,6,0,B|464:205|464:205|475:284,1,99.9999999999999,2|8,3:2|0:3,0:0:0:0:
271,109,180904,2,0,L|283:52,2,50,8|8|4,0:0|0:3|0:3,0:0:0:0:
214,181,181356,5,4,0:3:0:0:
204,184,181468,1,8,0:3:0:0:
194,187,181581,1,4,0:3:0:0:
428,206,181807,6,0,L|293:184,1,125,14|2,0:0|0:3,0:0:0:0:
194,187,182258,6,0,P|224:229|215:286,1,99.9999999999999,0|2,3:0|0:3,0:0:0:0:
142,248,182709,1,14,0:0:0:0:
184,350,182935,1,2,0:0:0:0:
103,315,183160,6,0,B|69:322|42:363|42:363|43:314|16:283,1,150,0|2,3:0|0:0,0:0:0:0:
17,285,183611,2,0,B|67:274|67:274|71:277|71:277|122:267,1,99.9999999999999,10|2,0:0|0:0,0:0:0:0:
50,183,184062,6,0,L|-2:176,2,50,2|2|2,3:0|0:0|0:0,0:0:0:0:
78,105,184514,2,0,L|226:84,1,150,8|2,0:0|0:0,0:0:0:0:
236,84,184965,5,0,3:0:0:0:
150,16,185190,1,2,0:0:0:0:
183,199,185416,2,0,P|230:197|282:156,1,99.9999999999999,8|2,0:0|0:0,0:0:0:0:
425,105,185867,6,0,P|471:111|519:156,1,99.9999999999999,2|2,3:2|0:3,0:0:0:0:
329,54,186318,1,10,0:0:0:0:
438,185,186544,2,0,L|415:287,1,99.9999999999999,2|0,0:0|3:0,0:0:0:0:
461,362,186995,5,8,0:0:0:0:
322,339,187220,1,8,0:0:0:0:
314,346,187333,1,8,0:3:0:0:
306,353,187446,1,4,0:3:0:0:
299,360,187559,1,0,3:0:0:0:
292,365,187671,5,10,0:1:0:0:
260,167,188122,1,10,0:1:0:0:
