osu file format v14

[General]
AudioFilename: audio.mp3
AudioLeadIn: 0
PreviewTime: 43940
Countdown: 0
SampleSet: Soft
StackLeniency: 0.4
Mode: 0
LetterboxInBreaks: 0
WidescreenStoryboard: 1

[Editor]
DistanceSpacing: 1.1
BeatDivisor: 4
GridSize: 4
TimelineZoom: 1.699999

[Metadata]
Title:SHAKE! SHAKE! (Shizuku Kariuta ver.)
TitleUnicode:SHAKE! SHAKE!(雫カリウタver.)
Artist:POLKADOT STINGRAY
ArtistUnicode:ポルカドットスティングレイ
Creator:Flake
Version:HARD!
Source:
Tags:moph lecandy what nanimono 何者 japanese sawana alt alternative rock pop j-pop j-rock 私立恵比寿中学 shiritsu ebisu chugaku chūgaku chuugaku jrock jpop
BeatmapID:3000875
BeatmapSetID:1431222

[Difficulty]
HPDrainRate:4
CircleSize:3.5
OverallDifficulty:6
ApproachRate:7.5
SliderMultiplier:0.999999999999999
SliderTickRate:1

[Events]
//Background and Video events
0,0,"906251.jpg",0,0
//Break Periods
2,131029,140831
2,159675,162486
//Storyboard Layer 0 (Background)
//Storyboard Layer 1 (Fail)
//Storyboard Layer 2 (Pass)
//Storyboard Layer 3 (Foreground)
//Storyboard Layer 4 (Overlay)
//Storyboard Sound Samples

[TimingPoints]
905,451.127819548872,4,2,1,45,1,0
13536,-100,4,2,1,65,0,0
15341,-80,4,2,1,55,0,0
18273,-80,4,2,1,65,0,0
18950,-80,4,2,1,55,0,0
22051,-80,4,2,1,55,0,0
22108,-80,4,2,1,55,0,0
22164,-80,4,2,1,55,0,0
22220,-80,4,2,1,55,0,0
25660,-80,4,2,1,55,0,0
25717,-80,4,2,1,55,0,0
27972,-80,4,2,1,45,0,0
28198,-80,4,2,1,65,0,0
29100,-80,4,2,1,45,0,0
29269,-80,4,2,1,45,0,0
29326,-80,4,2,1,65,0,0
29777,-80,4,2,1,55,0,0
31581,-80,4,2,2,55,0,0
32032,-80,4,2,1,55,0,0
38799,-80,4,2,2,55,0,0
39250,-80,4,2,1,55,0,0
42859,-80,4,2,1,75,0,0
43762,-80,4,2,1,45,0,0
44213,-66.6666666666667,4,2,1,65,0,1
49626,-66.6666666666667,4,2,1,75,0,1
50077,-66.6666666666667,4,2,1,70,0,1
50529,-66.6666666666667,4,2,1,65,0,1
50980,-66.6666666666667,4,2,1,60,0,1
51431,-66.6666666666667,4,2,1,65,0,1
56844,-66.6666666666667,4,2,1,75,0,1
58423,-66.6666666666667,4,2,1,55,0,1
58649,-66.6666666666667,4,2,1,45,0,0
59100,-66.6666666666667,4,2,1,65,0,1
59551,-66.6666666666667,4,2,1,45,0,1
60002,-66.6666666666667,4,2,1,65,0,1
64965,-66.6666666666667,4,2,1,75,0,1
65867,-66.6666666666667,4,2,1,65,0,0
66768,-66.6666666666667,4,2,1,65,0,0
73084,-66.6666666666667,4,2,1,65,0,0
73986,-66.6666666666667,4,2,1,65,0,0
80303,-80,4,2,1,55,0,0
92483,-80,4,2,1,65,0,0
92935,-80,4,2,1,55,0,0
93837,-80,4,2,1,45,0,0
94288,-80,4,2,1,65,0,0
94739,-80,4,2,1,55,0,0
98517,-80,4,2,1,55,0,0
98574,-80,4,2,1,55,0,0
100322,-80,4,2,1,55,0,0
100379,-80,4,2,1,55,0,0
107822,-80,4,2,1,75,0,0
108724,-80,4,2,1,55,0,0
109175,-66.6666666666667,4,2,1,65,0,1
114589,-66.6666666666667,4,2,1,75,0,1
115040,-66.6666666666667,4,2,1,70,0,1
115491,-66.6666666666667,4,2,1,65,0,1
115942,-66.6666666666667,4,2,1,60,0,1
116393,-66.6666666666667,4,2,1,65,0,1
121807,-66.6666666666667,4,2,1,75,0,1
123386,-66.6666666666667,4,2,1,55,0,1
123611,-66.6666666666667,4,2,1,45,0,0
124062,-66.6666666666667,4,2,1,65,0,1
124514,-66.6666666666667,4,2,1,45,0,1
124965,-66.6666666666667,4,2,1,65,0,1
129927,-66.6666666666667,4,2,1,75,0,1
130829,-133.333333333333,4,2,1,55,0,0
141656,-133.333333333333,4,2,1,65,0,0
143461,-133.333333333333,4,2,1,45,0,0
143686,-133.333333333333,4,2,1,50,0,0
143912,-133.333333333333,4,2,1,55,0,0
144138,-133.333333333333,4,2,1,60,0,0
144363,-133.333333333333,4,2,1,65,0,0
144589,-133.333333333333,4,2,1,70,0,0
145265,-80,4,2,1,75,0,1
145717,-80,4,2,1,65,0,0
151356,-80,4,2,1,65,0,0
152032,-80,4,2,1,65,0,0
152483,-80,4,2,1,75,0,1
152540,-80,4,2,1,65,0,0
156036,-80,4,2,1,65,0,0
156092,-80,4,2,1,65,0,0
156149,-80,4,2,1,65,0,0
156205,-80,4,2,1,65,0,0
156318,-80,4,2,1,65,0,0
156431,-80,4,2,1,65,0,0
156487,-80,4,2,1,65,0,0
156544,-80,4,2,1,65,0,0
157896,-80,4,2,1,65,0,0
158743,-80,4,2,1,65,0,0
158799,-80,4,2,1,75,0,0
159673,-80,4,2,1,65,0,0
163311,-100,4,2,1,65,0,0
163762,-100,4,2,1,60,0,0
164213,-100,4,2,1,55,0,0
164664,-100,4,2,1,50,0,0
165115,-100,4,2,1,45,0,0
165566,-100,4,2,1,50,0,0
166017,-100,4,2,1,55,0,0
166468,-100,4,2,1,60,0,0
166920,-66.6666666666667,4,2,1,65,0,1
172333,-66.6666666666667,4,2,1,75,0,1
172784,-66.6666666666667,4,2,1,70,0,1
173235,-66.6666666666667,4,2,1,65,0,1
173686,-66.6666666666667,4,2,1,60,0,1
174138,-66.6666666666667,4,2,1,65,0,1
179495,-66.6666666666667,4,2,1,65,0,1
179551,-66.6666666666667,4,2,1,75,0,1
181130,-66.6666666666667,4,2,1,55,0,1
181299,-66.6666666666667,4,2,1,55,0,1
181356,-66.6666666666667,4,2,1,45,0,0
181807,-66.6666666666667,4,2,1,65,0,1
182258,-66.6666666666667,4,2,1,45,0,1
182709,-66.6666666666667,4,2,1,65,0,1
187671,-66.6666666666667,4,2,1,75,0,1
188235,-66.6666666666667,4,2,1,75,0,0

[Colours]
Combo1 : 200,179,221
Combo2 : 171,202,155
Combo3 : 206,196,153
Combo4 : 192,222,220

[HitObjects]
20,245,904,6,0,P|70:249|114:288,1,99.9999999999999,4|2,0:0|0:0,0:0:0:0:
184,246,1581,1,2,0:0:0:0:
184,246,1807,2,0,P|185:214|203:188,1,50,2|2,0:0|0:0,0:0:0:0:
271,212,2258,2,0,P|270:244|252:270,1,50,2|2,0:0|0:0,0:0:0:0:
284,336,2709,2,0,L|185:352,2,99.9999999999999,2|0|2,0:3|0:0|0:0,0:0:0:0:
441,309,4062,1,2,0:0:0:0:
441,309,4514,6,0,B|393:326|393:326|346:283,1,99.9999999999999,2|2,0:3|0:0,0:0:0:0:
365,216,5190,1,2,0:0:0:0:
365,216,5416,2,0,P|346:194|324:182,2,50,2|2|2,0:0|0:0|0:0,0:0:0:0:
444,218,6092,2,0,P|464:179|461:109,1,99.9999999999999,2|2,0:0|0:0,0:0:0:0:
314,68,6995,2,0,P|277:91|244:153,1,99.9999999999999,2|2,0:0|0:0,0:0:0:0:
176,172,7671,2,0,P|180:201|190:222,1,50,2|0,0:0|0:0,0:0:0:0:
247,274,8123,6,0,L|233:380,2,99.9999999999999,6|2|2,0:0|3:2|0:0,0:0:0:0:
188,219,9250,1,2,0:0:0:0:
188,219,9476,2,0,L|138:232,1,50,2|2,3:2|0:0,0:0:0:0:
59,239,9927,2,0,P|22:210|-6:156,2,99.9999999999999,0|0|2,0:0|3:0|0:0,0:0:0:0:
182,136,11280,2,0,P|188:89|221:38,1,99.9999999999999,2|2,3:2|0:3,0:0:0:0:
287,9,11957,5,2,0:0:0:0:
306,86,12183,2,0,L|360:97,1,50,2|2,3:2|0:0,0:0:0:0:
430,68,12634,2,0,B|463:107|463:107|453:162,1,99.9999999999999,2|2,0:0|3:2,0:0:0:0:
387,199,13311,1,2,0:0:0:0:
385,278,13536,6,0,L|486:297,2,99.9999999999999,10|10|10,0:0|0:0|0:0,0:0:0:0:
228,246,14889,2,0,P|200:253|170:290,1,74.9999999999999,10|2,0:0|0:0,0:0:0:0:
167,300,15341,6,0,L|148:165,1,125,6|10,3:2|0:0,0:0:0:0:
90,123,16017,1,2,0:0:0:0:
137,57,16243,2,0,B|167:48|167:48|193:70,1,62.4999999999999,2|2,0:0|3:2,0:0:0:0:
272,69,16694,1,10,0:0:0:0:
391,170,17145,6,0,B|486:154|486:154|503:127,2,125,2|10|2,3:2|0:0|0:0,0:0:0:0:
320,139,18273,5,2,3:1:0:0:
303,232,18498,2,0,B|261:196|261:196|186:208,1,125,10|2,0:1|3:2,0:0:0:0:
114,179,19175,5,2,0:0:0:0:
42,209,19401,2,0,L|54:278,1,62.4999999999999,10|2,0:0|0:0,0:0:0:0:
66,352,19852,2,0,L|-6:342,2,62.4999999999999,2|2|8,0:0|3:2|0:0,0:0:0:0:
237,364,20754,6,0,P|257:360|296:333,1,62.4999999999999,2|2,3:2|0:0,0:0:0:0:
365,298,21205,1,8,0:0:0:0:
361,215,21431,1,2,0:0:0:0:
433,250,21656,2,0,L|506:240,2,62.4999999999999,2|6|8,0:0|3:2|0:0,0:0:0:0:
297,154,22559,6,0,P|305:114|356:67,2,93.7499999999999,6|2|2,3:2|3:2|0:0,0:0:0:0:
236,215,23461,2,0,P|200:188|173:101,1,125,0|10,0:0|0:0,0:0:0:0:
214,43,24138,1,2,0:0:0:0:
134,28,24363,6,0,L|-3:50,1,125,2|10,3:2|0:0,0:0:0:0:
9,216,25265,2,0,L|132:235,1,125,2|8,0:0|0:0,0:0:0:0:
174,304,25942,1,2,0:3:0:0:
237,349,26168,6,0,B|275:331|275:331|286:243,1,125,2|10,3:2|0:0,0:0:0:0:
291,173,26844,1,0,0:0:0:0:
365,221,27070,2,0,L|359:293,2,62.4999999999999,2|2|8,0:0|3:2|0:0,0:0:0:0:
439,176,27747,1,2,0:3:0:0:
371,129,27972,6,0,L|376:66,1,62.4999999999999,2|10,3:2|0:0,0:0:0:0:
444,19,28423,2,0,P|489:24|532:59,2,93.7499999999999,10|10|8,0:0|0:0|3:0,0:0:0:0:
454,103,29326,1,8,0:0:0:0:
453,112,29438,1,8,3:3:0:0:
452,121,29551,1,0,3:0:0:0:
376,66,29777,6,0,P|320:78|267:137,1,125,6|10,3:2|0:0,0:0:0:0:
233,194,30453,1,0,0:0:0:0:
191,122,30679,2,0,L|206:23,2,93.7499999999999,2|2|2,0:0|0:0|3:2,0:0:0:0:
119,165,31581,6,0,B|143:198|143:198|129:285,1,125,2|8,3:0|0:0,0:0:0:0:
113,363,32258,2,0,P|84:350|58:323,2,62.4999999999999,0|0|0,0:0|0:0|3:0,0:0:0:0:
196,360,32935,2,0,B|210:277|210:277|243:253,1,125,8|4,0:0|3:2,0:0:0:0:
303,310,33611,5,2,3:2:0:0:
367,359,33837,2,0,P|401:351|428:330,1,62.4999999999999,10|2,0:0|0:0,0:0:0:0:
420,249,34288,2,0,L|519:269,2,93.7499999999999,2|2|0,0:0|0:0|0:0,0:0:0:0:
356,187,35190,6,0,L|369:118,1,62.4999999999999,0|2,3:2|3:2,0:0:0:0:
287,110,35641,2,0,L|274:179,1,62.4999999999999,10|2,0:0|0:0,0:0:0:0:
297,258,36092,2,0,B|218:241|218:241|181:266,1,125,2|8,0:0|0:0,0:0:0:0:
116,310,36769,1,0,0:0:0:0:
59,250,36995,6,0,L|78:123,1,125,6|10,3:2|0:0,0:0:0:0:
154,122,37671,1,0,0:0:0:0:
207,58,37897,2,0,B|168:31|168:31|123:44,2,93.7499999999999,2|2|2,0:0|0:0|3:2,0:0:0:0:
237,138,38799,6,0,P|287:140|349:195,1,125,2|8,3:0|0:0,0:0:0:0:
391,257,39476,2,0,L|329:269,2,62.4999999999999,0|0|0,0:0|0:0|3:0,0:0:0:0:
462,294,40153,2,0,B|491:257|491:257|477:172,1,125,8|4,0:0|3:2,0:0:0:0:
507,103,40829,5,2,3:2:0:0:
446,48,41055,2,0,L|378:60,1,62.4999999999999,10|2,0:0|3:2,0:0:0:0:
312,19,41506,2,0,L|301:80,1,62.4999999999999,2|2,0:0|3:2,0:0:0:0:
318,160,41957,2,0,L|250:172,1,62.4999999999999,10|2,0:0|3:2,0:0:0:0:
167,177,42408,1,8,0:3:0:0:
135,95,42634,1,0,3:0:0:0:
53,84,42859,6,0,P|23:117|0:205,1,125,14|2,0:0|0:0,0:0:0:0:
133,332,43762,1,8,3:3:0:0:
133,332,44213,6,0,P|159:301|234:275,1,112.500004291534,4|2,3:2|0:0,0:0:0:0:
241,278,44664,2,0,L|321:297,1,75.000002861023,10|2,0:0|0:0,0:0:0:0:
390,354,45115,2,0,P|399:316|416:277,1,75.000002861023,2|2,3:2|0:0,0:0:0:0:
463,211,45566,1,10,0:0:0:0:
377,182,45792,2,0,P|369:164|365:146,1,37.5000014305115,2|2,0:0|0:0,0:0:0:0:
363,134,46017,6,0,B|390:116|390:116|513:138,2,150.000005722046,0|8|2,3:0|0:0|3:2,0:0:0:0:
307,74,47145,1,2,0:0:0:0:
234,114,47371,2,0,P|197:105|156:84,1,75.000002861023,10|0,0:0|0:0,0:0:0:0:
154,80,47709,1,2,0:0:0:0:
144,71,47822,5,2,3:2:0:0:
49,171,48273,2,0,L|60:248,1,75.000002861023,10|2,0:0|0:0,0:0:0:0:
27,328,48724,1,2,3:2:0:0:
109,365,48950,2,0,P|146:356|187:335,1,75.000002861023,2|8,0:0|0:0,0:0:0:0:
268,347,49401,6,0,L|257:272,1,75.000002861023,2|2,0:3|3:2,0:0:0:0:
232,182,49852,2,0,L|306:192,1,75.000002861023,2|10,0:3|0:0,0:0:0:0:
392,138,50303,2,0,L|402:212,1,75.000002861023,2|2,0:3|3:2,0:0:0:0:
487,237,50754,1,2,0:3:0:0:
428,303,50980,2,0,L|353:292,1,75.000002861023,10|0,0:0|0:0,0:0:0:0:
268,347,51431,6,0,P|233:343|165:283,1,112.500004291534,4|2,3:2|0:0,0:0:0:0:
166,285,51882,2,0,L|91:274,1,75.000002861023,10|2,0:0|0:0,0:0:0:0:
10,212,52333,2,0,P|26:172|33:130,1,75.000002861023,2|2,3:2|0:0,0:0:0:0:
4,57,52784,1,10,0:0:0:0:
139,26,53010,2,0,P|142:44|150:61,1,37.5000014305115,2|2,0:0|0:0,0:0:0:0:
158,74,53235,6,0,L|329:94,2,150.000005722046,0|8|2,3:0|0:0|3:2,0:0:0:0:
111,138,54363,1,2,0:0:0:0:
174,186,54589,2,0,P|193:221|199:259,1,75.000002861023,10|0,0:0|0:0,0:0:0:0:
198,266,54927,1,2,0:0:0:0:
196,277,55040,5,0,3:0:0:0:
345,346,55491,2,0,L|432:330,1,75.000002861023,10|2,0:0|0:0,0:0:0:0:
493,367,55942,2,0,P|501:325|513:289,1,75.000002861023,2|2,3:2|0:0,0:0:0:0:
507,211,56393,1,8,0:0:0:0:
434,124,56619,1,4,3:2:0:0:
371,183,56844,6,0,L|297:196,1,75.000002861023,2|2,3:2|0:3,0:0:0:0:
242,257,57295,2,0,P|208:237|168:231,1,75.000002861023,10|2,3:2|0:3,0:0:0:0:
99,255,57747,1,2,3:2:0:0:
134,325,57972,1,8,0:3:0:0:
48,314,58198,2,0,L|21:344,2,37.5000014305115,8|8|4,0:0|0:3|0:3,0:0:0:0:
94,245,58649,6,0,L|81:207,2,37.5000014305115,4|8|4,0:3|0:3|0:3,0:0:0:0:
169,290,59100,2,0,B|185:258|185:258|163:175,1,112.500004291534,14|0,0:0|0:0,0:0:0:0:
158,171,59551,6,0,P|176:135|206:112,1,75.000002861023,0|2,3:0|0:3,0:0:0:0:
255,50,60002,1,14,0:0:0:0:
332,78,60228,1,2,0:0:0:0:
405,111,60453,6,0,P|465:98|507:63,2,112.500004291534,0|2|2,3:0|0:0|0:0,0:0:0:0:
336,160,61356,2,0,P|338:203|356:234,1,75.000002861023,2|2,3:0|0:0,0:0:0:0:
466,261,61807,2,0,P|433:277|380:342,1,112.500004291534,8|2,0:0|0:0,0:0:0:0:
380,349,62258,5,0,3:0:0:0:
283,305,62483,2,0,L|299:384,2,75.000002861023,2|8|2,0:0|0:0|0:0,0:0:0:0:
208,348,63160,2,0,P|164:346|56:289,1,150.000005722046,2|10,3:2|0:0,0:0:0:0:
3,233,63837,2,0,L|75:215,1,75.000002861023,2|0,0:0|3:0,0:0:0:0:
146,255,64288,5,8,0:0:0:0:
154,162,64514,2,0,L|237:181,1,75.000002861023,8|4,0:0|0:3,0:0:0:0:
320,221,64965,6,0,P|308:184|313:144,1,75.000002861023,10|0,0:1|0:0,0:0:0:0:
395,120,65416,2,0,P|423:146|439:183,1,75.000002861023,10|0,0:1|0:0,0:0:0:0:
512,247,65867,6,0,B|444:215|444:215|391:268,1,150.000005722046,6|8,3:2|0:0,0:0:0:0:
246,308,66769,2,0,B|192:360|192:360|125:329,1,150.000005722046,2|10,3:2|0:0,0:0:0:0:
46,284,67446,2,0,P|52:244|84:209,1,75.000002861023,2|0,0:0|3:0,0:0:0:0:
146,186,67897,2,0,L|187:193,2,37.5000014305115,2|2|8,0:0|0:0|0:0,0:0:0:0:
82,133,68348,1,2,0:3:0:0:
155,82,68574,6,0,L|145:41,2,37.5000014305115,2|2|2,3:2|0:0|0:3,0:0:0:0:
231,41,69025,2,0,L|242:0,2,37.5000014305115,10|2|2,0:0|0:0|0:3,0:0:0:0:
277,110,69476,5,0,3:0:0:0:
328,173,69701,1,2,0:0:0:0:
334,182,69814,1,2,0:0:0:0:
340,191,69927,2,0,P|378:184|410:164,1,75.000002861023,10|2,0:0|0:0,0:0:0:0:
491,144,70378,2,0,L|463:36,2,112.500004291534,2|2|2,3:2|0:0|0:0,0:0:0:0:
512,225,71280,6,0,B|468:266|468:266|490:370,1,150.000005722046,0|10,3:2|0:0,0:0:0:0:
406,364,71957,1,2,0:0:0:0:
406,364,72183,2,0,P|358:359|330:343,1,75.000002861023,2|2,3:2|0:3,0:0:0:0:
296,277,72634,1,8,0:0:0:0:
150,313,73085,6,0,B|79:342|79:342|14:297,1,150.000005722046,6|8,3:2|0:0,0:0:0:0:
36,151,73987,2,0,B|107:122|107:122|172:167,1,150.000005722046,2|8,3:2|0:0,0:0:0:0:
214,221,74664,2,0,P|254:211|281:188,1,75.000002861023,2|0,0:0|3:0,0:0:0:0:
356,158,75115,2,0,L|349:120,2,37.5000014305115,2|2|8,0:0|0:0|0:0,0:0:0:0:
370,236,75566,1,2,0:3:0:0:
419,299,75792,6,0,L|446:336,2,37.5000014305115,2|2|2,3:2|0:0|0:3,0:0:0:0:
338,309,76243,2,0,L|319:350,2,37.5000014305115,10|2|2,0:0|0:0|0:3,0:0:0:0:
370,236,76694,5,0,3:0:0:0:
293,208,76920,1,2,0:0:0:0:
282,210,77032,1,2,0:0:0:0:
268,211,77145,2,0,P|233:202|200:177,1,75.000002861023,10|2,0:0|0:0,0:0:0:0:
128,144,77596,2,0,P|81:151|25:199,2,112.500004291534,2|2|14,3:2|0:0|0:0,0:0:0:0:
198,96,78498,1,0,3:0:0:0:
209,18,78724,1,2,0:3:0:0:
281,43,78950,6,0,L|370:29,1,75.000002861023,10|2,0:0|0:0,0:0:0:0:
441,24,79401,2,0,P|475:54|488:84,1,75.000002861023,10|8,3:2|0:3,0:0:0:0:
435,152,79852,1,4,0:3:0:0:
483,277,80303,6,0,L|407:267,1,62.4999999999999,6|0,3:2|0:0,0:0:0:0:
353,227,80754,2,0,B|331:249|331:249|342:285,1,62.4999999999999,10|0,0:0|0:0,0:0:0:0:
302,350,81205,6,0,L|226:360,1,62.4999999999999,2|2,0:0|3:3,0:0:0:0:
159,362,81656,2,0,B|143:336|143:336|154:300,1,62.4999999999999,10|2,0:0|0:3,0:0:0:0:
178,220,82108,2,0,P|217:224|295:184,1,125,2|10,3:2|0:0,0:0:0:0:
299,104,82784,1,2,0:0:0:0:
369,146,83010,2,0,L|441:157,2,62.4999999999999,2|2|10,0:0|3:2|0:0,0:0:0:0:
241,39,83912,6,0,P|202:35|124:75,1,125,0|10,3:2|0:0,0:0:0:0:
45,65,84589,1,0,0:0:0:0:
24,143,84814,2,0,L|42:211,1,62.4999999999999,2|0,0:0|3:2,0:0:0:0:
58,281,85265,2,0,P|93:293|121:316,1,62.4999999999999,8|2,0:0|0:3,0:0:0:0:
178,357,85717,6,0,B|221:312|221:312|290:329,1,125,2|8,3:2|0:0,0:0:0:0:
312,247,86393,1,2,0:0:0:0:
371,307,86619,2,0,L|360:380,2,62.4999999999999,2|2|8,0:0|3:2|0:0,0:0:0:0:
468,213,87521,6,0,P|499:192|517:160,1,62.4999999999999,6|2,3:2|0:0,0:0:0:0:
502,90,87972,2,0,P|468:73|431:74,1,62.4999999999999,10|0,0:0|0:0,0:0:0:0:
362,70,88423,2,0,B|322:116|322:116|346:186,1,125,2|10,0:0|0:0,0:0:0:0:
299,245,89100,1,0,0:0:0:0:
233,197,89326,6,0,L|102:235,1,125,2|10,3:2|0:0,0:0:0:0:
33,225,90002,1,2,0:0:0:0:
85,160,90228,2,0,L|163:136,2,62.4999999999999,2|2|8,0:0|3:2|0:0,0:0:0:0:
98,31,91130,6,0,B|194:45|194:45|207:73,1,125,2|10,3:2|0:0,0:0:0:0:
224,154,91807,1,2,0:0:0:0:
286,95,92032,2,0,L|358:81,1,62.4999999999999,2|2,0:0|3:2,0:0:0:0:
428,32,92483,2,0,P|462:43|502:95,1,93.7499999999999,10|2,0:1|0:0,0:0:0:0:
505,99,92935,5,2,3:2:0:0:
444,178,93160,2,0,B|406:158|406:158|342:171,2,93.7499999999999,10|2|8,0:0|0:3|0:3,0:0:0:0:
399,291,94288,1,8,0:0:0:0:
386,289,94401,1,8,3:3:0:0:
374,288,94514,1,0,3:0:0:0:
322,352,94739,6,0,L|197:346,1,125,6|10,3:2|0:0,0:0:0:0:
150,282,95416,1,0,0:0:0:0:
89,342,95641,2,0,P|52:337|0:301,2,93.7499999999999,2|2|2,0:0|0:0|3:2,0:0:0:0:
75,250,96544,6,0,B|61:161|61:161|86:115,1,125,2|8,3:0|0:0,0:0:0:0:
143,80,97220,2,0,L|132:11,2,62.4999999999999,0|0|0,0:0|0:0|3:0,0:0:0:0:
206,131,97897,2,0,P|247:126|322:71,1,125,8|4,0:0|3:2,0:0:0:0:
382,33,98574,5,2,3:2:0:0:
457,48,98799,2,0,P|474:83|476:119,1,62.4999999999999,10|2,0:0|0:0,0:0:0:0:
444,181,99250,2,0,L|345:165,2,93.7499999999999,2|2|0,0:0|0:0|0:0,0:0:0:0:
501,247,100153,6,0,P|490:281|471:304,1,62.4999999999999,0|2,3:2|3:2,0:0:0:0:
398,334,100604,2,0,L|328:322,1,62.4999999999999,10|2,0:0|0:0,0:0:0:0:
267,270,101055,2,0,P|211:279|143:330,1,125,2|8,0:0|0:0,0:0:0:0:
18,363,101957,6,0,L|-1:239,1,125,6|10,3:2|0:0,0:0:0:0:
31,169,102634,1,0,0:0:0:0:
109,160,102859,2,0,P|150:169|193:211,2,93.7499999999999,2|2|2,0:0|0:0|3:2,0:0:0:0:
62,93,103762,6,0,P|109:53|178:42,1,125,2|8,3:0|0:0,0:0:0:0:
244,13,104438,1,0,0:0:0:0:
235,93,104664,2,0,P|247:123|272:149,1,62.4999999999999,0|0,0:0|3:0,0:0:0:0:
329,217,105115,2,0,P|338:187|385:140,1,93.7499999999999,8|0,0:0|0:0,0:0:0:0:
394,133,105566,5,4,3:2:0:0:
440,66,105792,2,0,B|486:84|486:84|498:165,1,125,2|2,3:2|3:2,0:0:0:0:
502,240,106468,1,2,0:0:0:0:
439,286,106694,1,2,3:2:0:0:
376,334,106920,2,0,P|331:325|309:312,1,62.4999999999999,10|2,0:0|3:2,0:0:0:0:
252,360,107371,1,8,0:3:0:0:
185,322,107596,1,0,3:0:0:0:
112,285,107822,6,0,P|61:303|7:350,1,125,14|2,0:0|0:0,0:0:0:0:
12,232,108724,1,8,3:3:0:0:
12,232,109175,6,0,P|26:191|84:142,1,112.500004291534,4|2,3:2|0:0,0:0:0:0:
94,146,109626,2,0,L|180:165,1,75.000002861023,10|2,0:0|0:0,0:0:0:0:
254,212,110077,2,0,P|224:233|200:267,1,75.000002861023,2|2,3:2|0:0,0:0:0:0:
239,343,110529,1,10,0:0:0:0:
328,281,110754,2,0,L|366:294,1,37.5000014305115,2|2,0:0|0:0,0:0:0:0:
378,300,110980,6,0,L|341:135,2,150.000005722046,0|8|2,3:0|0:0|3:2,0:0:0:0:
448,341,112108,1,2,0:0:0:0:
457,260,112333,2,0,L|438:177,1,75.000002861023,10|0,0:0|0:0,0:0:0:0:
437,175,112671,1,2,0:0:0:0:
434,164,112784,5,2,3:2:0:0:
480,36,113235,2,0,P|446:17|406:11,1,75.000002861023,10|2,0:0|0:0,0:0:0:0:
330,23,113686,1,2,3:2:0:0:
347,100,113912,2,0,L|333:178,1,75.000002861023,2|8,0:0|0:0,0:0:0:0:
304,266,114363,6,0,L|377:252,1,75.000002861023,2|2,0:3|3:2,0:0:0:0:
249,194,114814,2,0,L|175:207,1,75.000002861023,2|10,0:3|0:0,0:0:0:0:
94,219,115265,6,0,P|66:248|56:288,1,75.000002861023,2|2,0:3|3:2,0:0:0:0:
104,349,115717,1,2,0:3:0:0:
183,349,115942,2,0,P|211:320|221:280,1,75.000002861023,10|0,0:0|0:0,0:0:0:0:
249,194,116393,6,0,P|296:201|361:238,1,112.500004291534,4|2,3:2|0:0,0:0:0:0:
363,240,116844,2,0,L|447:223,1,75.000002861023,10|2,0:0|0:0,0:0:0:0:
373,139,117295,2,0,P|378:102|394:68,1,75.000002861023,2|2,3:2|0:0,0:0:0:0:
341,15,117747,1,10,0:0:0:0:
221,107,117972,2,0,P|209:91|202:72,1,37.5000014305115,2|2,0:0|0:0,0:0:0:0:
198,64,118198,6,0,B|169:74|169:74|45:48,2,150.000005722046,0|8|2,3:0|0:0|3:2,0:0:0:0:
281,57,119326,1,2,0:0:0:0:
302,137,119551,2,0,P|284:172|246:199,1,75.000002861023,10|0,0:0|0:0,0:0:0:0:
171,222,120002,6,0,B|114:176|114:176|42:202,1,150.000005722046,0|10,3:0|0:0,0:0:0:0:
24,280,120679,1,2,0:0:0:0:
75,338,120904,2,0,L|160:326,1,75.000002861023,2|2,3:2|0:0,0:0:0:0:
220,290,121356,1,8,0:0:0:0:
302,349,121581,1,4,3:2:0:0:
367,295,121807,6,0,L|353:218,1,75.000002861023,2|2,3:2|0:3,0:0:0:0:
382,112,122258,2,0,P|347:136|310:144,1,75.000002861023,10|2,3:2|0:3,0:0:0:0:
239,142,122709,1,2,3:2:0:0:
281,70,122935,1,8,0:3:0:0:
208,41,123160,2,0,L|216:4,2,37.5000014305115,8|8|4,0:0|0:3|0:3,0:0:0:0:
129,57,123611,6,0,L|118:7,2,37.5000014305115,4|8|4,0:3|0:3|0:3,0:0:0:0:
108,136,124062,2,0,P|66:148|9:196,1,112.500004291534,14|0,0:0|0:0,0:0:0:0:
9,202,124514,6,0,L|28:281,1,75.000002861023,0|2,3:0|0:3,0:0:0:0:
48,350,124965,1,14,0:0:0:0:
113,297,125190,1,2,0:0:0:0:
190,256,125416,6,0,P|229:261|301:316,2,112.500004291534,0|2|2,3:0|0:0|0:0,0:0:0:0:
117,211,126318,2,0,P|140:183|181:166,1,75.000002861023,2|2,3:0|0:0,0:0:0:0:
245,93,126769,2,0,L|360:114,1,112.500004291534,8|2,0:0|0:0,0:0:0:0:
367,117,127220,5,0,3:0:0:0:
432,160,127446,2,0,P|447:123|441:85,2,75.000002861023,2|8|2,0:0|0:0|0:0,0:0:0:0:
475,243,128123,2,0,P|421:202|342:210,1,150.000005722046,2|10,3:2|0:0,0:0:0:0:
259,200,128799,2,0,L|278:278,1,75.000002861023,2|0,0:0|3:0,0:0:0:0:
295,348,129250,5,8,0:0:0:0:
208,365,129476,2,0,L|185:278,1,75.000002861023,8|4,0:0|0:3,0:0:0:0:
155,217,129927,6,0,B|122:198|122:198|79:206,1,75.000002861023,10|0,0:1|0:0,0:0:0:0:
77,117,130378,2,0,B|115:116|115:116|148:88,1,75.000002861023,10|0,0:1|0:0,0:0:0:0:
202,33,130829,1,2,3:2:0:0:
256,192,141656,12,8,144814,3:2:0:0:
256,192,145265,6,0,B|210:201|210:201|204:197|204:197|127:214,1,125,6|8,0:2|0:0,0:0:0:0:
84,274,145942,1,2,0:3:0:0:
135,335,146168,2,0,P|175:344|239:289,1,125,2|10,3:2|0:0,0:0:0:0:
140,131,147070,6,0,P|149:102|181:74,1,62.4999999999999,2|2,3:2|0:3,0:0:0:0:
250,62,147521,2,0,P|280:55|321:68,1,62.4999999999999,10|2,0:0|0:3,0:0:0:0:
365,122,147972,2,0,P|386:144|395:186,1,62.4999999999999,2|2,3:2|0:3,0:0:0:0:
309,205,148423,6,0,B|250:182|250:182|198:231,1,125,10|0,0:0|3:0,0:0:0:0:
225,305,149100,2,0,L|222:346,2,31.25,2|2|10,0:3|0:0|0:0,0:0:0:0:
307,314,149551,1,2,0:3:0:0:
379,361,149777,6,0,L|468:344,1,62.4999999999999,0|2,3:2|0:3,0:0:0:0:
508,307,150228,1,10,0:0:0:0:
497,168,150679,6,0,B|463:117|463:117|400:153,1,125,2|10,3:2|0:0,0:0:0:0:
355,207,151356,1,2,0:3:0:0:
324,133,151581,2,0,L|340:52,1,62.4999999999999,2|2,3:2|0:3,0:0:0:0:
257,54,152032,2,0,L|242:127,1,62.4999999999999,8|2,0:0|0:3,0:0:0:0:
166,153,152483,6,0,P|131:154|73:182,1,93.7499999999999,6|2,0:0|0:0,0:0:0:0:
71,192,152935,2,0,L|61:270,1,62.4999999999999,10|2,0:0|0:3,0:0:0:0:
57,347,153386,2,0,P|13:335|-19:308,2,62.4999999999999,2|2|10,3:2|0:3|0:0,0:0:0:0:
233,367,154288,6,0,P|261:336|297:326,1,62.4999999999999,2|2,3:2|0:3,0:0:0:0:
347,292,154739,2,0,L|391:300,2,31.25,10|2|2,0:0|0:0|0:3,0:0:0:0:
279,249,155190,6,0,L|266:170,1,62.4999999999999,2|2,3:2|0:3,0:0:0:0:
209,128,155641,1,10,0:0:0:0:
271,70,155867,1,2,0:3:0:0:
338,18,156092,6,0,P|388:22|455:79,1,125,6|10,3:2|0:0,0:0:0:0:
482,196,156995,2,0,P|434:200|371:254,1,125,6|10,0:0|0:0,0:0:0:0:
308,360,157897,6,0,P|293:324|266:292,1,62.4999999999999,2|2,3:2|3:2,0:0:0:0:
201,239,158348,2,0,P|186:275|159:307,1,62.4999999999999,8|2,3:0|3:3,0:0:0:0:
104,366,158799,1,2,3:1:0:0:
79,288,159025,1,8,0:0:0:0:
48,210,159250,2,0,L|64:128,1,62.4999999999999,8|8,0:0|0:0,0:0:0:0:
220,92,163311,6,0,L|329:109,2,99.9999999999999,10|10|10,0:0|0:0|0:0,0:0:0:0:
89,24,164664,1,10,0:0:0:0:
104,184,165115,6,0,L|-5:167,2,99.9999999999999,10|10|10,0:0|0:0|0:0,0:0:0:0:
235,252,166468,1,10,0:0:0:0:
235,252,166920,6,0,P|244:285|300:340,1,112.500004291534,4|2,3:2|0:0,0:0:0:0:
317,335,167371,2,0,L|404:321,1,75.000002861023,10|2,0:0|0:0,0:0:0:0:
444,228,167822,2,0,P|412:225|366:214,1,75.000002861023,2|2,3:2|0:0,0:0:0:0:
313,155,168273,1,10,0:0:0:0:
253,211,168498,2,0,P|231:216|216:218,1,37.5000014305115,2|2,0:0|0:0,0:0:0:0:
210,232,168724,6,0,P|198:161|174:76,1,150.000005722046,0|8,3:0|0:0,0:0:0:0:
213,11,169401,1,2,0:3:0:0:
285,50,169626,2,0,P|315:54|371:66,1,75.000002861023,2|2,3:2|0:0,0:0:0:0:
406,131,170077,2,0,P|436:127|488:116,1,75.000002861023,10|2,0:0|0:0,0:0:0:0:
490,121,170416,1,2,0:0:0:0:
497,128,170529,6,0,P|456:150|419:210,1,112.500004291534,2|2,3:2|0:0,0:0:0:0:
416,218,170980,2,0,L|429:295,1,75.000002861023,10|2,0:0|0:0,0:0:0:0:
363,361,171431,2,0,P|353:322|325:291,1,75.000002861023,2|2,3:2|0:0,0:0:0:0:
271,241,171882,1,8,0:0:0:0:
147,311,172108,6,0,P|165:282|177:241,1,75.000002861023,2|2,0:3|3:2,0:0:0:0:
138,160,172559,2,0,P|173:161|215:150,1,75.000002861023,2|10,0:3|0:0,0:0:0:0:
264,78,173010,2,0,P|280:108|310:139,1,75.000002861023,2|2,0:3|3:2,0:0:0:0:
357,66,173461,1,2,0:3:0:0:
404,152,173686,2,0,P|376:184|363:216,1,75.000002861023,10|0,0:0|0:0,0:0:0:0:
423,309,174138,6,0,L|309:296,1,112.500004291534,4|2,3:2|0:0,0:0:0:0:
301,295,174589,2,0,P|262:305|234:331,1,75.000002861023,10|2,0:0|0:0,0:0:0:0:
190,158,175040,2,0,P|231:164|261:188,1,75.000002861023,2|2,3:2|0:0,0:0:0:0:
197,242,175491,1,10,0:0:0:0:
127,316,175717,2,0,L|120:280,1,37.5000014305115,2|2,0:0|0:0,0:0:0:0:
116,266,175942,6,0,P|78:213|2:225,1,150.000005722046,0|8,3:0|0:0,0:0:0:0:
0,130,176619,1,2,0:3:0:0:
78,126,176844,2,0,L|93:50,1,75.000002861023,2|2,3:2|0:0,0:0:0:0:
181,27,177295,2,0,P|221:35|253:56,1,75.000002861023,10|0,0:0|0:0,0:0:0:0:
259,60,177634,1,2,0:0:0:0:
266,67,177747,6,0,P|309:62|376:30,1,112.500004291534,0|2,3:0|0:0,0:0:0:0:
383,30,178198,2,0,L|367:106,1,75.000002861023,10|2,0:0|0:0,0:0:0:0:
352,184,178649,2,0,P|386:184|429:166,1,75.000002861023,2|2,3:2|0:0,0:0:0:0:
506,170,179100,1,8,0:0:0:0:
490,251,179326,1,4,3:2:0:0:
471,331,179551,6,0,L|392:319,1,75.000002861023,2|2,3:2|0:3,0:0:0:0:
323,281,180002,2,0,L|243:293,1,75.000002861023,10|2,3:2|0:3,0:0:0:0:
171,261,180453,1,2,3:2:0:0:
182,345,180679,1,8,0:3:0:0:
103,311,180904,2,0,L|64:316,2,37.5000014305115,8|8|4,0:0|0:3|0:3,0:0:0:0:
184,255,181356,6,0,L|221:250,2,37.5000014305115,4|8|4,0:3|0:3|0:3,0:0:0:0:
99,205,181807,2,0,B|120:182|120:182|209:170,1,112.500004291534,14|0,0:0|0:0,0:0:0:0:
211,163,182258,6,0,P|227:129|233:92,1,75.000002861023,0|2,3:0|0:3,0:0:0:0:
294,35,182709,1,14,0:0:0:0:
372,63,182935,1,2,0:0:0:0:
451,93,183160,6,0,P|479:130|492:199,2,112.500004291534,0|2|2,3:0|0:0|0:0,0:0:0:0:
381,150,184062,2,0,L|345:218,1,75.000002861023,2|2,3:0|0:0,0:0:0:0:
370,329,184514,2,0,P|329:300|259:281,1,112.500004291534,8|2,0:0|0:0,0:0:0:0:
256,282,184965,1,0,3:0:0:0:
176,321,185190,6,0,P|149:347|108:361,2,75.000002861023,2|8|2,0:0|0:0|0:0,0:0:0:0:
101,268,185867,2,0,L|78:90,1,150.000005722046,2|10,3:2|0:0,0:0:0:0:
182,209,186544,2,0,L|192:128,1,75.000002861023,2|0,0:0|3:0,0:0:0:0:
160,50,186995,5,8,0:0:0:0:
243,67,187220,2,0,L|319:55,1,75.000002861023,8|4,0:0|0:3,0:0:0:0:
398,84,187671,6,0,P|378:118|377:163,1,75.000002861023,10|0,0:1|0:0,0:0:0:0:
476,109,188123,2,0,P|472:146|453:177,1,75.000002861023,10|0,0:1|0:0,0:0:0:0:
