osu file format v14

[General]
AudioFilename: audio.mp3
AudioLeadIn: 0
PreviewTime: 43940
Countdown: 0
SampleSet: Soft
StackLeniency: 0.4
Mode: 0
LetterboxInBreaks: 0
WidescreenStoryboard: 1

[Editor]
DistanceSpacing: 1
BeatDivisor: 2
GridSize: 4
TimelineZoom: 2.699999

[Metadata]
Title:SHAKE! SHAKE! (Shizuku Kariuta ver.)
TitleUnicode:SHAKE! SHAKE!(雫カリウタver.)
Artist:POLKADOT STINGRAY
ArtistUnicode:ポルカドットスティングレイ
Creator:Flake
Version:EXTRA!
Source:
Tags:moph lecandy what nanimono 何者 japanese sawana alt alternative rock pop j-pop j-rock 私立恵比寿中学 shiritsu ebisu chugaku chūgaku chuugaku jrock jpop
BeatmapID:2946166
BeatmapSetID:1431222

[Difficulty]
HPDrainRate:5.2
CircleSize:4.2
OverallDifficulty:9
ApproachRate:9.4
SliderMultiplier:2
SliderTickRate:1

[Events]
//Background and Video events
0,0,"906251.jpg",0,0
//Break Periods
2,159676,162771
//Storyboard Layer 0 (Background)
//Storyboard Layer 1 (Fail)
//Storyboard Layer 2 (Pass)
//Storyboard Layer 3 (Foreground)
//Storyboard Layer 4 (Overlay)
//Storyboard Sound Samples

[TimingPoints]
905,451.127819548872,4,2,1,45,1,0
11957,-66.6666666666667,4,2,1,45,0,0
12126,-66.6666666666667,4,2,1,5,0,0
12183,-80,4,2,1,45,0,0
12352,-80,4,2,1,5,0,0
12408,-100,4,2,1,45,0,0
13536,-100,4,2,1,65,0,0
13987,-111.111111111111,4,2,1,65,0,0
14438,-125,4,2,1,65,0,0
14889,-142.857142857143,4,2,1,65,0,0
15341,-66.6666666666667,4,2,1,55,0,0
18273,-66.6666666666667,4,2,1,65,0,0
18498,-50,4,2,1,65,0,0
18950,-50,4,2,1,55,0,0
19062,-66.6666666666667,4,2,1,55,0,0
21882,-50,4,2,1,55,0,0
22051,-50,4,2,1,5,0,0
22108,-50,4,2,1,55,0,0
22164,-50,4,2,1,5,0,0
22220,-50,4,2,1,55,0,0
22559,-66.6666666666667,4,2,1,55,0,0
25660,-66.6666666666667,4,2,1,5,0,0
25717,-66.6666666666667,4,2,1,55,0,0
27972,-100,4,2,1,45,0,0
28198,-66.6666666666667,4,2,1,65,0,0
29100,-133.333333333333,4,2,1,45,0,0
29269,-133.333333333333,4,2,1,5,0,0
29326,-66.6666666666667,4,2,1,65,0,0
29777,-50,4,2,1,55,0,0
30228,-66.6666666666667,4,2,1,55,0,0
31581,-66.6666666666667,4,2,2,55,0,0
32032,-66.6666666666667,4,2,1,55,0,0
33386,-200,4,2,1,55,0,0
33611,-66.6666666666667,4,2,1,55,0,0
35190,-200,4,2,1,55,0,0
35416,-66.6666666666667,4,2,1,55,0,0
36995,-50,4,2,1,55,0,0
37446,-66.6666666666667,4,2,1,55,0,0
38799,-66.6666666666667,4,2,2,55,0,0
39250,-66.6666666666667,4,2,1,55,0,0
40604,-200,4,2,1,55,0,0
40717,-66.6666666666667,4,2,1,55,0,0
42859,-40,4,2,1,75,0,0
43762,-200,4,2,1,45,0,0
44213,-66.6666666666667,4,2,1,65,0,1
49626,-33.3333333333333,4,2,1,75,0,1
50077,-40,4,2,1,70,0,1
50529,-50,4,2,1,65,0,1
50980,-40,4,2,1,60,0,1
51431,-66.6666666666667,4,2,1,65,0,1
56619,-30.7692307692308,4,2,1,65,0,1
56844,-28.5714285714286,4,2,1,75,0,1
58423,-133.333333333333,4,2,1,55,0,1
58649,-50,4,2,1,45,0,0
59100,-25,4,2,1,65,0,1
59551,-285.714285714286,4,2,1,45,0,1
60002,-25,4,2,1,65,0,1
60228,-285.714285714286,4,2,1,65,0,1
60453,-50,4,2,1,65,0,1
60904,-66.6666666666667,4,2,1,65,0,1
64965,-33.3333333333333,4,2,1,75,0,1
65867,-40,4,2,1,65,0,0
66769,-50,4,2,1,65,0,0
67897,-50,4,2,1,65,0,0
69701,-66.6666666666667,4,2,1,65,0,0
73085,-40,4,2,1,65,0,0
73987,-50,4,2,1,65,0,0
76920,-66.6666666666667,4,2,1,65,0,0
78273,-40,4,2,1,65,0,0
80303,-66.6666666666667,4,2,1,55,0,0
92483,-30.7692307692308,4,2,1,65,0,0
92935,-40,4,2,1,55,0,0
93837,-133.333333333333,4,2,1,45,0,0
94288,-66.6666666666667,4,2,1,65,0,0
94739,-50,4,2,1,55,0,0
95190,-66.6666666666667,4,2,1,55,0,0
98348,-200,4,2,1,55,0,0
98517,-200,4,2,1,5,0,0
98574,-66.6666666666667,4,2,1,55,0,0
100153,-200,4,2,1,55,0,0
100322,-200,4,2,1,5,0,0
100379,-66.6666666666667,4,2,1,55,0,0
101957,-50,4,2,1,55,0,0
102408,-66.6666666666667,4,2,1,55,0,0
105566,-200,4,2,1,55,0,0
105679,-66.6666666666667,4,2,1,55,0,0
107371,-100,4,2,1,55,0,0
107822,-40,4,2,1,75,0,0
108724,-200,4,2,1,55,0,0
109175,-66.6666666666667,4,2,1,65,0,1
114589,-33.3333333333333,4,2,1,75,0,1
115040,-40,4,2,1,70,0,1
115491,-50,4,2,1,65,0,1
115942,-40,4,2,1,60,0,1
116393,-66.6666666666667,4,2,1,65,0,1
121581,-30.7692307692308,4,2,1,65,0,1
121807,-28.5714285714286,4,2,1,75,0,1
123386,-133.333333333333,4,2,1,55,0,1
123611,-50,4,2,1,45,0,0
124062,-25,4,2,1,65,0,1
124514,-285.714285714286,4,2,1,45,0,1
124965,-25,4,2,1,65,0,1
125190,-285.714285714286,4,2,1,65,0,1
125416,-50,4,2,1,65,0,1
125867,-66.6666666666667,4,2,1,65,0,1
129927,-33.3333333333333,4,2,1,75,0,1
130829,-133.333333333333,4,2,1,55,0,0
141656,-200,4,2,1,65,0,0
143461,-333.333333333333,4,2,1,45,0,0
143686,-166.666666666667,4,2,1,50,0,0
143912,-111.111111111111,4,2,1,55,0,0
144138,-90.9090909090908,4,2,1,60,0,0
144363,-76.9230769230769,4,2,1,65,0,0
144589,-66.6666666666667,4,2,1,70,0,0
145265,-33.3333333333333,4,2,1,75,0,1
145717,-44.4444444444445,4,2,1,65,0,0
147070,-100,4,2,1,65,0,0
148198,-57.1428571428571,4,2,1,65,0,0
148987,-44.4444444444445,4,2,1,65,0,0
149438,-66.6666666666667,4,2,1,65,0,0
150679,-100,4,2,1,65,0,0
151356,-100,4,2,1,65,0,0
151581,-100,4,2,1,65,0,0
151807,-80,4,2,1,65,0,0
152032,-80,4,2,1,65,0,0
152483,-44.4444444444445,4,2,1,75,0,1
152540,-44.4444444444445,4,2,1,65,0,0
155867,-40,4,2,1,65,0,0
156036,-40,4,2,1,5,0,0
156092,-50,4,2,1,65,0,0
156149,-50,4,2,1,5,0,0
156205,-50,4,2,1,65,0,0
156318,-50,4,2,1,65,0,0
156431,-50,4,2,1,65,0,0
156487,-50,4,2,1,5,0,0
156544,-151.515151515152,4,2,1,65,0,0
157446,-66.6666666666667,4,2,1,65,0,0
157897,-50,4,2,1,65,0,0
158348,-40,4,2,1,65,0,0
158743,-40,4,2,1,5,0,0
158799,-40,4,2,1,75,0,0
159673,-40,4,2,1,65,0,0
163311,-100,4,2,1,65,0,0
163762,-111.111111111111,4,2,1,60,0,0
164213,-125,4,2,1,55,0,0
164664,-142.857142857143,4,2,1,50,0,0
165115,-166.666666666667,4,2,1,45,0,0
165566,-142.857142857143,4,2,1,50,0,0
166017,-125,4,2,1,55,0,0
166468,-111.111111111111,4,2,1,60,0,0
166920,-66.6666666666667,4,2,1,65,0,1
172333,-33.3333333333333,4,2,1,75,0,1
172784,-40,4,2,1,70,0,1
173235,-50,4,2,1,65,0,1
173686,-40,4,2,1,60,0,1
174138,-66.6666666666667,4,2,1,65,0,1
179326,-30.7692307692308,4,2,1,65,0,1
179495,-30.7692307692308,4,2,1,5,0,1
179551,-28.5714285714286,4,2,1,75,0,1
181130,-133.333333333333,4,2,1,55,0,1
181299,-133.333333333333,4,2,1,5,0,1
181356,-133.333333333333,4,2,1,45,0,0
181807,-25,4,2,1,65,0,1
182258,-285.714285714286,4,2,1,45,0,1
182709,-25,4,2,1,65,0,1
182935,-285.714285714286,4,2,1,65,0,1
183160,-50,4,2,1,65,0,1
183611,-66.6666666666667,4,2,1,65,0,1
187671,-25,4,2,1,75,0,1
188235,-25,4,2,1,75,0,0

[Colours]
Combo1 : 200,179,221
Combo2 : 171,202,155
Combo3 : 206,196,153
Combo4 : 192,222,220

[HitObjects]
13,302,904,5,4,0:0:0:0:
13,302,1130,2,0,L|67:308,1,50,2|2,0:0|0:0,0:0:0:0:
135,320,1356,1,2,0:0:0:0:
139,328,1468,1,2,0:0:0:0:
143,336,1581,1,2,0:0:0:0:
143,336,1807,6,0,P|177:331|224:288,1,100,2|2,0:0|0:0,0:0:0:0:
295,255,2145,2,0,P|329:260|376:303,1,100,2|0,0:0|0:0,0:0:0:0:
430,359,2483,2,0,L|484:353,1,50,2|2,0:0|0:0,0:0:0:0:
512,180,2709,5,2,0:3:0:0:
512,180,3160,1,0,0:0:0:0:
512,180,3611,5,2,0:0:0:0:
447,130,3724,1,2,0:0:0:0:
397,194,3837,1,2,0:0:0:0:
397,194,4062,2,0,L|404:224,6,25,2|0|0|0|0|0|2,0:0|0:0|0:0|0:0|0:0|0:0|0:0,0:0:0:0:
373,84,4514,5,2,0:3:0:0:
373,84,4739,2,0,P|356:104|332:120,1,50,2|2,0:0|0:0,0:0:0:0:
267,92,4965,1,2,0:0:0:0:
258,87,5077,1,2,0:0:0:0:
249,82,5190,1,2,0:0:0:0:
249,82,5416,6,0,L|145:101,1,100,2|2,0:0|0:0,0:0:0:0:
80,55,5754,2,0,L|62:153,1,100,2|0,0:0|0:0,0:0:0:0:
6,214,6092,2,0,P|26:228|43:248,1,50,2|2,0:0|0:0,0:0:0:0:
41,372,6318,5,2,0:3:0:0:
41,372,6769,2,0,P|82:368|131:328,1,100,0|2,0:0|0:0,0:0:0:0:
126,257,7220,5,2,0:0:0:0:
196,230,7333,2,0,L|209:346,1,100,2|0,0:0|0:0,0:0:0:0:
386,257,7671,5,2,0:0:0:0:
316,230,7784,2,0,L|303:346,1,100,2|0,0:0|0:0,0:0:0:0:
166,130,8123,6,0,P|189:106|253:171,1,150,6|0,0:0|0:0,0:0:0:0:
330,45,8574,2,0,P|307:21|243:86,1,150,2|2,3:2|0:0,0:0:0:0:
433,165,9025,6,0,L|486:156,1,50,2|0,0:0|0:0,0:0:0:0:
388,99,9250,2,0,L|429:64,1,50,2|2,0:0|0:0,0:0:0:0:
413,242,9476,2,0,L|463:260,1,50,2|0,3:2|0:0,0:0:0:0:
356,175,9701,1,2,0:0:0:0:
346,177,9814,1,2,0:0:0:0:
336,178,9927,6,0,B|307:174|281:140|281:140|307:285,1,200,0|0,0:0|3:0,0:0:0:0:
374,307,10604,1,0,0:0:0:0:
292,348,10829,2,0,P|268:339|247:321,2,50,2|2|2,0:0|0:0|0:0,0:0:0:0:
11,344,11280,2,0,P|50:358|134:290,1,150,2|2,3:2|0:0,0:0:0:0:
201,261,11732,1,2,0:3:0:0:
201,261,11957,6,0,P|193:215|139:164,1,112.500004291535,2|0,0:0|0:0,0:0:0:0:
143,164,12183,6,0,B|190:177|190:177|218:143,1,93.75,2|0,3:2|0:0,0:0:0:0:
226,135,12408,6,0,P|247:122|280:117,1,50,2|0,0:0|0:0,0:0:0:0:
323,172,12634,6,0,L|304:271,1,100,2|0,0:0|0:0,0:0:0:0:
304,270,12972,1,0,0:0:0:0:
360,99,13085,6,0,B|351:25|351:25|310:92,1,150,2|0,3:2|0:0,0:0:0:0:
98,183,13536,6,0,P|133:174|190:262,1,150,10|0,0:0|0:0,0:0:0:0:
53,115,13987,6,0,P|69:141|13:210,1,134.999995880127,10|0,0:0|0:0,0:0:0:0:
108,53,14438,6,0,P|89:75|12:45,1,120,10|0,0:0|0:0,0:0:0:0:
178,82,14889,6,0,P|155:73|159:2,1,104.999996795654,10|2,0:0|0:0,0:0:0:0:
13,158,15341,6,0,B|81:168|81:168|98:155|98:155|158:162,1,150.000005722046,6|2,3:2|0:0,0:0:0:0:
157,161,15679,1,2,3:2:0:0:
141,310,15792,6,0,B|116:279|116:279|124:225,1,75.0000028610231,10|0,0:0|0:0,0:0:0:0:
121,244,16017,1,2,0:0:0:0:
350,188,16130,5,10,0:0:0:0:
350,188,16244,2,0,B|375:219|375:219|369:253,1,75.0000028610231,2|0,0:0|0:0,0:0:0:0:
213,232,16468,2,0,P|250:236|286:244,1,75.0000028610231,2|2,3:2|0:0,0:0:0:0:
365,102,16694,5,10,0:0:0:0:
328,329,16807,1,2,0:0:0:0:
28,127,17145,5,2,3:2:0:0:
32,120,17258,1,2,0:0:0:0:
35,113,17371,2,0,P|76:116|107:141,1,75.0000028610231,2|2,0:0|3:2,0:0:0:0:
192,6,17596,2,0,P|151:9|120:34,1,75.0000028610231,10|0,0:0|0:0,0:0:0:0:
49,211,17822,5,2,0:0:0:0:
121,244,17935,1,10,0:0:0:0:
183,186,18047,1,2,0:0:0:0:
192,190,18160,1,0,0:0:0:0:
271,226,18273,6,0,P|229:221|202:273,1,75.0000028610231,2|0,3:1|0:0,0:0:0:0:
210,340,18498,2,0,B|178:408|52:390|58:243|169:228|206:286|206:286|223:309|256:311|281:289|286:266,1,400,10|2,0:1|3:2,0:0:0:0:
335,333,19062,5,2,0:0:0:0:
347,189,19175,2,0,P|359:224|365:261,1,75.0000028610231,2|2,0:0|3:2,0:0:0:0:
492,349,19401,2,0,P|498:312|510:277,1,75.0000028610231,10|0,0:0|0:0,0:0:0:0:
505,148,19626,5,2,0:0:0:0:
459,77,19739,1,10,0:0:0:0:
384,116,19852,1,2,0:0:0:0:
375,112,19965,1,2,0:0:0:0:
311,55,20077,6,0,B|285:80|285:80|289:125,1,75.0000028610231,2|0,3:2|0:0,0:0:0:0:
505,148,20303,2,0,B|497:88|497:88|487:81|487:81|475:0,1,150.000005722046,8|2,0:0|0:3,0:0:0:0:
291,208,20754,6,0,P|253:200|198:194,1,75.0000028610231,2|2,3:2|0:0,0:0:0:0:
161,133,20980,1,2,0:0:0:0:
86,268,21092,2,0,B|125:279|125:279|163:254,1,75.0000028610231,2|8,3:2|0:0,0:0:0:0:
218,196,21318,1,2,0:0:0:0:
92,82,21431,2,0,P|54:90|-1:96,1,75.0000028610231,2|10,0:0|0:0,0:0:0:0:
311,55,21656,1,2,0:0:0:0:
311,55,21882,6,0,B|347:50|368:8|368:8|363:52|386:77,1,150,6|0,3:2|0:0,0:0:0:0:
456,32,22108,2,0,B|467:25|466:9|466:9|457:22|439:31,1,50,8|0,0:0|0:0,0:0:0:0:
469,150,22220,2,0,B|488:134|488:134|453:97|389:104|362:159|380:203,1,200,6|0,3:2|0:0,0:0:0:0:
92,82,22559,6,0,P|138:62|211:135,1,150.000005722046,6|0,3:2|0:0,0:0:0:0:
218,196,22897,1,2,3:2:0:0:
139,170,23010,2,0,P|93:178|56:180,1,75.0000028610231,10|0,0:0|0:0,0:0:0:0:
113,340,23235,2,0,P|150:343|187:350,1,75.0000028610231,2|10,0:0|0:0,0:0:0:0:
274,370,23461,2,0,B|286:313|286:313|274:288|274:288|288:217,1,150.000005722046,0|0,0:0|3:0,0:0:0:0:
290,218,23799,1,2,0:0:0:0:
487,264,23912,5,10,0:0:0:0:
416,300,24025,1,2,0:0:0:0:
375,236,24138,2,0,P|381:196|389:159,1,75.0000028610231,2|2,0:0|0:0,0:0:0:0:
509,97,24363,5,2,3:2:0:0:
437,27,24476,1,2,0:0:0:0:
437,27,24589,2,0,P|402:34|371:66,1,75.0000028610231,2|0,0:0|3:0,0:0:0:0:
317,111,24814,2,0,L|228:125,1,75.0000028610231,10|0,0:0|0:0,0:0:0:0:
212,316,25040,5,2,0:0:0:0:
284,246,25153,1,10,0:0:0:0:
284,246,25265,2,0,P|319:253|350:285,1,75.0000028610231,2|0,0:0|0:0,0:0:0:0:
242,122,25491,2,0,B|236:95|236:95|215:189,1,112.500004291535,2|0,3:2|0:0,0:0:0:0:
217,187,25717,5,8,0:0:0:0:
156,85,25829,2,0,P|117:79|59:159,1,150.000005722046,2|2,0:0|0:0,0:0:0:0:
13,230,26168,5,2,3:2:0:0:
8,236,26280,1,2,0:0:0:0:
3,242,26393,2,0,P|40:249|83:254,1,75.0000028610231,2|0,0:0|3:0,0:0:0:0:
267,371,26619,5,10,0:0:0:0:
64,346,26732,2,0,B|124:338|124:338|132:323|132:323|210:312,1,150.000005722046,2|10,0:0|0:0,0:0:0:0:
297,216,27070,2,0,B|272:245|272:245|286:287,1,75.0000028610231,2|0,0:0|0:0,0:0:0:0:
426,240,27295,1,2,3:2:0:0:
371,360,27408,2,0,P|365:321|363:283,1,75.0000028610231,2|8,0:0|0:0,0:0:0:0:
207,200,27634,2,0,P|213:161|215:123,1,75.0000028610231,2|2,0:0|0:3,0:0:0:0:
192,55,27859,1,2,0:0:0:0:
259,12,27972,2,0,L|325:23,1,50,2|2,3:2|0:0,0:0:0:0:
327,93,28198,6,0,B|339:129|339:129|312:164,1,75.0000028610231,10|2,0:0|0:0,0:0:0:0:
99,121,28423,2,0,B|87:85|87:85|114:50,1,75.0000028610231,10|2,0:0|0:0,0:0:0:0:
192,55,28649,1,0,3:0:0:0:
192,55,28762,2,0,B|216:85|216:85|206:137,1,75.0000028610231,10|0,0:0|0:0,0:0:0:0:
130,195,28987,1,0,0:0:0:0:
83,130,29100,6,0,L|24:123,1,56.2500021457673,8|0,3:0|0:0,0:0:0:0:
15,133,29326,6,0,L|1:51,1,75.0000028610231,8|8,0:0|3:3,0:0:0:0:
130,195,29551,1,0,3:0:0:0:
438,108,29777,6,0,B|432:138|432:138|465:119|500:62|439:-24|323:14|350:120,1,300,6|0,3:2|3:0,0:0:0:0:
302,180,30228,2,0,B|365:196|365:196|371:209|371:209|447:230,1,150.000005722046,10|0,0:0|0:0,0:0:0:0:
502,183,30566,1,8,0:0:0:0:
365,295,30679,6,0,P|320:314|266:240,1,150.000005722046,2|0,0:0|3:0,0:0:0:0:
302,180,31017,1,2,0:0:0:0:
235,147,31130,2,0,L|150:163,1,75.0000028610231,8|0,0:0|0:0,0:0:0:0:
116,305,31356,2,0,L|31:289,1,75.0000028610231,2|0,3:2|0:0,0:0:0:0:
83,139,31581,5,2,3:0:0:0:
81,146,31694,1,2,0:0:0:0:
79,153,31807,1,2,0:0:0:0:
77,160,31920,1,2,3:0:0:0:
8,111,32032,2,0,P|60:64|139:82,1,150.000005722046,8|0,0:0|0:0,0:0:0:0:
153,176,32371,1,8,0:0:0:0:
229,198,32483,6,0,B|239:161|239:161|215:121,1,75.0000028610231
77,160,32709,2,0,B|67:197|67:197|91:237,1,75.0000028610231,0|0,3:0|0:0,0:0:0:0:
321,132,32935,1,8,0:0:0:0:
293,338,33160,1,0,3:0:0:0:
293,338,33386,6,0,L|329:328,1,37.5,4|0,3:2|0:0,0:0:0:0:
338,325,33611,5,2,3:2:0:0:
270,271,33724,1,2,0:0:0:0:
214,330,33837,2,0,B|185:351|185:351|147:340,1,75.0000028610231,10|0,0:0|0:0,0:0:0:0:
187,189,34062,2,0,B|149:178|149:178|118:202,1,75.0000028610231,2|0,0:0|3:0,0:0:0:0:
91,101,34288,6,0,L|71:257,1,150.000005722046,2|0,0:0|3:0,0:0:0:0:
289,122,34626,1,2,0:0:0:0:
289,122,34739,2,0,L|269:278,1,150.000005722046,8|0,0:0|0:0,0:0:0:0:
338,325,35190,1,0,3:2:0:0:
439,240,35416,5,2,3:2:0:0:
394,175,35529,1,2,0:0:0:0:
328,219,35641,2,0,L|254:206,1,75.0000028610231,10|0,0:0|0:0,0:0:0:0:
91,102,35867,2,0,L|165:89,1,75.0000028610231,2|0,0:0|3:0,0:0:0:0:
265,123,36092,6,0,L|277:84,4,37.5000014305115,2|2|2|2|2,0:0|0:0|0:0|0:0|3:2,0:0:0:0:
371,60,36431,1,2,0:0:0:0:
255,207,36544,2,0,L|238:44,1,150.000005722046,8|0,0:0|0:0,0:0:0:0:
209,356,36995,6,0,B|158:394|79:353|87:267|145:234|192:249|192:249|202:268|221:279|240:279,1,300,6|0,3:2|3:2,0:0:0:0:
380,179,37446,2,0,B|355:148|362:109|362:109|330:140|294:136,1,150.000005722046,10|0,0:0|0:0,0:0:0:0:
206,15,37784,1,8,0:0:0:0:
255,207,37897,2,0,L|270:54,1,150.000005722046,2|0,0:0|3:0,0:0:0:0:
206,15,38235,1,2,0:0:0:0:
127,6,38348,2,0,B|92:22|92:22|84:70,1,75.0000028610231,8|0,0:0|0:0,0:0:0:0:
342,136,38574,2,0,B|359:99|359:99|347:59,1,75.0000028610231,2|0,3:2|0:0,0:0:0:0:
485,60,38799,5,2,3:0:0:0:
492,58,38912,1,2,0:0:0:0:
499,56,39025,1,2,0:0:0:0:
506,54,39138,1,2,3:0:0:0:
413,26,39250,2,0,B|461:42|461:42|479:152,1,150.000005722046,8|0,0:0|0:0,0:0:0:0:
328,269,39589,1,8,0:0:0:0:
461,225,39701,2,0,B|426:207|426:207|390:228,1,75.0000028610231
359,337,39927,2,0,B|327:354|327:354|292:337,1,75.0000028610231,0|0,3:0|0:0,0:0:0:0:
323,123,40153,2,0,B|330:183|330:183|319:198|319:198|328:271,1,150.000005722046,8|0,0:0|3:0,0:0:0:0:
25,285,40604,5,4,3:2:0:0:
42,360,40717,2,0,P|52:285|55:200,1,150.000005722046,8|0,0:0|3:2,0:0:0:0:
185,192,41055,2,0,P|173:152|170:112,1,75.0000028610231,10|0,0:0|0:0,0:0:0:0:
138,50,41280,1,2,3:2:0:0:
208,14,41393,6,0,B|266:22|266:22|278:56|278:56|339:64,1,150.000005722046,0|0,3:0|0:0,0:0:0:0:
433,84,41732,2,0,B|450:51|450:51|416:75,1,75.0000028610231,2|0,3:2|0:0,0:0:0:0:
360,148,41957,2,0,L|385:-4,1,150.000005722046,10|2,0:0|3:2,0:0:0:0:
438,236,42408,5,8,0:3:0:0:
512,262,42521,1,8,0:3:0:0:
512,257,42634,1,0,3:0:0:0:
512,252,42747,1,0,3:0:0:0:
512,361,42859,6,0,B|462:330|479:249|479:249|449:326|381:328,1,250,14|0,0:0|0:0,0:0:0:0:
386,321,43311,6,0,P|350:328|330:350,7,62.5,2|0|0|0|0|0|0|0,0:0|0:0|0:0|0:0|0:0|0:0|0:0|0:0,0:0:0:0:
331,355,43762,6,0,L|252:340,1,75,8|0,3:3|0:0,0:0:0:0:
230,270,44213,5,4,3:2:0:0:
487,30,44438,2,0,P|453:12|407:16,1,75.0000028610231,2|2,0:0|0:0,0:0:0:0:
346,47,44664,1,10,0:0:0:0:
348,41,44777,1,2,0:0:0:0:
362,129,44889,2,0,P|324:129|292:112,1,75.0000028610231,2|0,0:0|0:0,0:0:0:0:
173,50,45115,6,0,P|173:86|155:124,1,75.0000028610231,2|0,3:2|0:0,0:0:0:0:
156,215,45341,1,2,0:0:0:0:
85,191,45453,1,2,0:0:0:0:
78,198,45566,2,0,P|78:235|94:269,1,75.0000028610231,10|0,0:0|0:0,0:0:0:0:
51,23,45792,2,0,B|33:59|33:59|35:94,1,75.0000028610231,2|2,0:0|0:0,0:0:0:0:
174,291,46017,5,0,3:0:0:0:
174,291,46243,2,0,P|170:325|161:367,1,75.0000028610231,2|0,0:3|0:0,0:0:0:0:
393,165,46468,5,8,0:0:0:0:
393,165,46694,2,0,P|389:131|380:89,1,75.0000028610231,2|0,0:3|0:0,0:0:0:0:
180,213,46920,6,0,P|160:203|146:192,2,37.5000014305115,2|2|2,3:2|0:0|0:0,0:0:0:0:
174,291,47145,2,0,P|170:325|161:367,1,75.0000028610231,2|0,0:0|0:0,0:0:0:0:
367,240,47371,2,0,P|315:259|264:180,1,150.000005722046,10|0,0:0|0:0,0:0:0:0:
309,135,47709,1,2,0:0:0:0:
315,127,47822,5,2,3:2:0:0:
36,3,48047,2,0,B|12:34|12:34|25:78,1,75.0000028610231,2|2,0:0|0:0,0:0:0:0:
101,45,48273,1,10,0:0:0:0:
109,47,48386,1,2,0:0:0:0:
86,131,48498,2,0,L|168:116,1,75.0000028610231,2|0,0:0|0:0,0:0:0:0:
325,37,48724,6,0,P|364:43|391:70,1,75.0000028610231,2|0,3:2|0:0,0:0:0:0:
483,46,48950,1,2,0:0:0:0:
501,128,49062,1,2,0:0:0:0:
494,122,49175,2,0,P|455:128|428:155,1,75.0000028610231,8|0,0:0|0:0,0:0:0:0:
357,222,49401,2,0,P|396:228|423:255,1,75.0000028610231,2|2,0:3|0:3,0:0:0:0:
214,365,49626,6,0,P|258:318|280:232,1,150.000005722046,2|0,3:2|0:0,0:0:0:0:
235,171,49852,1,2,0:3:0:0:
242,166,49965,1,2,0:3:0:0:
178,231,50077,6,0,P|191:176|170:100,1,125,10|0,0:0|0:0,0:0:0:0:
115,62,50303,1,2,0:3:0:0:
118,55,50416,1,2,0:3:0:0:
97,130,50529,6,0,P|83:84|35:37,1,100,2|0,3:2|0:0,0:0:0:0:
42,48,50754,2,0,P|56:94|104:141,1,100,2|2,0:3|0:3,0:0:0:0:
46,261,50980,6,0,B|-17:306|-96:251|112:197|338:151|274:246|196:226,1,375,10|0,0:0|0:0,0:0:0:0:
135,300,51431,5,4,3:2:0:0:
488,346,51656,2,0,L|415:359,1,75.0000028610231,2|2,0:0|0:0,0:0:0:0:
342,328,51882,1,10,0:0:0:0:
344,320,51995,1,2,0:0:0:0:
281,272,52108,2,0,P|244:280|220:310,1,75.0000028610231,2|0,0:0|0:0,0:0:0:0:
485,189,52333,6,0,P|491:151|502:113,1,75.0000028610231,2|0,3:2|0:0,0:0:0:0:
422,110,52559,1,2,0:0:0:0:
337,166,52671,1,2,0:0:0:0:
330,154,52784,2,0,P|340:117|345:80,1,75.0000028610231,10|0,0:0|0:0,0:0:0:0:
424,285,53010,2,0,P|418:247|408:211,1,75.0000028610231,2|2,0:0|0:0,0:0:0:0:
268,66,53235,5,0,3:0:0:0:
268,66,53461,2,0,L|177:83,1,75.0000028610231,2|0,0:3|0:0,0:0:0:0:
424,285,53686,5,8,0:0:0:0:
424,285,53912,2,0,L|515:268,1,75.0000028610231,2|0,0:3|0:0,0:0:0:0:
300,136,54138,6,0,P|286:148|273:174,2,37.5000014305115,2|0|2,3:2|0:0|0:0,0:0:0:0:
268,66,54363,2,0,L|177:83,1,75.0000028610231,2|0,0:0|0:0,0:0:0:0:
114,175,54589,2,0,P|143:160|189:258,1,150.000005722046,10|0,0:0|0:0,0:0:0:0:
152,290,54927,1,2,0:0:0:0:
155,296,55040,5,0,3:0:0:0:
454,32,55265,2,0,L|442:107,1,75.0000028610231,2|2,0:0|0:0,0:0:0:0:
396,163,55491,1,10,0:0:0:0:
400,169,55604,1,2,0:0:0:0:
359,95,55717,2,0,P|317:102|291:130,1,75.0000028610231,2|0,0:0|0:0,0:0:0:0:
332,359,55942,6,0,B|359:331|359:331|356:290,1,75.0000028610231,2|0,3:2|0:0,0:0:0:0:
354,284,56168,1,2,0:0:0:0:
280,262,56280,1,2,0:0:0:0:
271,268,56393,2,0,B|248:295|248:295|254:334,1,75.0000028610231,8|0,0:0|0:0,0:0:0:0:
429,319,56619,6,0,P|324:327|181:369,1,243.750006973744,4|0,3:2|0:0,0:0:0:0:
3,188,56844,6,0,B|39:214|42:262|42:262|63:220|125:212,1,175.00000166893,2|0,3:2|0:0,0:0:0:0:
170,160,57070,1,2,0:3:0:0:
174,153,57183,1,2,0:3:0:0:
107,110,57295,6,0,B|143:84|146:36|146:36|167:78|229:86,1,175.00000166893,10|0,3:2|0:0,0:0:0:0:
247,189,57521,1,2,0:3:0:0:
251,196,57634,1,10,0:0:0:0:
184,239,57746,6,0,B|220:265|223:313|223:313|244:271|306:263,1,175.00000166893,2|0,3:2|0:0,0:0:0:0:
354,168,57972,1,8,0:3:0:0:
358,161,58085,1,0,0:0:0:0:
291,118,58198,6,0,B|327:92|330:44|330:44|351:86|413:94,1,175.00000166893,8|8,0:0|0:3,0:0:0:0:
467,157,58423,6,0,L|455:215,1,56.2500021457673,4|0,0:3|0:0,0:0:0:0:
452,227,58649,5,4,0:3:0:0:
377,248,58762,1,8,0:3:0:0:
430,301,58874,1,4,0:3:0:0:
430,301,59100,6,0,B|477:364|477:364|238:321|238:321|309:276,1,400,14|2,0:0|0:3,0:0:0:0:
377,248,59551,6,0,L|385:209,1,34.9999989318848,0|2,3:0|0:3,0:0:0:0:
143,178,60002,6,0,B|157:80|157:80|220:159,1,200,14|0,0:0|0:0,0:0:0:0:
198,233,60228,2,0,L|202:252,1,17.4999994659424,2|0,0:0|0:0,0:0:0:0:
449,172,60453,6,0,B|416:131|428:77|428:77|404:130|342:141,1,200,0|2,3:0|0:3,0:0:0:0:
336,58,60792,1,2,0:0:0:0:
336,58,60904,2,0,P|299:56|263:46,1,75.0000028610231,10|0,0:0|0:0,0:0:0:0:
436,264,61130,2,0,P|472:254|510:250,1,75.0000028610231,2|0,0:0|0:0,0:0:0:0:
81,115,61356,6,0,P|62:127|47:144,2,37.5000014305115,2|2|2,3:0|0:0|0:0,0:0:0:0:
211,140,61581,2,0,P|173:123|149:84,1,75.0000028610231,2|0,0:0|0:0,0:0:0:0:
70,221,61807,2,0,P|105:204|174:277,1,150.000005722046,8|2,0:0|0:3,0:0:0:0:
208,337,62145,1,2,0:0:0:0:
204,343,62258,1,0,3:0:0:0:
315,41,62483,6,0,P|289:43|254:82,1,75.0000028610231,2|0,0:0|0:0,0:0:0:0:
350,180,62709,2,0,P|360:156|344:106,1,75.0000028610231,8|0,0:0|0:0,0:0:0:0:
211,140,62935,2,0,P|225:160|277:171,1,75.0000028610231,2|0,0:0|0:0,0:0:0:0:
468,111,63160,6,0,P|443:159|421:261,1,150.000005722046,2|2,3:2|0:3,0:0:0:0:
469,309,63611,2,0,B|480:300|489:281|489:281|497:306|472:322,1,75.0000028610231,10|0,0:0|0:0,0:0:0:0:
267,300,63837,2,0,P|226:312|203:355,1,75.0000028610231,2|0,0:0|0:0,0:0:0:0:
132,375,64062,5,0,3:0:0:0:
64,61,64288,2,0,L|54:137,1,75.0000028610231,8|0,0:0|0:0,0:0:0:0:
1,228,64514,5,8,0:0:0:0:
1,228,64626,2,0,L|84:215,1,75.0000028610231,8|4,0:3|0:3,0:0:0:0:
150,204,64852,1,0,3:0:0:0:
436,274,64965,6,0,P|481:220|476:135,1,150.000005722046,10|0,0:1|0:0,0:0:0:0:
150,204,65416,6,0,P|147:130|193:73,1,150.000005722046,10|0,0:1|0:0,0:0:0:0:
359,11,65867,5,6,3:2:0:0:
398,76,65980,2,0,B|437:73|437:73|370:5|269:33|269:33|301:58,1,250,2|0,0:0|0:0,0:0:0:0:
308,241,66318,2,0,B|321:194|321:194|316:184|316:184|336:110,1,125,8|0,0:0|0:0,0:0:0:0:
150,204,66769,5,2,3:2:0:0:
79,221,66882,2,0,B|143:236|143:236|148:303|148:303|225:320,1,200,2|0,0:0|0:0,0:0:0:0:
43,317,67220,2,0,B|7:318|7:318|70:297,1,100,10|0,0:0|0:0,0:0:0:0:
402,269,67446,6,0,B|413:233|510:213|540:364|376:396|325:298,1,300,2|0,0:0|0:0,0:0:0:0:
317,229,67897,2,0,P|289:235|267:253,2,50,2|2|2,0:0|0:0|0:0,0:0:0:0:
402,269,68123,6,0,P|421:216|425:166,1,100,8|0,0:0|0:0,0:0:0:0:
209,135,68348,2,0,P|190:188|186:238,1,100,2|0,0:3|0:0,0:0:0:0:
449,57,68574,5,2,3:2:0:0:
374,31,68686,1,2,0:0:0:0:
372,39,68799,1,2,0:3:0:0:
371,48,68912,1,2,0:3:0:0:
221,12,69025,5,10,0:0:0:0:
298,17,69138,1,2,0:0:0:0:
297,24,69250,1,2,0:3:0:0:
295,33,69363,1,2,0:3:0:0:
316,108,69476,1,0,3:0:0:0:
316,108,69701,2,0,L|226:118,1,75.0000028610231,2|2,0:0|0:0,0:0:0:0:
58,81,69927,1,10,0:0:0:0:
55,73,70040,1,2,0:0:0:0:
118,22,70153,2,0,B|144:53|144:53|135:96,1,75.0000028610231,2|0,0:0|0:0,0:0:0:0:
0,151,70378,6,0,L|82:164,1,75.0000028610231,2|0,3:2|0:0,0:0:0:0:
87,165,70604,1,2,0:3:0:0:
139,306,70717,1,2,0:0:0:0:
169,234,70829,2,0,L|244:220,1,75.0000028610231,8|0,0:0|0:0,0:0:0:0:
237,113,71055,1,2,0:0:0:0:
243,109,71168,1,2,0:0:0:0:
301,160,71280,6,0,B|401:167|329:225|433:232,1,150.000005722046,0|2,3:2|0:3,0:0:0:0:
512,154,71732,5,10,0:0:0:0:
495,74,71844,1,2,0:0:0:0:
363,95,71957,2,0,P|385:64|420:52,1,75.0000028610231,2|0,0:0|0:0,0:0:0:0:
512,285,72183,2,0,P|460:252|416:319,1,150.000005722046,2|2,3:2|0:3,0:0:0:0:
350,357,72521,1,2,0:0:0:0:
471,364,72634,2,0,L|301:315,1,150.000005722046,8|2,0:0|0:3,0:0:0:0:
136,171,73085,5,6,3:2:0:0:
0,204,73198,2,0,P|77:145|103:258,1,250,2|0,0:0|0:0,0:0:0:0:
61,318,73536,2,0,P|124:329|176:287,1,125,8|0,0:0|0:0,0:0:0:0:
441,127,73987,5,2,3:2:0:0:
375,58,74100,2,0,B|412:30|412:30|383:182,1,200,2|0,0:0|0:0,0:0:0:0:
401,256,74438,2,0,B|432:296|432:296|426:243,1,100,8|0,0:0|0:0,0:0:0:0:
304,33,74664,2,0,B|206:44|206:44|185:144|185:144|75:165,1,300,2|0,0:0|0:0,0:0:0:0:
39,101,75115,2,0,L|50:46,2,50,2|2|2,0:0|0:0|0:0,0:0:0:0:
32,254,75341,6,0,P|57:305|100:327,1,100,8|0,0:0|0:0,0:0:0:0:
181,307,75566,2,0,P|212:259|210:211,1,100,2|0,0:3|0:0,0:0:0:0:
296,167,75792,5,2,3:2:0:0:
314,260,75904,1,2,0:0:0:0:
319,251,76017,1,2,0:3:0:0:
324,242,76130,1,2,0:3:0:0:
453,192,76243,5,10,0:0:0:0:
406,276,76356,1,2,0:0:0:0:
404,266,76468,1,2,0:3:0:0:
401,256,76581,1,2,0:3:0:0:
347,335,76694,1,0,3:0:0:0:
347,335,76920,6,0,L|267:354,1,75.0000028610231,2|2,0:0|0:0,0:0:0:0:
69,311,77145,1,10,0:0:0:0:
76,310,77258,1,2,0:0:0:0:
148,277,77371,2,0,L|220:294,1,75.0000028610231,2|0,0:0|0:0,0:0:0:0:
40,233,77596,6,0,B|17:203|17:203|23:166,1,75.0000028610231,2|0,3:2|0:0,0:0:0:0:
27,157,77822,1,2,0:3:0:0:
102,185,77935,1,2,0:0:0:0:
109,184,78047,2,0,L|187:170,1,75.0000028610231,8|0,0:0|0:0,0:0:0:0:
456,128,78273,6,0,B|429:91|440:41|440:41|411:86|354:90,1,187.5,14|0,0:0|0:0,0:0:0:0:
352,90,78498,1,0,3:0:0:0:
281,123,78724,5,2,0:3:0:0:
268,120,78837,1,2,0:3:0:0:
198,86,78950,5,10,0:0:0:0:
125,101,79062,1,2,0:0:0:0:
89,167,79175,1,2,0:0:0:0:
102,240,79288,1,10,0:0:0:0:
161,285,79401,5,10,3:2:0:0:
173,282,79514,1,2,0:0:0:0:
138,357,79626,5,8,0:3:0:0:
146,365,79739,1,4,0:3:0:0:
35,303,79852,6,0,B|210:338|210:338|186:345|186:345|356:373,1,375,4|0,0:3|0:0,0:0:0:0:
437,255,80303,5,6,3:2:0:0:
365,297,80416,2,0,L|518:269,1,150.000005722046,2|2,0:0|3:2,0:0:0:0:
264,41,80754,5,10,0:0:0:0:
354,136,80867,2,0,L|280:122,1,75.0000028610231,2|0,0:0|0:0,0:0:0:0:
22,69,81092,5,10,0:0:0:0:
94,40,81205,1,2,0:0:0:0:
101,42,81318,2,0,P|134:64|148:96,1,75.0000028610231,2|2,0:0|3:3,0:0:0:0:
204,154,81544,1,2,0:0:0:0:
0,229,81656,5,10,0:0:0:0:
56,287,81769,2,0,P|97:295|156:217,1,150.000005722046,2|0,0:0|0:0,0:0:0:0:
204,154,82108,5,2,3:2:0:0:
108,167,82220,2,0,L|270:210,1,150.000005722046,2|2,0:0|3:2,0:0:0:0:
295,269,82559,2,0,B|272:298|272:298|277:337,1,75.0000028610231,10|0,0:0|0:0,0:0:0:0:
350,319,82784,1,2,0:0:0:0:
356,321,82897,1,10,0:0:0:0:
415,369,83010,6,0,B|438:340|438:340|433:301,1,75.0000028610231,2|0,0:0|0:0,0:0:0:0:
415,166,83235,2,0,B|404:130|404:130|409:171,1,75.0000028610231,2|2,3:2|0:0,0:0:0:0:
344,202,83461,2,0,B|413:191|413:191|416:192|416:192|494:180,1,150.000005722046,10|2,0:0|0:3,0:0:0:0:
238,33,83799,6,0,B|216:65|222:105|222:105|197:70|153:68,1,150.000005722046,2|2,0:0|0:0,0:0:0:0:
90,177,84138,2,0,P|131:168|155:139,1,75.0000028610231,2|2,0:0|3:2,0:0:0:0:
15,37,84363,1,10,0:0:0:0:
64,100,84476,2,0,L|43:267,1,150.000005722046,2|10,0:0|0:0,0:0:0:0:
13,320,84814,5,2,0:0:0:0:
153,368,84927,2,0,L|69:357,1,75.0000028610231,2|0,0:0|3:2,0:0:0:0:
300,84,85153,2,0,L|383:94,1,75.0000028610231,2|8,0:0|0:0,0:0:0:0:
440,52,85378,1,2,0:0:0:0:
500,106,85491,2,0,B|509:141|509:141|483:178,1,75.0000028610231,2|2,0:3|0:0,0:0:0:0:
434,230,85717,5,2,3:2:0:0:
369,193,85829,1,2,0:0:0:0:
319,247,85942,1,2,0:0:0:0:
317,253,86055,1,2,3:2:0:0:
365,315,86168,5,8,0:0:0:0:
300,352,86280,1,2,0:0:0:0:
250,298,86393,1,2,0:0:0:0:
248,292,86506,1,10,0:0:0:0:
174,317,86619,2,0,P|134:311|99:304,1,75.0000028610231,2|8,0:0|0:0,0:0:0:0:
7,109,86844,6,0,B|21:73|21:73|20:111,1,75.0000028610231,2|2,3:2|0:0,0:0:0:0:
37,0,87070,1,8,0:0:0:0:
25,263,87183,2,0,P|19:225|12:189,1,75.0000028610231,6|0,3:2|0:0,0:0:0:0:
84,159,87408,1,2,0:0:0:0:
118,91,87521,5,6,3:2:0:0:
124,88,87634,1,2,0:0:0:0:
188,129,87747,2,0,P|225:137|263:143,1,75.0000028610231,2|0,0:0|3:2,0:0:0:0:
242,33,87972,1,10,0:0:0:0:
200,204,88085,2,0,P|274:188|350:176,1,150.000005722046,2|10,0:0|0:0,0:0:0:0:
390,104,88423,6,0,P|427:98|463:90,1,75.0000028610231,2|0,0:0|0:0,0:0:0:0:
493,294,88649,2,0,P|456:302|418:308,1,75.0000028610231,2|0,3:2|0:0,0:0:0:0:
439,198,88874,1,10,0:0:0:0:
481,369,88987,2,0,P|407:353|331:341,1,150.000005722046,2|2,0:0|0:0,0:0:0:0:
246,262,89326,6,0,P|238:304|233:337,1,75.0000028610231,2|2,3:2|0:0,0:0:0:0:
86,296,89551,2,0,P|78:254|73:221,1,75.0000028610231,2|0,0:0|3:0,0:0:0:0:
313,188,89777,2,0,P|321:230|326:263,1,75.0000028610231,10|0,0:0|0:0,0:0:0:0:
333,341,90002,1,2,0:0:0:0:
330,347,90115,1,10,0:0:0:0:
409,320,90228,6,0,P|445:312|482:307,1,75.0000028610231,2|2,0:0|0:0,0:0:0:0:
246,262,90453,2,0,P|233:297|220:332,1,75.0000028610231,2|2,3:2|0:0,0:0:0:0:
377,149,90679,2,0,P|352:120|328:91,1,75.0000028610231,8|0,0:0|0:0,0:0:0:0:
346,250,90904,1,2,0:3:0:0:
26,36,91130,6,0,P|24:78|39:111,1,75.0000028610231,2|0,3:2|0:0,0:0:0:0:
131,18,91356,2,0,P|144:52|141:89,1,75.0000028610231,2|0,0:0|3:0,0:0:0:0:
155,93,91581,6,0,P|141:127|144:164,1,75.0000028610231,10|0,0:0|0:0,0:0:0:0:
249,118,91807,2,0,P|242:154|220:184,1,75.0000028610231,2|10,0:0|0:0,0:0:0:0:
81,222,92032,1,2,0:0:0:0:
85,227,92145,1,2,0:0:0:0:
63,306,92258,1,2,3:2:0:0:
63,306,92483,6,0,B|56:261|100:222|153:233|171:276|171:276|182:315|233:339|277:314|289:273|276:242,1,325.000009298325,10|2,0:1|0:3,0:0:0:0:
280,260,92935,1,2,3:2:0:0:
290,266,93047,1,2,0:0:0:0:
355,313,93160,6,0,P|402:374|422:264,1,250,10|10,0:0|0:0,0:0:0:0:
204,295,93498,2,0,P|104:306|157:220,1,250,2|10,0:3|0:0,0:0:0:0:
139,144,93837,6,0,P|177:141|233:187,1,112.500004291535,8|0,0:3|0:0,0:0:0:0:
233,186,94288,6,0,L|311:172,1,75.0000028610231,8|8,0:0|3:3,0:0:0:0:
93,214,94514,1,0,3:0:0:0:
490,194,94739,6,0,P|486:145|420:243,1,300,6|0,3:2|3:0,0:0:0:0:
452,364,95190,2,0,B|493:349|501:308|479:273|479:273|430:289,1,150.000005722046,10|0,0:0|0:0,0:0:0:0:
238,347,95529,1,8,0:0:0:0:
373,335,95641,2,0,B|318:320|318:320|314:287|314:287|255:270,1,150.000005722046,2|0,0:0|3:0,0:0:0:0:
178,293,95980,1,2,0:0:0:0:
133,355,96092,2,0,L|51:369,1,75.0000028610231,8|0,0:0|0:0,0:0:0:0:
61,210,96318,2,0,B|99:205|99:205|126:231,1,75.0000028610231,2|0,3:2|0:0,0:0:0:0:
195,202,96544,5,2,3:0:0:0:
202,200,96656,1,2,0:0:0:0:
209,198,96769,1,2,0:0:0:0:
216,196,96882,1,2,3:0:0:0:
268,130,96995,2,0,P|312:126|365:205,1,150.000005722046,8|0,0:0|0:0,0:0:0:0:
316,262,97333,1,8,0:0:0:0:
502,146,97446,2,0,P|457:137|429:124,1,75.0000028610231
371,316,97671,2,0,P|405:301|442:294,1,75.0000028610231,0|0,3:0|0:0,0:0:0:0:
344,50,97897,5,8,0:0:0:0:
381,209,98123,1,0,3:0:0:0:
53,184,98348,6,0,L|59:140,1,37.5,4|0,3:2|0:0,0:0:0:0:
60,136,98574,6,0,L|79:217,1,75.0000028610231,2|2,3:2|0:0,0:0:0:0:
209,118,98799,2,0,B|169:123|169:123|144:160,1,75.0000028610231,10|0,0:0|0:0,0:0:0:0:
73,295,99025,2,0,L|-8:276,1,75.0000028610231,2|0,0:0|3:0,0:0:0:0:
181,363,99250,6,0,P|164:289|111:212,1,150.000005722046,2|0,0:0|3:0,0:0:0:0:
268,351,99589,2,0,P|265:276|287:204,1,150.000005722046,2|0,0:0|0:0,0:0:0:0:
327,137,99927,1,0,0:0:0:0:
334,134,100040,1,0,0:0:0:0:
400,174,100153,6,0,L|439:160,1,37.5,0|0,3:2|0:0,0:0:0:0:
447,155,100378,5,2,3:2:0:0:
327,137,100491,1,2,0:0:0:0:
411,14,100604,2,0,L|399:88,1,75.0000028610231,10|0,0:0|0:0,0:0:0:0:
372,247,100829,2,0,L|360:321,1,75.0000028610231,2|0,0:0|3:0,0:0:0:0:
327,137,101055,6,0,L|291:149,4,37.5000014305115,2|2|2|2|2,0:0|0:0|0:0|0:0|3:2,0:0:0:0:
283,73,101393,1,2,0:0:0:0:
281,230,101506,2,0,P|236:231|162:154,1,150.000005722046,8|0,0:0|0:0,0:0:0:0:
163,162,101957,6,0,B|171:193|171:193|84:272|84:272|48:163|48:163|74:136,1,300,6|0,3:2|3:2,0:0:0:0:
175,85,102408,2,0,B|150:13|150:13|100:69,1,150.000005722046,10|0,0:0|0:0,0:0:0:0:
255,147,102747,1,8,0:0:0:0:
163,162,102859,2,0,L|310:206,1,150.000005722046,2|0,0:0|3:0,0:0:0:0:
473,143,103198,1,2,0:0:0:0:
409,104,103311,2,0,B|373:106|373:106|353:141,1,75.0000028610231,8|0,0:0|0:0,0:0:0:0:
439,261,103536,2,0,B|475:259|475:259|495:224,1,75.0000028610231,2|0,3:2|0:0,0:0:0:0:
360,270,103762,5,2,3:0:0:0:
358,277,103874,1,2,0:0:0:0:
356,284,103987,1,2,0:0:0:0:
354,291,104100,1,2,3:0:0:0:
408,364,104213,2,0,P|345:328|263:329,1,150.000005722046,8|0,0:0|0:0,0:0:0:0:
191,302,104551,1,8,0:0:0:0:
127,349,104664,6,0,P|89:333|66:299,1,75.0000028610231
257,180,104889,2,0,P|262:220|244:257,1,75.0000028610231,0|0,3:0|0:0,0:0:0:0:
46,152,105115,2,0,P|78:127|119:124,1,75.0000028610231,8|0,0:0|0:0,0:0:0:0:
143,226,105341,1,0,3:0:0:0:
143,226,105566,5,4,3:2:0:0:
187,155,105679,2,0,B|194:128|194:128|174:0,1,150.000005722046,8|0,0:0|3:2,0:0:0:0:
143,226,106017,2,0,B|136:249|136:249|146:299,1,75.0000028610231,10|0,0:0|0:0,0:0:0:0:
113,158,106243,1,2,3:2:0:0:
266,72,106356,6,0,L|417:90,1,150.000005722046,0|0,3:0|0:0,0:0:0:0:
471,161,106694,2,0,L|396:169,1,75.0000028610231,2|0,3:2|0:0,0:0:0:0:
255,338,106920,2,0,L|330:347,1,75.0000028610231,10|0,0:0|0:0,0:0:0:0:
401,354,107145,1,2,3:2:0:0:
26,134,107371,5,8,0:3:0:0:
47,212,107483,1,8,0:3:0:0:
41,211,107596,1,0,3:0:0:0:
36,210,107709,1,0,3:0:0:0:
29,328,107822,6,0,B|-2:266|-2:266|103:236|103:236|109:308,1,250,14|0,0:0|0:0,0:0:0:0:
108,307,108273,6,0,L|174:318,6,62.5,2|0|0|0|0|0|0,0:0|0:0|0:0|0:0|0:0|0:0|0:0,0:0:0:0:
180,326,108724,6,0,L|214:256,1,75,8|0,3:3|0:0,0:0:0:0:
281,210,109175,5,4,3:2:0:0:
0,15,109401,2,0,P|41:26|66:52,1,75.0000028610231,2|2,0:0|0:0,0:0:0:0:
95,117,109626,1,10,0:0:0:0:
102,114,109739,1,2,0:0:0:0:
166,156,109852,2,0,L|244:143,1,75.0000028610231,2|0,0:0|0:0,0:0:0:0:
308,7,110077,6,0,B|282:38|282:38|284:75,1,75.0000028610231,2|0,3:2|0:0,0:0:0:0:
342,124,110303,1,2,0:0:0:0:
424,105,110416,1,2,0:0:0:0:
422,112,110529,2,0,L|407:197,1,75.0000028610231,10|0,0:0|0:0,0:0:0:0:
374,359,110754,2,0,L|359:274,1,75.0000028610231,2|2,0:0|0:0,0:0:0:0:
179,306,110980,5,0,3:0:0:0:
179,306,111205,2,0,P|139:313|106:326,1,75.0000028610231,2|0,0:3|0:0,0:0:0:0:
426,112,111431,5,8,0:0:0:0:
426,112,111656,2,0,P|461:125|497:132,1,75.0000028610231,2|0,0:3|0:0,0:0:0:0:
339,126,111882,6,0,L|347:85,2,37.5000014305115,2|2|2,3:2|0:0|0:0,0:0:0:0:
249,71,112108,2,0,L|262:153,1,75.0000028610231,2|0,0:0|0:0,0:0:0:0:
151,184,112333,2,0,L|171:18,1,150.000005722046,10|0,0:0|0:0,0:0:0:0:
96,15,112671,1,2,0:0:0:0:
44,75,112784,5,2,3:2:0:0:
165,362,113010,2,0,L|246:348,1,75.0000028610231,2|2,0:0|0:0,0:0:0:0:
283,287,113235,1,10,0:0:0:0:
284,279,113348,1,2,0:0:0:0:
359,269,113461,2,0,P|399:279|424:303,1,75.0000028610231,2|0,0:0|0:0,0:0:0:0:
85,369,113686,6,0,B|62:339|62:339|67:298,1,75.0000028610231,2|0,3:2|0:0,0:0:0:0:
21,240,113912,1,2,0:0:0:0:
98,144,114025,1,2,0:0:0:0:
90,145,114138,2,0,L|7:160,1,75.0000028610231,8|0,0:0|0:0,0:0:0:0:
128,242,114363,2,0,L|211:257,1,75.0000028610231,2|2,0:3|0:3,0:0:0:0:
477,363,114589,6,0,L|463:211,1,150.000005722046,2|0,3:2|0:0,0:0:0:0:
448,135,114814,1,2,0:3:0:0:
440,134,114927,1,2,0:3:0:0:
403,73,115040,6,0,L|389:224,1,125,10|0,0:0|0:0,0:0:0:0:
367,270,115265,1,2,0:3:0:0:
359,269,115378,1,2,0:3:0:0:
327,339,115491,6,0,L|317:238,1,100,2|0,3:2|0:0,0:0:0:0:
312,161,115717,1,2,0:3:0:0:
304,160,115829,1,2,0:3:0:0:
463,213,115942,6,0,B|499:242|509:275|509:275|422:200|324:183|230:240,1,375,10|0,0:0|0:0,0:0:0:0:
197,305,116393,5,4,3:2:0:0:
90,85,116619,2,0,L|11:76,1,75.0000028610231,2|2,0:0|0:0,0:0:0:0:
148,34,116844,1,10,0:0:0:0:
154,30,116957,1,2,0:0:0:0:
218,69,117070,2,0,B|227:105|227:105|204:142,1,75.0000028610231,2|0,0:0|0:0,0:0:0:0:
6,316,117295,6,0,L|80:307,1,75.0000028610231,2|0,3:2|0:0,0:0:0:0:
143,357,117521,1,2,0:0:0:0:
154,284,117634,1,2,0:0:0:0:
161,281,117747,2,0,P|201:288|226:314,1,75.0000028610231,10|0,0:0|0:0,0:0:0:0:
14,206,117972,2,0,P|52:192|73:163,1,75.0000028610231,2|2,0:0|0:0,0:0:0:0:
90,85,118198,5,0,3:0:0:0:
90,85,118423,2,0,P|84:42|75:9,1,75.0000028610231,2|0,0:3|0:0,0:0:0:0:
459,85,118649,5,8,0:0:0:0:
459,85,118874,2,0,P|432:119|415:149,1,75.0000028610231,2|0,0:3|0:0,0:0:0:0:
425,227,119100,6,0,L|471:216,2,37.5000014305115,2|0|2,3:2|0:0|0:0,0:0:0:0:
318,215,119326,2,0,B|341:224|341:224|352:275,1,75.0000028610231,2|0,0:0|0:0,0:0:0:0:
419,324,119551,2,0,L|254:295,1,150.000005722046,10|0,0:0|0:0,0:0:0:0:
201,280,119889,1,2,0:0:0:0:
145,333,120002,5,0,3:0:0:0:
202,78,120228,2,0,L|216:2,1,75.0000028610231,2|2,0:0|0:0,0:0:0:0:
143,132,120453,1,10,0:0:0:0:
144,139,120566,1,2,0:0:0:0:
207,179,120679,2,0,P|249:163|272:132,1,75.0000028610231,2|0,0:0|0:0,0:0:0:0:
68,29,120904,6,0,P|60:73|76:108,1,75.0000028610231,2|0,3:2|0:0,0:0:0:0:
143,132,121130,1,2,0:0:0:0:
100,203,121243,1,2,0:0:0:0:
105,208,121356,2,0,P|112:252|96:287,1,75.0000028610231,8|0,0:0|0:0,0:0:0:0:
27,179,121581,6,0,L|274:139,1,243.750006973744,4|0,3:2|0:0,0:0:0:0:
246,62,121807,6,0,P|304:16|331:89,1,175.00000166893,2|0,3:2|0:0,0:0:0:0:
430,99,122032,1,2,0:3:0:0:
430,99,122145,1,2,0:3:0:0:
488,154,122258,6,0,P|430:108|403:181,1,175.00000166893,10|0,3:2|0:0,0:0:0:0:
290,178,122483,1,2,0:3:0:0:
290,178,122596,1,10,0:0:0:0:
232,233,122709,6,0,P|290:187|317:260,1,175.00000166893,2|0,3:2|0:0,0:0:0:0:
412,273,122935,1,8,0:3:0:0:
412,273,123047,1,0,0:0:0:0:
470,328,123160,6,0,P|412:282|385:355,1,175.00000166893,8|8,0:0|0:3,0:0:0:0:
299,334,123386,2,0,L|231:342,1,56.2500021457673,4|0,0:3|0:0,0:0:0:0:
233,342,123611,5,4,0:3:0:0:
174,294,123724,1,8,0:3:0:0:
130,354,123837,1,4,0:3:0:0:
130,354,124062,6,0,B|188:207|10:240|71:76|71:76|171:99,1,400,14|2,0:0|0:3,0:0:0:0:
242,95,124514,6,0,L|235:131,1,34.9999989318848,0|2,3:0|0:3,0:0:0:0:
219,229,124965,6,0,P|311:195|409:208,1,200,14|0,0:0|0:0,0:0:0:0:
494,219,125190,2,0,L|491:236,1,17.4999994659424,2|0,0:0|0:0,0:0:0:0:
468,322,125416,6,0,L|497:102,1,200,0|2,3:0|0:3,0:0:0:0:
495,113,125754,1,2,0:0:0:0:
452,53,125867,2,0,B|416:48|416:48|384:78,1,75.0000028610231,10|0,0:0|0:0,0:0:0:0:
247,22,126092,2,0,B|283:17|283:17|315:47,1,75.0000028610231,2|0,0:0|0:0,0:0:0:0:
256,235,126318,6,0,L|219:230,2,37.5000014305115,2|2|2,3:0|0:0|0:0,0:0:0:0:
316,287,126544,2,0,P|332:251|328:209,1,75.0000028610231,2|0,0:0|0:0,0:0:0:0:
118,148,126769,2,0,B|73:207|73:207|97:288,1,150.000005722046,8|2,0:0|0:3,0:0:0:0:
126,346,127108,1,2,0:0:0:0:
131,353,127220,1,0,3:0:0:0:
206,142,127446,6,0,L|280:152,1,75.0000028610231,2|0,0:0|0:0,0:0:0:0:
336,11,127671,2,0,L|290:70,1,75.0000028610231,8|0,0:0|0:0,0:0:0:0:
384,189,127897,2,0,L|355:119,1,75.0000028610231,2|0,0:0|0:0,0:0:0:0:
7,221,128123,6,0,B|74:231|74:231|80:251|80:251|149:262,1,150.000005722046,2|2,3:2|0:3,0:0:0:0:
155,264,128461,1,2,0:0:0:0:
207,320,128574,2,0,P|229:291|232:246,1,75.0000028610231,10|0,0:0|0:0,0:0:0:0:
129,192,128799,2,0,P|98:210|80:252,1,75.0000028610231,2|0,0:0|0:0,0:0:0:0:
131,353,129025,1,0,3:0:0:0:
94,72,129250,5,8,0:0:0:0:
125,333,129476,1,8,0:0:0:0:
127,339,129589,1,8,0:3:0:0:
129,346,129701,1,4,0:3:0:0:
131,353,129814,1,0,3:0:0:0:
203,370,129927,6,0,L|55:352,1,150.000005722046,10|0,0:1|0:0,0:0:0:0:
244,90,130378,6,0,L|94:72,1,150.000005722046,10|0,0:1|0:0,0:0:0:0:
11,202,130829,6,0,P|21:224|36:237,1,37.5000014305115,2|0,3:2|0:0,0:0:0:0:
31,257,131055,1,0,0:0:0:0:
34,263,131168,2,0,P|58:265|76:258,1,37.5000014305115,2|0,0:0|3:2,0:0:0:0:
91,271,131393,5,0,0:0:0:0:
97,274,131506,1,0,0:0:0:0:
103,277,131619,2,0,P|117:257|120:237,1,37.5000014305115,2|0,0:0|3:2,0:0:0:0:
144,217,131844,2,0,P|134:195|119:182,1,37.5000014305115,2|0,0:0|0:0,0:0:0:0:
121,163,132070,5,2,0:0:0:0:
118,156,132183,2,0,P|93:153|75:160,3,37.5000014305115,0|0|0|0,3:2|0:0|0:0|0:0,0:0:0:0:
11,202,132634,6,0,P|21:224|36:237,1,37.5000014305115,2|0,3:2|0:0,0:0:0:0:
31,257,132859,1,0,0:0:0:0:
34,263,132972,2,0,P|58:265|76:258,1,37.5000014305115,2|0,0:0|3:2,0:0:0:0:
91,271,133198,5,0,0:0:0:0:
97,274,133311,1,0,0:0:0:0:
103,276,133423,1,0,0:0:0:0:
120,244,133536,2,0,L|201:260,1,75.0000028610231,2|2,3:2|0:0,0:0:0:0:
262,277,133874,1,2,0:0:0:0:
269,279,133987,1,0,3:2:0:0:
269,279,134213,2,0,L|309:271,1,37.5000014305115,0|2,0:0|0:0,0:0:0:0:
511,159,134438,6,0,P|501:181|486:194,1,37.5000014305115,2|0,3:2|0:0,0:0:0:0:
491,214,134664,1,0,0:0:0:0:
488,220,134777,2,0,P|463:222|445:215,1,37.5000014305115,2|0,0:0|3:2,0:0:0:0:
431,228,135002,5,0,0:0:0:0:
425,231,135115,1,2,0:0:0:0:
419,234,135228,2,0,P|404:214|401:194,1,37.5000014305115,2|0,0:0|3:2,0:0:0:0:
378,174,135453,2,0,P|388:152|403:139,1,37.5000014305115,2|0,0:0|0:0,0:0:0:0:
401,120,135679,5,2,0:0:0:0:
404,113,135792,2,0,P|428:110|446:117,3,37.5000014305115,0|0|0|0,3:2|0:0|0:0|0:0,0:0:0:0:
511,159,136243,6,0,P|501:181|486:194,1,37.5000014305115,2|0,3:2|0:0,0:0:0:0:
491,214,136468,1,0,0:0:0:0:
488,220,136581,2,0,P|463:222|445:215,1,37.5000014305115,2|0,0:0|3:2,0:0:0:0:
431,228,136807,5,0,0:0:0:0:
425,231,136920,1,0,0:0:0:0:
419,233,137032,1,0,0:0:0:0:
378,174,137145,5,2,3:2:0:0:
370,176,137258,2,0,L|322:185,2,37.5000014305115,2|0|0,0:0|0:0|0:0,0:0:0:0:
144,194,137596,5,2,3:2:0:0:
152,192,137709,2,0,L|200:183,2,37.5000014305115,2|0|0,0:0|0:0|0:0,0:0:0:0:
105,265,138047,6,0,P|87:300|64:329,1,75.0000028610231,2|2,3:2|0:3,0:0:0:0:
123,122,138498,2,0,P|88:104|59:81,1,75.0000028610231,0|2,3:0|0:3,0:0:0:0:
266,140,138950,2,0,P|284:105|307:76,1,75.0000028610231,0|2,3:0|0:3,0:0:0:0:
245,283,139401,2,0,P|280:301|309:324,1,75.0000028610231,0|2,3:0|0:3,0:0:0:0:
62,257,139852,6,0,P|42:276|-4:301,1,75.0000028610231,2|2,3:2|0:3,0:0:0:0:
108,65,140303,2,0,P|88:45|63:-1,1,75.0000028610231,0|2,3:0|0:3,0:0:0:0:
300,110,140754,2,0,P|319:90|365:65,1,75.0000028610231,2|2,3:2|0:3,0:0:0:0:
255,302,141205,2,0,P|274:321|299:367,1,75.0000028610231,0|2,3:0|0:3,0:0:0:0:
0,181,141656,6,0,L|11:238,1,50,6|2,3:2|0:3,0:0:0:0:
180,148,142108,2,0,L|191:205,1,50,0|2,3:0|0:3,0:0:0:0:
137,335,142559,6,0,L|148:278,1,50,0|2,3:0|0:3,0:0:0:0:
333,359,143010,2,0,L|344:302,1,50,0|2,3:0|0:3,0:0:0:0:
512,314,143461,6,0,L|494:325,1,14.9999995422363,0|0,3:0|0:0,0:0:0:0:
471,245,143686,6,0,L|450:268,1,29.9999990844727,0|0,3:0|0:0,0:0:0:0:
404,178,143912,6,0,L|382:221,1,44.999998626709,0|0,3:0|0:0,0:0:0:0:
301,122,144138,6,0,L|289:179,1,55.0000016784668,0|0,3:0|0:0,0:0:0:0:
161,104,144363,6,0,L|165:172,1,64.9999970245363,0|0,3:0|0:0,0:0:0:0:
20,125,144589,6,0,L|44:195,1,75.0000028610231,2|0,3:3|0:0,0:0:0:0:
370,86,144814,5,8,3:2:0:0:
370,86,145040,2,0,B|372:47|372:47|345:22,1,75.0000028610231,0|0,3:0|0:0,0:0:0:0:
202,259,145265,6,0,B|106:476|-46:365|37:189|222:356,1,450.000017166138,6|0,0:2|0:0,0:0:0:0:
403,277,145717,5,8,0:0:0:0:
300,340,145829,2,0,B|327:291|327:291|287:243,1,112.500004291535,0|2,0:0|0:3,0:0:0:0:
240,186,146055,5,2,0:0:0:0:
240,186,146168,2,0,P|235:140|271:81,1,112.500004291535,2|0,3:2|0:0,0:0:0:0:
485,242,146393,2,0,P|515:195|512:140,1,112.500004291535,2|0,0:3|0:0,0:0:0:0:
198,7,146619,6,0,P|137:99|142:210,1,225.000008583069,10|2,0:0|0:3,0:0:0:0:
151,218,146957,1,0,0:0:0:0:
151,218,147070,6,0,L|96:209,1,50,2|2,3:2|0:0,0:0:0:0:
94,128,147295,2,0,L|39:137,1,50,2|2,0:3|0:0,0:0:0:0:
300,340,147521,6,0,L|410:322,1,100,10|2,0:0|0:3,0:0:0:0:
449,265,147859,1,2,0:0:0:0:
509,320,147972,2,0,L|498:374,1,50,2|0,3:2|0:0,0:0:0:0:
246,40,148198,5,2,0:3:0:0:
446,56,148311,2,0,P|481:82|498:132,1,87.500000834465,2|10,0:0|0:0,0:0:0:0:
179,114,148536,5,2,0:0:0:0:
341,88,148649,2,0,L|358:3,1,87.500000834465,2|0,0:3|0:0,0:0:0:0:
282,227,148874,1,0,3:0:0:0:
116,51,148987,6,0,P|70:55|23:100,2,112.500004291535,2|2|2,0:0|0:3|0:0,0:0:0:0:
179,114,149326,1,10,0:0:0:0:
124,178,149438,1,2,0:0:0:0:
129,187,149551,2,0,L|116:266,1,75.0000028610231,2|2,0:3|0:0,0:0:0:0:
149,330,149777,1,0,3:2:0:0:
157,334,149889,1,2,0:0:0:0:
282,227,150002,6,0,B|295:192|295:192|262:219,1,75.0000028610231,2|2,0:3|0:0,0:0:0:0:
214,283,150228,2,0,B|266:297|266:297|283:335|283:335|353:354,1,150.000005722046,10|2,0:0|0:3,0:0:0:0:
38,312,150679,6,0,L|42:341,2,25,2|2|2,3:2|0:0|0:0,0:0:0:0:
23,235,150904,1,2,0:0:0:0:
118,361,151017,1,2,0:0:0:0:
119,348,151130,2,0,L|127:290,1,50,10|2,0:0|0:0,0:0:0:0:
90,174,151356,6,0,L|86:149,4,25,2|0|2|0|2,0:3|0:0|0:0|0:0|3:2,0:0:0:0:
90,174,151807,6,0,P|134:171|181:116,1,93.75,2|0,0:3|0:0,0:0:0:0:
12,128,152032,1,8,0:0:0:0:
361,15,152258,2,0,P|405:18|452:73,1,93.75,2|0,0:3|0:0,0:0:0:0:
443,49,152483,6,0,P|361:39|399:137,1,225.000008583069,6|2,0:0|0:3,0:0:0:0:
473,123,152822,1,2,0:0:0:0:
255,164,152935,1,10,0:0:0:0:
446,197,153047,2,0,B|472:230|472:230|454:302,1,112.500004291535,2|2,0:0|0:3,0:0:0:0:
431,370,153273,1,2,0:0:0:0:
420,375,153386,5,2,3:2:0:0:
350,354,153498,1,2,0:0:0:0:
279,330,153611,2,0,B|224:338|224:338|278:310,1,112.500004291535,2|2,0:3|0:0,0:0:0:0:
358,157,153837,2,0,B|382:108|382:108|345:288,1,225.000008583069,10|2,0:0|0:3,0:0:0:0:
347,276,154288,6,0,B|261:262|261:262|250:215|250:215|146:197,1,225.000008583069,2|2,3:2|0:3,0:0:0:0:
66,156,154626,1,2,0:0:0:0:
57,311,154739,5,10,0:0:0:0:
65,313,154852,2,0,B|93:318|109:347|109:347|106:316|136:289,2,112.500004291535,2|2|2,0:0|0:3|0:0,0:0:0:0:
0,200,155190,5,2,3:2:0:0:
66,156,155303,2,0,P|59:100|50:34,1,112.500004291535,2|2,0:0|0:3,0:0:0:0:
49,32,155529,1,2,0:0:0:0:
310,12,155641,2,0,P|317:68|326:134,1,112.500004291535,10|0,0:0|0:0,0:0:0:0:
496,268,155867,6,0,B|458:235|463:184|463:184|437:232|391:240,1,187.5,2|0,0:3|0:0,0:0:0:0:
376,236,156092,6,0,P|390:263|389:285,1,50,6|0,3:2|0:0,0:0:0:0:
232,346,156205,2,0,P|205:294|207:253,1,100,2|2,0:0|0:3,0:0:0:0:
188,183,156431,6,0,P|163:193|147:208,1,50,2|0,0:0|0:0,0:0:0:0:
127,297,156544,6,0,L|25:312,1,98.999999697876,10|0,0:0|0:0,0:0:0:0:
25,318,156995,5,6,0:0:0:0:
204,287,157108,1,2,0:0:0:0:
0,150,157220,1,2,0:3:0:0:
179,119,157333,1,2,0:0:0:0:
71,205,157446,6,0,L|164:209,1,75.0000028610231,10|2,0:0|0:0,0:0:0:0:
464,110,157671,2,0,B|427:104|427:104|402:136,1,75.0000028610231,2|0,0:3|0:0,0:0:0:0:
409,142,157897,6,0,P|414:196|388:247,1,100,2|0,3:2|0:0,0:0:0:0:
0,204,158123,2,0,P|-6:155|12:109,1,100,2|0,3:2|0:0,0:0:0:0:
303,302,158348,5,8,3:0:0:0:
261,234,158461,1,2,0:0:0:0:
208,290,158574,1,2,3:3:0:0:
280,94,158686,6,0,B|272:157,1,62.5,2|0,0:0|0:0,0:0:0:0:
244,368,158799,6,0,P|203:337|125:322,1,125,2|0,3:1|0:0,0:0:0:0:
414,114,159025,2,0,P|408:165|434:240,1,125,8|0,0:0|0:0,0:0:0:0:
109,93,159250,2,0,P|156:73|208:13,1,125,8|0,0:0|0:0,0:0:0:0:
303,302,159476,5,8,0:0:0:0:
168,339,163311,6,0,P|154:290|55:279,1,150,10|0,0:0|0:0,0:0:0:0:
265,196,163762,6,0,P|224:194|180:276,1,134.999995880127,10|0,0:0|0:0,0:0:0:0:
155,92,164213,6,0,P|142:124|198:182,1,120,10|0,0:0|0:0,0:0:0:0:
45,168,164664,6,0,P|69:186|131:156,1,104.999996795654,10|0,0:0|0:0,0:0:0:0:
87,296,165115,6,0,P|108:281|100:223,1,89.9999972534181,10|0,0:0|0:0,0:0:0:0:
130,159,165566,6,0,P|89:188|44:167,1,104.999996795654,10|0,0:0|0:0,0:0:0:0:
198,192,166017,6,0,P|151:158|158:102,1,120,10|0,0:0|0:0,0:0:0:0:
178,267,166468,6,0,P|201:206|265:196,1,134.999995880127,10|0,0:0|0:0,0:0:0:0:
328,239,166920,5,4,3:2:0:0:
507,9,167145,2,0,L|424:26,1,75.0000028610231,2|2,0:0|0:0,0:0:0:0:
358,13,167371,1,10,0:0:0:0:
350,14,167483,1,2,0:0:0:0:
297,110,167596,2,0,B|273:83|273:83|276:43,1,75.0000028610231,2|0,0:0|0:0,0:0:0:0:
474,99,167822,6,0,L|489:182,1,75.0000028610231,2|0,3:2|0:0,0:0:0:0:
501,246,168047,1,2,0:0:0:0:
429,220,168160,1,2,0:0:0:0:
421,215,168273,2,0,B|401:248|401:248|418:286,1,75.0000028610231,10|0,0:0|0:0,0:0:0:0:
225,317,168498,1,2,0:0:0:0:
157,294,168611,1,2,0:0:0:0:
125,361,168724,6,0,P|114:284|98:214,1,150.000005722046,0|2,3:0|0:3,0:0:0:0:
316,333,169175,2,0,P|299:259|288:185,1,150.000005722046,8|2,0:0|0:3,0:0:0:0:
81,87,169626,6,0,L|34:80,2,37.5000014305115,2|2|2,3:2|0:0|0:0,0:0:0:0:
158,101,169852,2,0,P|192:117|209:149,1,75.0000028610231,2|0,0:0|0:0,0:0:0:0:
370,60,170077,2,0,P|328:32|281:103,1,150.000005722046,10|2,0:0|0:0,0:0:0:0:
285,179,170416,1,2,0:0:0:0:
288,185,170529,5,2,3:2:0:0:
0,286,170754,2,0,L|90:299,1,75.0000028610231,2|2,0:0|0:0,0:0:0:0:
118,359,170980,1,10,0:0:0:0:
125,361,171092,1,2,0:0:0:0:
198,376,171205,2,0,B|226:349|226:349|224:312,1,75.0000028610231,2|0,0:0|0:0,0:0:0:0:
81,87,171431,6,0,B|53:114|53:114|55:151,1,75.0000028610231,2|0,3:2|0:0,0:0:0:0:
110,202,171656,1,2,0:0:0:0:
159,142,171769,1,2,0:0:0:0:
166,142,171882,2,0,P|204:151|228:180,1,75.0000028610231,8|0,0:0|0:0,0:0:0:0:
286,23,172108,2,0,P|248:32|224:61,1,75.0000028610231,2|2,0:3|0:3,0:0:0:0:
472,156,172333,6,0,B|504:130|504:130|393:158,1,150.000005722046,2|0,3:2|0:0,0:0:0:0:
327,123,172559,1,2,0:3:0:0:
325,132,172671,1,2,0:3:0:0:
364,229,172784,6,0,B|392:251|392:251|294:227,1,125,10|0,0:0|0:0,0:0:0:0:
231,263,173010,1,2,0:3:0:0:
229,254,173123,1,2,0:3:0:0:
226,177,173235,6,0,B|250:156|250:156|164:178,1,100,2|0,3:2|0:0,0:0:0:0:
118,149,173461,1,2,0:3:0:0:
116,158,173574,1,2,0:3:0:0:
0,230,173686,6,0,B|82:246|82:246|87:244|87:244|132:254|132:254|155:354|155:354|225:344|225:344|228:341|228:341|301:331,1,375,10|0,0:0|0:0,0:0:0:0:
358,367,174138,5,4,3:2:0:0:
116,158,174363,2,0,B|110:122|110:122|129:86,1,75.0000028610231,2|2,0:0|0:0,0:0:0:0:
180,30,174589,1,10,0:0:0:0:
186,31,174701,1,2,0:0:0:0:
248,80,174814,2,0,L|338:62,1,75.0000028610231,2|0,0:0|0:0,0:0:0:0:
512,322,175040,6,0,L|438:307,1,75.0000028610231,2|0,3:2|0:0,0:0:0:0:
366,290,175265,1,2,0:0:0:0:
386,215,175378,1,2,0:0:0:0:
383,207,175491,2,0,P|345:188|314:192,1,75.0000028610231,10|0,0:0|0:0,0:0:0:0:
190,349,175717,2,0,P|153:352|120:334,1,75.0000028610231,2|2,0:0|0:0,0:0:0:0:
47,313,175942,6,0,P|58:236|65:150,1,150.000005722046,0|2,3:0|0:3,0:0:0:0:
366,355,176393,2,0,P|372:280|383:206,1,150.000005722046,8|2,0:0|0:3,0:0:0:0:
211,87,176844,6,0,L|256:77,2,37.5000014305115,2|0|2,3:2|0:0|0:0,0:0:0:0:
130,67,177070,2,0,B|122:103|122:103|143:141,1,75.0000028610231,2|0,0:0|0:0,0:0:0:0:
271,158,177295,2,0,B|285:99|285:99|275:84|275:84|289:9,1,150.000005722046,10|0,0:0|0:0,0:0:0:0:
364,13,177634,1,2,0:0:0:0:
387,84,177747,5,0,3:0:0:0:
32,198,177972,2,0,L|40:272,1,75.0000028610231,2|2,0:0|0:0,0:0:0:0:
52,350,178198,1,10,0:0:0:0:
58,353,178311,1,2,0:0:0:0:
136,360,178423,2,0,P|174:353|205:320,1,75.0000028610231,2|0,0:0|0:0,0:0:0:0:
271,158,178649,6,0,P|309:164|340:197,1,75.0000028610231,2|0,3:2|0:0,0:0:0:0:
337,265,178874,1,2,0:0:0:0:
435,194,178987,1,2,0:0:0:0:
433,201,179100,2,0,L|419:279,1,75.0000028610231,8|0,0:0|0:0,0:0:0:0:
383,344,179326,6,0,L|366:99,1,243.750006973744,4|0,3:2|0:0,0:0:0:0:
260,84,179551,6,0,B|281:45|250:1|250:1|187:24|187:71,1,175.00000166893,2|0,3:2|0:0,0:0:0:0:
79,74,179777,1,2,0:3:0:0:
79,74,179889,1,2,0:3:0:0:
29,172,180002,6,0,B|6:149|38:90|38:90|91:102|101:146,1,175.00000166893,10|0,3:2|0:0,0:0:0:0:
187,162,180228,1,2,0:3:0:0:
187,162,180341,1,10,0:0:0:0:
220,262,180453,6,0,B|245:228|218:180|218:180|163:189|151:229,1,175.00000166893,2|0,3:2|0:0,0:0:0:0:
77,262,180679,1,8,0:3:0:0:
77,262,180792,1,0,0:0:0:0:
44,362,180904,6,0,B|19:328|46:280|46:280|101:289|113:329,1,175.00000166893,8|8,0:0|0:3,0:0:0:0:
210,352,181130,2,0,L|281:338,1,56.2500021457673,4|0,0:3|0:0,0:0:0:0:
276,339,181356,5,4,0:3:0:0:
304,263,181469,1,8,0:3:0:0:
220,273,181581,1,4,0:3:0:0:
220,273,181807,6,0,B|164:277|120:335|120:335|68:41,1,400,14|2,0:0|0:3,0:0:0:0:
158,30,182258,6,0,L|164:68,1,34.9999989318848,0|2,3:0|0:3,0:0:0:0:
89,148,182709,6,0,P|133:114|292:125,1,200,14|0,0:0|0:0,0:0:0:0:
332,183,182935,2,0,L|335:163,1,17.4999994659424,2|0,0:0|0:0,0:0:0:0:
506,71,183160,6,0,P|466:29|429:126,1,200,0|2,3:0|0:3,0:0:0:0:
415,199,183498,1,2,0:0:0:0:
406,198,183611,6,0,L|317:181,1,75.0000028610231,10|0,0:0|0:0,0:0:0:0:
220,328,183837,2,0,L|293:342,1,75.0000028610231,2|0,0:0|0:0,0:0:0:0:
369,333,184062,6,0,L|379:375,2,37.5000014305115,2|2|2,3:0|0:0|0:0,0:0:0:0:
411,270,184288,2,0,P|447:272|486:251,1,75.0000028610231,2|0,0:0|0:0,0:0:0:0:
193,196,184514,2,0,P|245:182|249:272,1,150.000005722046,8|2,0:0|0:3,0:0:0:0:
220,328,184852,1,2,0:0:0:0:
150,294,184965,5,0,3:0:0:0:
150,294,185190,2,0,P|115:307|89:337,1,75.0000028610231,2|0,0:0|0:0,0:0:0:0:
263,194,185416,2,0,P|268:157|255:119,1,75.0000028610231,8|0,0:0|0:0,0:0:0:0:
292,342,185641,2,0,P|321:365|359:372,1,75.0000028610231,2|0,0:0|0:0,0:0:0:0:
195,163,185867,6,0,L|35:194,1,150.000005722046,2|2,3:2|0:3,0:0:0:0:
44,199,186205,1,2,0:0:0:0:
100,102,186318,2,0,B|99:65|99:65|111:108,1,75.0000028610231,10|0,0:0|0:0,0:0:0:0:
99,261,186544,2,0,L|172:246,1,75.0000028610231,2|0,0:0|0:0,0:0:0:0:
501,176,186769,5,0,3:0:0:0:
22,278,186995,1,8,0:0:0:0:
484,258,187220,5,8,0:0:0:0:
424,198,187333,1,8,0:3:0:0:
422,205,187446,1,4,0:3:0:0:
420,212,187559,1,0,3:0:0:0:
374,287,187671,6,0,B|422:231|365:164|365:164|341:194|299:224,1,200,10|0,0:1|0:0,0:0:0:0:
91,357,188123,6,0,B|21:333|35:247|35:247|74:259|97:260,1,200,10|0,0:1|0:0,0:0:0:0:
