osu file format v14

[General]
AudioFilename: audio.ogg
AudioLeadIn: 0
PreviewTime: 46214
Countdown: 0
SampleSet: Normal
StackLeniency: 0
Mode: 1
LetterboxInBreaks: 0
WidescreenStoryboard: 0

[Editor]
DistanceSpacing: 2.2
BeatDivisor: 2
GridSize: 32
TimelineZoom: 1.5

[Metadata]
Title:Rideau
TitleUnicode:リドー
Artist:POLKADOT STINGRAY
ArtistUnicode:ポルカドットスティングレイ
Creator:imyx
Version:Oni
Source:よるのブランチ
Tags:odoru you ni 踊る様に math pop alternative rock yakousei japanese jpop j-pop jrock j-rock female vocals yoru no buranchi night brunch ending ed shizuku 雫 Kazuma Mitsuyasu ミツヤスカズマ Yuki Uemura ウエムラユウキ Harushi Ejima エジマハルシ universal sigma artists polka
BeatmapID:3860944
BeatmapSetID:1876157

[Difficulty]
HPDrainRate:6
CircleSize:2
OverallDifficulty:5
ApproachRate:8
SliderMultiplier:1.4
SliderTickRate:1

[Events]
//Background and Video events
0,0,"bg.jpg",0,-50
//Break Periods
//Storyboard Layer 0 (Background)
//Storyboard Layer 1 (Fail)
//Storyboard Layer 2 (Pass)
//Storyboard Layer 3 (Foreground)
//Storyboard Layer 4 (Overlay)
//Storyboard Sound Samples

[TimingPoints]
466,333.333333333333,4,1,0,70,1,8
466,-100,4,1,0,70,0,0
965,333.333333333333,4,1,0,70,1,0
11131,-102.040816326531,4,1,0,70,0,0
11298,-103.092783505155,4,1,0,70,0,0
11464,-104.166666666667,4,1,0,70,0,0
11631,-105.263157894737,4,1,0,60,0,0
22464,-90.9090909090909,4,1,0,60,0,0
23131,-97.0873786407767,4,1,0,75,0,0
23298,-94.3396226415094,4,1,0,75,0,0
23464,-92.5925925925926,4,1,0,75,0,0
23631,-90.9090909090909,4,1,0,75,0,0
34298,-111.111111111111,4,1,0,50,0,0
39631,-90.9090909090909,4,1,0,75,0,0
46298,-74.0740740740741,4,1,0,90,0,1
47631,-83.3333333333333,4,1,0,90,0,1
51631,-74.0740740740741,4,1,0,90,0,1
52964,-83.3333333333333,4,1,0,90,0,1
56964,-74.0740740740741,4,1,0,90,0,1
58298,-83.3333333333333,4,1,0,90,0,1
62298,-74.0740740740741,4,1,0,90,0,1
63631,-83.3333333333333,4,1,0,90,0,1
66464,-86.9565217391304,4,1,0,90,0,1
66631,-89.2857142857143,4,1,0,90,0,1
66798,-91.743119266055,4,1,0,90,0,1
66964,-94.3396226415094,4,1,0,90,0,1
67076,-95.2380952380952,4,1,0,90,0,1
67187,-96.1538461538461,4,1,0,90,0,1
67298,-97.0873786407767,4,1,0,90,0,1
67409,-98.0392156862745,4,1,0,90,0,1
67520,-99.009900990099,4,1,0,90,0,1
67631,-100,4,1,0,80,0,0
79131,-100,4,1,0,70,0,0
89798,-102.040816326531,4,1,0,70,0,0
89964,-103.092783505155,4,1,0,70,0,0
90131,-104.166666666667,4,1,0,70,0,0
90298,-105.263157894737,4,1,0,60,0,0
95131,-101.010101010101,4,1,0,75,0,0
95214,-99.009900990099,4,1,0,75,0,0
95298,-97.0873786407767,4,1,0,75,0,0
95464,-93.4579439252336,4,1,0,75,0,0
95631,-90.9090909090909,4,1,0,75,0,0
99964,-100,4,1,0,70,0,0
100131,-111.111111111111,4,1,0,65,0,0
100298,-121.951219512195,4,1,0,60,0,0
100464,-133.333333333333,4,1,0,55,0,0
100631,-144.927536231884,4,1,0,50,0,0
100798,-156.25,4,1,0,45,0,0
100964,333.333333333333,4,1,0,45,1,8
100982,333.333333333333,3,1,0,40,1,0
100982,-166.666666666667,4,1,0,40,0,0
111481,-163.934426229508,4,1,0,40,0,0
111648,-161.290322580645,4,1,0,40,0,0
111981,-140.845070422535,4,1,0,45,0,0
112148,-125,4,1,0,50,0,0
112315,-113.636363636364,4,1,0,55,0,0
112481,-105.263157894737,4,1,0,60,0,0
112648,-99.009900990099,4,1,0,65,0,0
112815,-94.3396226415094,4,1,0,70,0,0
112963,333.333333333333,4,1,0,100,1,0
112963,-90.9090909090909,4,1,0,75,0,0
119629,-74.0740740740741,4,1,0,90,0,1
120962,-83.3333333333333,4,1,0,90,0,1
124962,-74.0740740740741,4,1,0,90,0,1
126296,-83.3333333333333,4,1,0,90,0,1
130296,-74.0740740740741,4,1,0,90,0,1
131629,-83.3333333333333,4,1,0,90,0,1
135629,-74.0740740740741,4,1,0,90,0,1
136962,-83.3333333333333,4,1,0,90,0,1
139796,-86.9565217391304,4,1,0,90,0,1
139962,-89.2857142857143,4,1,0,90,0,1
140129,-91.743119266055,4,1,0,90,0,1
140296,-94.3396226415094,4,1,0,90,0,1
140407,-95.2380952380952,4,1,0,90,0,1
140518,-96.1538461538461,4,1,0,90,0,1
140629,-97.0873786407767,4,1,0,90,0,1
140740,-98.0392156862745,4,1,0,90,0,1
140851,-99.009900990099,4,1,0,90,0,1
140962,-100,4,1,0,80,0,0
151962,-111.111111111111,4,1,0,60,0,0
162296,-100,4,1,0,70,0,0
170296,-90.9090909090909,4,1,0,80,0,0
174296,-74.0740740740741,4,1,0,90,0,1
175629,-83.3333333333333,4,1,0,90,0,1
179629,-74.0740740740741,4,1,0,90,0,1
180962,-83.3333333333333,4,1,0,90,0,1
184962,-74.0740740740741,4,1,0,90,0,1
186296,-83.3333333333333,4,1,0,90,0,1
190296,-74.0740740740741,4,1,0,90,0,1
191629,-83.3333333333333,4,1,0,90,0,1
194462,-86.9565217391304,4,1,0,90,0,1
194629,-89.2857142857143,4,1,0,90,0,1
194796,-91.743119266055,4,1,0,90,0,1
194962,-94.3396226415094,4,1,0,90,0,1
195074,-95.2380952380952,4,1,0,90,0,1
195185,-96.1538461538461,4,1,0,90,0,1
195296,-97.0873786407767,4,1,0,90,0,1
195407,-98.0392156862745,4,1,0,90,0,1
195518,-99.009900990099,4,1,0,90,0,1
195629,-100,4,1,0,80,0,0
207129,-100,4,1,0,70,0,0

[HitObjects]
255,57,466,5,2,0:0:0:0:
255,57,632,1,2,0:0:0:0:
255,57,799,1,2,0:0:0:0:
255,57,965,1,4,0:0:0:0:
255,57,1298,1,2,0:0:0:0:
255,57,1464,1,0,0:0:0:0:
255,57,1631,1,0,0:0:0:0:
255,57,1964,1,2,0:0:0:0:
255,57,2131,1,0,0:0:0:0:
255,57,2214,1,0,0:0:0:0:
255,57,2298,1,2,0:0:0:0:
255,57,2464,1,0,0:0:0:0:
255,57,2631,1,2,0:0:0:0:
255,57,2798,1,2,0:0:0:0:
255,57,2964,1,0,0:0:0:0:
255,57,3131,1,2,0:0:0:0:
255,57,3214,1,2,0:0:0:0:
255,57,3298,1,2,0:0:0:0:
255,57,3464,1,2,0:0:0:0:
255,57,3631,1,0,0:0:0:0:
255,57,3964,1,2,0:0:0:0:
255,57,4131,1,0,0:0:0:0:
255,57,4298,1,0,0:0:0:0:
255,57,4631,1,2,0:0:0:0:
255,57,4798,1,0,0:0:0:0:
255,57,4881,1,0,0:0:0:0:
255,57,4964,1,2,0:0:0:0:
255,57,5131,1,0,0:0:0:0:
255,57,5298,1,2,0:0:0:0:
255,57,5464,1,0,0:0:0:0:
255,57,5631,1,2,0:0:0:0:
255,57,5798,1,2,0:0:0:0:
255,57,5881,1,2,0:0:0:0:
255,57,5964,1,0,0:0:0:0:
255,57,6131,1,2,0:0:0:0:
255,57,6298,1,0,0:0:0:0:
255,57,6631,1,2,0:0:0:0:
255,57,6798,1,0,0:0:0:0:
255,57,6964,1,0,0:0:0:0:
255,57,7298,1,2,0:0:0:0:
255,57,7464,1,0,0:0:0:0:
255,57,7548,1,0,0:0:0:0:
255,57,7631,1,2,0:0:0:0:
255,57,7798,1,0,0:0:0:0:
255,57,7964,1,2,0:0:0:0:
255,57,8131,1,2,0:0:0:0:
255,57,8298,1,0,0:0:0:0:
255,57,8464,1,2,0:0:0:0:
255,57,8548,1,2,0:0:0:0:
255,57,8631,1,2,0:0:0:0:
255,57,8798,1,2,0:0:0:0:
255,57,8964,1,0,0:0:0:0:
255,57,9298,1,2,0:0:0:0:
255,57,9464,1,0,0:0:0:0:
255,57,9631,1,0,0:0:0:0:
255,57,9964,1,2,0:0:0:0:
247,50,10131,1,4,0:0:0:0:
247,50,10464,1,4,0:0:0:0:
247,50,10798,1,2,0:0:0:0:
247,50,10964,1,4,0:0:0:0:
255,57,11131,1,2,0:0:0:0:
255,57,11298,1,2,0:0:0:0:
255,57,11464,1,2,0:0:0:0:
247,50,11631,1,4,0:0:0:0:
247,50,11964,1,2,0:0:0:0:
247,50,12131,1,0,0:0:0:0:
247,50,12298,1,2,0:0:0:0:
247,50,12464,1,0,0:0:0:0:
247,50,12798,1,2,0:0:0:0:
247,50,12964,1,0,0:0:0:0:
247,50,13131,1,0,0:0:0:0:
247,50,13214,1,2,0:0:0:0:
247,50,13298,1,0,0:0:0:0:
247,50,13464,1,2,0:0:0:0:
247,50,13798,1,0,0:0:0:0:
247,50,13964,1,2,0:0:0:0:
247,50,14131,1,2,0:0:0:0:
247,50,14298,1,0,0:0:0:0:
247,50,14464,1,0,0:0:0:0:
247,50,14631,1,2,0:0:0:0:
247,50,14798,1,2,0:0:0:0:
247,50,14881,1,0,0:0:0:0:
247,50,14964,1,2,0:0:0:0:
247,50,15131,1,0,0:0:0:0:
247,50,15464,1,2,0:0:0:0:
247,50,15631,1,0,0:0:0:0:
247,50,15798,1,0,0:0:0:0:
247,50,15881,1,0,0:0:0:0:
247,50,15964,1,2,0:0:0:0:
247,50,16131,1,0,0:0:0:0:
247,50,16464,1,0,0:0:0:0:
247,50,16631,1,2,0:0:0:0:
247,50,16798,1,2,0:0:0:0:
247,50,16964,1,0,0:0:0:0:
247,50,17131,1,0,0:0:0:0:
247,50,17214,1,0,0:0:0:0:
247,50,17298,1,2,0:0:0:0:
247,50,17464,1,0,0:0:0:0:
247,50,17631,1,2,0:0:0:0:
247,50,17798,1,0,0:0:0:0:
247,50,17964,1,0,0:0:0:0:
247,50,18131,1,2,0:0:0:0:
247,50,18464,1,0,0:0:0:0:
247,50,18631,1,2,0:0:0:0:
247,50,18798,1,2,0:0:0:0:
247,50,18881,1,2,0:0:0:0:
247,50,18964,1,0,0:0:0:0:
247,50,19131,1,0,0:0:0:0:
247,50,19298,1,2,0:0:0:0:
247,50,19631,1,0,0:0:0:0:
247,50,19798,1,0,0:0:0:0:
247,50,19964,1,2,0:0:0:0:
247,50,20048,1,2,0:0:0:0:
247,50,20131,1,2,0:0:0:0:
247,50,20298,1,2,0:0:0:0:
247,50,20631,1,0,0:0:0:0:
247,50,20798,1,2,0:0:0:0:
247,50,21131,1,0,0:0:0:0:
247,50,21298,1,2,0:0:0:0:
247,50,21464,1,2,0:0:0:0:
247,50,21548,1,2,0:0:0:0:
247,50,21631,1,0,0:0:0:0:
247,50,21798,1,0,0:0:0:0:
247,50,21881,1,2,0:0:0:0:
247,50,21964,1,0,0:0:0:0:
247,50,22048,1,2,0:0:0:0:
247,50,22131,1,0,0:0:0:0:
247,50,22214,1,2,0:0:0:0:
247,50,22464,5,2,0:0:0:0:
247,50,22548,1,2,0:0:0:0:
247,50,22631,1,2,0:0:0:0:
247,50,22798,1,2,0:0:0:0:
247,50,23131,1,2,0:0:0:0:
247,50,23298,1,2,0:0:0:0:
247,50,23464,1,2,0:0:0:0:
247,50,23631,1,4,0:0:0:0:
247,50,23798,1,0,0:0:0:0:
247,50,23881,1,0,0:0:0:0:
247,50,23964,1,2,0:0:0:0:
247,50,24131,1,2,0:0:0:0:
247,50,24298,1,0,0:0:0:0:
247,50,24381,1,2,0:0:0:0:
247,50,24464,1,0,0:0:0:0:
247,50,24631,1,2,0:0:0:0:
247,50,24798,1,0,0:0:0:0:
247,50,24964,1,0,0:0:0:0:
247,50,25131,1,0,0:0:0:0:
247,50,25214,1,0,0:0:0:0:
247,50,25298,1,2,0:0:0:0:
247,50,25464,1,2,0:0:0:0:
247,50,25631,1,0,0:0:0:0:
247,50,25798,1,2,0:0:0:0:
247,50,25881,1,2,0:0:0:0:
247,50,25964,1,2,0:0:0:0:
247,50,26298,1,0,0:0:0:0:
247,50,26464,1,0,0:0:0:0:
247,50,26548,1,0,0:0:0:0:
247,50,26631,1,2,0:0:0:0:
247,50,26798,1,2,0:0:0:0:
247,50,26881,1,0,0:0:0:0:
247,50,26964,1,2,0:0:0:0:
247,50,27131,1,0,0:0:0:0:
247,50,27298,1,0,0:0:0:0:
247,50,27464,1,2,0:0:0:0:
247,50,27548,1,2,0:0:0:0:
247,50,27631,1,0,0:0:0:0:
247,50,27798,1,0,0:0:0:0:
247,50,27964,1,2,0:0:0:0:
247,50,28131,1,0,0:0:0:0:
247,50,28214,1,0,0:0:0:0:
247,50,28298,1,0,0:0:0:0:
247,50,28464,1,0,0:0:0:0:
247,50,28631,1,2,0:0:0:0:
247,50,28964,1,2,0:0:0:0:
247,50,29131,1,0,0:0:0:0:
247,50,29214,1,0,0:0:0:0:
247,50,29298,1,2,0:0:0:0:
247,50,29464,1,0,0:0:0:0:
247,50,29631,1,2,0:0:0:0:
247,50,29798,1,0,0:0:0:0:
247,50,29881,1,2,0:0:0:0:
247,50,29964,1,2,0:0:0:0:
247,50,30131,1,2,0:0:0:0:
247,50,30298,1,0,0:0:0:0:
247,50,30464,1,0,0:0:0:0:
247,50,30631,1,2,0:0:0:0:
247,50,30798,1,0,0:0:0:0:
247,50,30881,1,2,0:0:0:0:
247,50,30964,1,0,0:0:0:0:
247,50,31131,1,0,0:0:0:0:
247,50,31214,1,0,0:0:0:0:
247,50,31298,1,2,0:0:0:0:
247,50,31631,1,0,0:0:0:0:
247,50,31798,1,0,0:0:0:0:
247,50,31881,1,2,0:0:0:0:
247,50,31964,1,2,0:0:0:0:
247,50,32131,1,2,0:0:0:0:
247,50,32298,1,2,0:0:0:0:
247,50,32464,1,0,0:0:0:0:
247,50,32631,1,2,0:0:0:0:
247,50,32798,1,2,0:0:0:0:
247,50,32881,1,0,0:0:0:0:
247,50,32964,1,0,0:0:0:0:
247,50,33131,1,0,0:0:0:0:
247,50,33298,1,2,0:0:0:0:
247,50,33464,1,0,0:0:0:0:
247,50,33548,1,0,0:0:0:0:
247,50,33631,1,0,0:0:0:0:
247,50,33798,1,2,0:0:0:0:
247,50,33964,1,2,0:0:0:0:
247,50,34298,1,6,0:0:0:0:
247,50,34798,1,2,0:0:0:0:
247,50,34964,1,0,0:0:0:0:
247,50,35131,1,0,0:0:0:0:
247,50,35298,1,2,0:0:0:0:
247,50,35464,1,0,0:0:0:0:
247,50,35548,1,0,0:0:0:0:
247,50,35631,1,0,0:0:0:0:
247,50,35798,1,0,0:0:0:0:
247,50,36131,1,2,0:0:0:0:
247,50,36298,1,0,0:0:0:0:
247,50,36464,1,0,0:0:0:0:
247,50,36631,1,2,0:0:0:0:
247,50,36798,1,0,0:0:0:0:
247,50,36881,1,0,0:0:0:0:
247,50,36964,1,12,0:0:0:0:
247,50,37464,1,2,0:0:0:0:
247,50,37631,1,0,0:0:0:0:
247,50,37798,1,0,0:0:0:0:
247,50,37964,1,2,0:0:0:0:
247,50,38131,1,2,0:0:0:0:
247,50,38214,1,2,0:0:0:0:
247,50,38298,1,0,0:0:0:0:
247,50,38464,1,0,0:0:0:0:
247,50,38798,1,0,0:0:0:0:
247,50,38964,1,2,0:0:0:0:
247,50,39131,1,0,0:0:0:0:
247,50,39298,1,2,0:0:0:0:
247,50,39631,1,6,0:0:0:0:
247,50,39964,1,0,0:0:0:0:
247,50,40131,1,2,0:0:0:0:
247,50,40298,1,0,0:0:0:0:
247,50,40381,1,0,0:0:0:0:
247,50,40464,1,0,0:0:0:0:
247,50,40631,1,2,0:0:0:0:
247,50,40964,1,0,0:0:0:0:
247,50,41131,1,0,0:0:0:0:
247,50,41214,1,0,0:0:0:0:
247,50,41298,1,2,0:0:0:0:
247,50,41464,1,0,0:0:0:0:
247,50,41631,1,2,0:0:0:0:
247,50,41714,1,0,0:0:0:0:
247,50,41798,1,0,0:0:0:0:
247,50,41964,1,2,0:0:0:0:
247,50,42298,1,0,0:0:0:0:
247,50,42464,1,2,0:0:0:0:
247,50,42548,1,2,0:0:0:0:
247,50,42631,1,2,0:0:0:0:
247,50,42798,1,0,0:0:0:0:
247,50,42964,1,2,0:0:0:0:
247,50,43048,1,2,0:0:0:0:
247,50,43131,1,2,0:0:0:0:
247,50,43214,1,2,0:0:0:0:
247,50,43298,1,0,0:0:0:0:
247,50,43464,1,0,0:0:0:0:
247,50,43631,1,2,0:0:0:0:
247,50,43714,1,2,0:0:0:0:
247,50,43798,1,0,0:0:0:0:
247,50,43881,1,0,0:0:0:0:
247,50,43964,1,0,0:0:0:0:
247,50,44131,1,2,0:0:0:0:
247,50,44298,1,0,0:0:0:0:
247,50,44381,1,0,0:0:0:0:
247,50,44464,1,0,0:0:0:0:
247,50,44548,1,0,0:0:0:0:
247,50,44631,1,2,0:0:0:0:
247,50,44714,1,2,0:0:0:0:
247,50,44798,1,2,0:0:0:0:
247,50,44881,1,2,0:0:0:0:
258,74,46298,1,6,0:0:0:0:
258,74,46631,1,6,0:0:0:0:
258,74,46964,1,4,0:0:0:0:
258,74,47131,1,4,0:0:0:0:
258,74,47298,1,4,0:0:0:0:
258,74,47464,1,6,0:0:0:0:
258,74,47798,1,0,0:0:0:0:
258,74,47964,1,2,0:0:0:0:
258,74,48131,1,2,0:0:0:0:
258,74,48214,1,0,0:0:0:0:
258,74,48298,1,0,0:0:0:0:
258,74,48464,1,0,0:0:0:0:
258,74,48631,1,2,0:0:0:0:
258,74,48714,1,0,0:0:0:0:
258,74,48798,1,2,0:0:0:0:
258,74,48881,1,2,0:0:0:0:
258,74,48964,1,0,0:0:0:0:
258,74,49131,1,0,0:0:0:0:
258,74,49298,1,2,0:0:0:0:
258,74,49464,1,2,0:0:0:0:
258,74,49548,1,0,0:0:0:0:
258,74,49631,1,0,0:0:0:0:
258,74,49798,1,0,0:0:0:0:
258,74,49964,1,2,0:0:0:0:
258,74,50131,1,0,0:0:0:0:
258,74,50464,1,2,0:0:0:0:
258,74,50631,1,2,0:0:0:0:
258,74,50798,1,0,0:0:0:0:
258,74,50964,1,2,0:0:0:0:
258,74,51048,1,2,0:0:0:0:
258,74,51131,1,2,0:0:0:0:
258,74,51214,1,0,0:0:0:0:
258,74,51298,1,2,0:0:0:0:
258,74,51464,1,0,0:0:0:0:
258,74,51548,1,0,0:0:0:0:
258,74,51631,1,6,0:0:0:0:
258,74,51798,1,4,0:0:0:0:
258,74,51964,1,6,0:0:0:0:
258,74,52298,1,4,0:0:0:0:
258,74,52464,1,4,0:0:0:0:
258,74,52631,1,4,0:0:0:0:
258,74,52798,1,6,0:0:0:0:
258,74,53131,1,0,0:0:0:0:
258,74,53298,1,2,0:0:0:0:
258,74,53464,1,0,0:0:0:0:
258,74,53548,1,0,0:0:0:0:
258,74,53631,1,0,0:0:0:0:
258,74,53798,1,0,0:0:0:0:
258,74,53964,1,2,0:0:0:0:
258,74,54048,1,0,0:0:0:0:
258,74,54131,1,0,0:0:0:0:
258,74,54214,1,2,0:0:0:0:
258,74,54298,1,0,0:0:0:0:
258,74,54464,1,0,0:0:0:0:
258,74,54631,1,2,0:0:0:0:
258,74,54798,1,2,0:0:0:0:
258,74,54881,1,0,0:0:0:0:
258,74,54964,1,0,0:0:0:0:
258,74,55131,1,0,0:0:0:0:
258,74,55298,1,2,0:0:0:0:
258,74,55464,1,0,0:0:0:0:
258,74,55798,1,0,0:0:0:0:
258,74,55881,1,0,0:0:0:0:
258,74,55964,1,2,0:0:0:0:
258,74,56048,1,2,0:0:0:0:
258,74,56131,1,0,0:0:0:0:
258,74,56298,1,2,0:0:0:0:
258,74,56381,1,0,0:0:0:0:
258,74,56464,1,0,0:0:0:0:
258,74,56548,1,0,0:0:0:0:
258,74,56631,1,2,0:0:0:0:
258,74,56798,1,0,0:0:0:0:
258,74,56964,1,6,0:0:0:0:
258,74,57298,1,6,0:0:0:0:
258,74,57631,1,4,0:0:0:0:
258,74,57798,1,4,0:0:0:0:
258,74,57964,1,4,0:0:0:0:
258,74,58131,1,6,0:0:0:0:
258,74,58464,1,2,0:0:0:0:
258,74,58631,1,0,0:0:0:0:
258,74,58798,1,2,0:0:0:0:
258,74,58881,1,0,0:0:0:0:
258,74,58964,1,0,0:0:0:0:
258,74,59131,1,0,0:0:0:0:
258,74,59298,1,2,0:0:0:0:
258,74,59381,1,0,0:0:0:0:
258,74,59464,1,0,0:0:0:0:
258,74,59548,1,0,0:0:0:0:
258,74,59631,1,2,0:0:0:0:
258,74,59798,1,0,0:0:0:0:
258,74,59964,1,2,0:0:0:0:
258,74,60131,1,2,0:0:0:0:
258,74,60214,1,0,0:0:0:0:
258,74,60298,1,0,0:0:0:0:
258,74,60464,1,0,0:0:0:0:
258,74,60631,1,2,0:0:0:0:
258,74,60798,1,0,0:0:0:0:
258,74,61131,1,2,0:0:0:0:
258,74,61298,1,2,0:0:0:0:
258,74,61464,1,0,0:0:0:0:
258,74,61548,1,0,0:0:0:0:
258,74,61631,1,2,0:0:0:0:
258,74,61714,1,0,0:0:0:0:
258,74,61798,1,0,0:0:0:0:
258,74,61964,1,2,0:0:0:0:
258,74,62131,1,0,0:0:0:0:
258,74,62214,1,0,0:0:0:0:
258,74,62298,1,6,0:0:0:0:
258,74,62631,1,6,0:0:0:0:
258,74,62964,1,4,0:0:0:0:
258,74,63298,1,4,0:0:0:0:
258,74,63464,1,6,0:0:0:0:
258,74,63798,1,0,0:0:0:0:
258,74,63964,1,2,0:0:0:0:
258,74,64131,1,0,0:0:0:0:
258,74,64214,1,0,0:0:0:0:
258,74,64298,1,0,0:0:0:0:
258,74,64464,1,0,0:0:0:0:
258,74,64631,1,2,0:0:0:0:
258,74,64714,1,0,0:0:0:0:
258,74,64798,1,2,0:0:0:0:
258,74,64881,1,2,0:0:0:0:
258,74,64964,1,0,0:0:0:0:
258,74,65131,1,0,0:0:0:0:
258,74,65298,1,2,0:0:0:0:
258,74,65381,1,2,0:0:0:0:
258,74,65464,1,0,0:0:0:0:
258,74,65548,1,2,0:0:0:0:
258,74,65631,1,0,0:0:0:0:
258,74,65798,1,0,0:0:0:0:
258,74,65964,1,2,0:0:0:0:
258,74,66131,1,4,0:0:0:0:
258,74,66464,1,0,0:0:0:0:
258,74,66631,1,2,0:0:0:0:
258,74,66798,1,0,0:0:0:0:
258,74,66964,1,2,0:0:0:0:
258,74,67076,1,2,0:0:0:0:
258,74,67187,1,0,0:0:0:0:
258,74,67298,1,2,0:0:0:0:
258,74,67409,1,2,0:0:0:0:
258,74,67520,1,2,0:0:0:0:
258,74,67631,1,4,0:0:0:0:
258,74,67964,1,0,0:0:0:0:
258,74,68131,1,2,0:0:0:0:
258,74,68464,1,0,0:0:0:0:
258,74,68631,1,2,0:0:0:0:
258,74,68714,1,2,0:0:0:0:
258,74,68798,1,0,0:0:0:0:
258,74,69131,1,0,0:0:0:0:
258,74,69298,1,2,0:0:0:0:
258,74,69464,1,2,0:0:0:0:
258,74,69631,1,0,0:0:0:0:
258,74,69798,1,0,0:0:0:0:
258,74,69881,1,0,0:0:0:0:
258,74,69964,1,2,0:0:0:0:
258,74,70131,1,2,0:0:0:0:
258,74,70298,1,0,0:0:0:0:
258,74,70631,1,0,0:0:0:0:
258,74,70798,1,2,0:0:0:0:
258,74,71131,1,0,0:0:0:0:
258,74,71298,1,2,0:0:0:0:
258,74,71381,1,2,0:0:0:0:
258,74,71464,1,0,0:0:0:0:
258,74,71798,1,0,0:0:0:0:
258,74,71964,1,2,0:0:0:0:
258,74,72131,1,2,0:0:0:0:
258,74,72298,1,0,0:0:0:0:
258,74,72464,1,0,0:0:0:0:
258,74,72548,1,0,0:0:0:0:
258,74,72631,1,2,0:0:0:0:
258,74,72798,1,2,0:0:0:0:
258,74,72964,1,0,0:0:0:0:
258,74,73298,1,0,0:0:0:0:
258,74,73464,1,2,0:0:0:0:
258,74,73798,1,0,0:0:0:0:
258,74,73964,1,2,0:0:0:0:
258,74,74048,1,2,0:0:0:0:
258,74,74131,1,0,0:0:0:0:
258,74,74464,1,0,0:0:0:0:
258,74,74631,1,2,0:0:0:0:
258,74,74798,1,2,0:0:0:0:
258,74,74964,1,0,0:0:0:0:
258,74,75131,1,0,0:0:0:0:
258,74,75214,1,0,0:0:0:0:
258,74,75298,1,2,0:0:0:0:
258,74,75464,1,2,0:0:0:0:
258,74,75631,1,0,0:0:0:0:
258,74,75964,1,0,0:0:0:0:
258,74,76131,1,2,0:0:0:0:
258,74,76464,1,2,0:0:0:0:
258,74,76631,1,4,0:0:0:0:
258,74,77131,1,2,0:0:0:0:
258,74,77298,1,2,0:0:0:0:
258,74,77464,1,0,0:0:0:0:
258,74,77548,1,0,0:0:0:0:
258,74,77631,1,2,0:0:0:0:
258,74,77798,1,0,0:0:0:0:
258,74,77881,1,0,0:0:0:0:
258,74,77964,1,0,0:0:0:0:
258,74,78131,1,0,0:0:0:0:
258,74,78298,1,6,0:1:0:0:
255,57,79131,1,2,0:0:0:0:
255,57,79298,1,2,0:0:0:0:
255,57,79464,1,2,0:0:0:0:
255,57,79631,1,4,0:0:0:0:
255,57,79964,1,2,0:0:0:0:
255,57,80131,1,0,0:0:0:0:
255,57,80298,1,0,0:0:0:0:
255,57,80631,1,2,0:0:0:0:
255,57,80798,1,0,0:0:0:0:
255,57,80881,1,0,0:0:0:0:
255,57,80964,1,2,0:0:0:0:
255,57,81131,1,0,0:0:0:0:
255,57,81298,1,2,0:0:0:0:
255,57,81464,1,2,0:0:0:0:
255,57,81631,1,0,0:0:0:0:
255,57,81798,1,2,0:0:0:0:
255,57,81881,1,2,0:0:0:0:
255,57,81964,1,2,0:0:0:0:
255,57,82131,1,2,0:0:0:0:
255,57,82298,1,0,0:0:0:0:
255,57,82631,1,2,0:0:0:0:
255,57,82798,1,0,0:0:0:0:
255,57,82964,1,0,0:0:0:0:
255,57,83298,1,2,0:0:0:0:
255,57,83464,1,0,0:0:0:0:
255,57,83548,1,0,0:0:0:0:
255,57,83631,1,2,0:0:0:0:
255,57,83798,1,0,0:0:0:0:
255,57,83964,1,2,0:0:0:0:
255,57,84131,1,0,0:0:0:0:
255,57,84298,1,2,0:0:0:0:
255,57,84464,1,2,0:0:0:0:
255,57,84548,1,2,0:0:0:0:
255,57,84631,1,0,0:0:0:0:
255,57,84798,1,2,0:0:0:0:
255,57,84964,1,0,0:0:0:0:
255,57,85298,1,2,0:0:0:0:
255,57,85464,1,0,0:0:0:0:
255,57,85631,1,0,0:0:0:0:
255,57,85964,1,2,0:0:0:0:
255,57,86131,1,0,0:0:0:0:
255,57,86214,1,0,0:0:0:0:
255,57,86298,1,2,0:0:0:0:
255,57,86464,1,0,0:0:0:0:
255,57,86631,1,2,0:0:0:0:
255,57,86798,1,2,0:0:0:0:
255,57,86964,1,0,0:0:0:0:
255,57,87131,1,2,0:0:0:0:
255,57,87214,1,2,0:0:0:0:
255,57,87298,1,2,0:0:0:0:
255,57,87464,1,2,0:0:0:0:
255,57,87631,1,0,0:0:0:0:
255,57,87964,1,2,0:0:0:0:
255,57,88131,1,0,0:0:0:0:
255,57,88298,1,0,0:0:0:0:
255,57,88631,1,2,0:0:0:0:
247,50,88798,1,4,0:0:0:0:
247,50,89131,1,4,0:0:0:0:
247,50,89464,1,2,0:0:0:0:
247,50,89631,1,4,0:0:0:0:
255,57,89798,1,2,0:0:0:0:
255,57,89964,1,2,0:0:0:0:
255,57,90131,1,2,0:0:0:0:
247,50,90298,1,4,0:0:0:0:
252,64,91631,1,0,0:0:0:0:
252,64,91714,1,0,0:0:0:0:
252,64,91798,1,2,0:0:0:0:
252,64,91881,1,2,0:0:0:0:
252,64,91964,1,0,0:0:0:0:
252,64,92131,1,2,0:0:0:0:
252,64,92298,1,0,0:0:0:0:
252,64,92464,1,6,0:0:0:0:
252,64,92798,1,6,0:0:0:0:
252,64,94131,1,2,0:0:0:0:
252,64,94298,1,0,0:0:0:0:
252,64,94464,1,2,0:0:0:0:
252,64,94548,1,2,0:0:0:0:
252,64,94631,1,0,0:0:0:0:
252,64,94798,1,2,0:0:0:0:
252,64,94964,1,0,0:0:0:0:
252,64,95131,1,2,0:0:0:0:
252,64,95214,1,2,0:0:0:0:
252,64,95298,1,2,0:0:0:0:
252,64,95464,1,2,0:0:0:0:
252,64,95631,1,4,0:0:0:0:
247,50,95964,1,2,0:0:0:0:
247,50,96131,1,0,0:0:0:0:
247,50,96298,1,2,0:0:0:0:
247,50,96464,1,0,0:0:0:0:
247,50,96548,1,0,0:0:0:0:
247,50,96631,1,2,0:0:0:0:
247,50,96798,1,0,0:0:0:0:
247,50,96964,1,2,0:0:0:0:
247,50,97131,1,0,0:0:0:0:
247,50,97214,1,2,0:0:0:0:
247,50,97298,1,2,0:0:0:0:
247,50,97464,1,0,0:0:0:0:
247,50,97631,1,2,0:0:0:0:
247,50,97798,1,0,0:0:0:0:
247,50,97881,1,0,0:0:0:0:
247,50,97964,1,2,0:0:0:0:
247,50,98131,1,2,0:0:0:0:
247,50,98298,1,4,0:0:0:0:
247,50,98464,1,2,0:0:0:0:
247,50,98548,1,2,0:0:0:0:
247,50,98631,1,2,0:0:0:0:
247,50,98798,1,0,0:0:0:0:
247,50,99131,1,2,0:0:0:0:
247,50,99298,1,4,0:0:0:0:
247,50,99464,1,2,0:0:0:0:
247,50,99548,1,2,0:0:0:0:
247,50,99631,1,2,0:0:0:0:
247,50,99798,1,0,0:0:0:0:
247,50,99964,1,2,0:0:0:0:
247,50,100131,1,2,0:0:0:0:
247,50,100298,1,0,0:0:0:0:
247,50,100464,1,0,0:0:0:0:
247,50,100631,1,0,0:0:0:0:
247,50,100798,1,0,0:0:0:0:
247,50,100982,1,6,0:0:0:0:
247,50,101482,1,0,0:0:0:0:
247,50,101648,1,0,0:0:0:0:
247,50,101982,1,2,0:0:0:0:
247,50,102315,1,0,0:0:0:0:
247,50,102482,1,0,0:0:0:0:
247,50,102648,1,0,0:0:0:0:
247,50,102982,1,2,0:0:0:0:
247,50,103482,1,2,0:0:0:0:
247,50,103648,1,0,0:0:0:0:
247,50,103982,1,0,0:0:0:0:
247,50,104315,1,2,0:0:0:0:
247,50,104482,1,0,0:0:0:0:
247,50,104648,1,2,0:0:0:0:
247,50,104982,1,0,0:0:0:0:
247,50,105482,1,2,0:0:0:0:
247,50,105648,1,2,0:0:0:0:
247,50,105982,1,0,0:0:0:0:
255,57,106148,1,2,0:0:0:0:
247,50,106315,1,0,0:0:0:0:
247,50,106648,1,0,0:0:0:0:
247,50,106982,1,2,0:0:0:0:
247,50,107315,1,2,0:0:0:0:
247,50,107482,1,0,0:0:0:0:
247,50,107648,1,2,0:0:0:0:
247,50,107982,1,0,0:0:0:0:
247,50,108315,1,0,0:0:0:0:
247,50,108481,1,0,0:0:0:0:
247,50,108648,1,0,0:0:0:0:
247,50,108981,1,6,0:0:0:0:
247,50,109481,1,0,0:0:0:0:
247,50,109648,1,2,0:0:0:0:
247,50,109981,1,2,0:0:0:0:
247,50,110315,1,2,0:0:0:0:
247,50,110481,1,2,0:0:0:0:
247,50,110648,1,0,0:0:0:0:
247,50,110981,1,2,0:0:0:0:
247,50,111315,1,0,0:0:0:0:
247,50,111481,1,0,0:0:0:0:
247,50,111648,1,2,0:0:0:0:
247,50,111981,1,0,0:0:0:0:
247,50,112148,1,2,0:0:0:0:
247,50,112315,1,0,0:0:0:0:
247,50,112481,1,2,0:0:0:0:
247,50,112648,1,2,0:0:0:0:
247,50,112815,1,0,0:0:0:0:
247,50,112963,1,6,0:0:0:0:
247,50,113296,1,0,0:0:0:0:
247,50,113463,1,2,0:0:0:0:
247,50,113629,1,0,0:0:0:0:
247,50,113713,1,0,0:0:0:0:
247,50,113796,1,0,0:0:0:0:
247,50,113963,1,2,0:0:0:0:
247,50,114296,1,0,0:0:0:0:
247,50,114463,1,0,0:0:0:0:
247,50,114546,1,0,0:0:0:0:
247,50,114629,1,2,0:0:0:0:
247,50,114796,1,0,0:0:0:0:
247,50,114963,1,2,0:0:0:0:
247,50,115046,1,0,0:0:0:0:
247,50,115129,1,0,0:0:0:0:
247,50,115296,1,2,0:0:0:0:
247,50,115629,1,0,0:0:0:0:
247,50,115796,1,2,0:0:0:0:
247,50,115879,1,2,0:0:0:0:
247,50,115963,1,2,0:0:0:0:
247,50,116129,1,0,0:0:0:0:
247,50,116296,1,2,0:0:0:0:
247,50,116379,1,2,0:0:0:0:
247,50,116463,1,2,0:0:0:0:
247,50,116546,1,2,0:0:0:0:
247,50,116629,1,0,0:0:0:0:
247,50,116796,1,0,0:0:0:0:
247,50,116963,1,2,0:0:0:0:
247,50,117046,1,2,0:0:0:0:
247,50,117129,1,0,0:0:0:0:
247,50,117213,1,0,0:0:0:0:
247,50,117296,1,0,0:0:0:0:
247,50,117463,1,2,0:0:0:0:
247,50,117629,1,0,0:0:0:0:
247,50,117713,1,0,0:0:0:0:
247,50,117796,1,0,0:0:0:0:
247,50,117963,1,2,0:0:0:0:
247,50,118046,1,2,0:0:0:0:
247,50,118129,1,2,0:0:0:0:
247,50,118296,1,6,0:0:0:0:
247,50,118463,1,0,0:0:0:0:
247,50,118546,1,0,0:0:0:0:
247,50,118629,1,0,0:0:0:0:
247,50,118796,1,6,0:0:0:0:
247,50,119129,1,4,0:0:0:0:
258,74,119629,1,6,0:0:0:0:
258,74,119962,1,6,0:0:0:0:
258,74,120296,1,4,0:0:0:0:
258,74,120462,1,4,0:0:0:0:
258,74,120629,1,4,0:0:0:0:
258,74,120796,1,6,0:0:0:0:
258,74,121129,1,0,0:0:0:0:
258,74,121296,1,2,0:0:0:0:
258,74,121462,1,2,0:0:0:0:
258,74,121546,1,0,0:0:0:0:
258,74,121629,1,0,0:0:0:0:
258,74,121796,1,0,0:0:0:0:
258,74,121962,1,2,0:0:0:0:
258,74,122046,1,0,0:0:0:0:
258,74,122129,1,2,0:0:0:0:
258,74,122212,1,2,0:0:0:0:
258,74,122296,1,0,0:0:0:0:
258,74,122462,1,0,0:0:0:0:
258,74,122629,1,2,0:0:0:0:
258,74,122796,1,2,0:0:0:0:
258,74,122879,1,0,0:0:0:0:
258,74,122962,1,0,0:0:0:0:
258,74,123129,1,0,0:0:0:0:
258,74,123296,1,2,0:0:0:0:
258,74,123462,1,0,0:0:0:0:
258,74,123796,1,2,0:0:0:0:
258,74,123962,1,2,0:0:0:0:
258,74,124129,1,0,0:0:0:0:
258,74,124296,1,2,0:0:0:0:
258,74,124379,1,2,0:0:0:0:
258,74,124462,1,2,0:0:0:0:
258,74,124546,1,0,0:0:0:0:
258,74,124629,1,2,0:0:0:0:
258,74,124796,1,0,0:0:0:0:
258,74,124879,1,0,0:0:0:0:
258,74,124962,1,6,0:0:0:0:
258,74,125129,1,4,0:0:0:0:
258,74,125296,1,6,0:0:0:0:
258,74,125462,1,6,0:0:0:0:
258,74,125629,1,4,0:0:0:0:
258,74,125796,1,4,0:0:0:0:
258,74,125962,1,4,0:0:0:0:
258,74,126129,1,6,0:0:0:0:
258,74,126462,1,0,0:0:0:0:
258,74,126629,1,2,0:0:0:0:
258,74,126796,1,0,0:0:0:0:
258,74,126879,1,0,0:0:0:0:
258,74,126962,1,0,0:0:0:0:
258,74,127129,1,0,0:0:0:0:
258,74,127296,1,2,0:0:0:0:
258,74,127379,1,0,0:0:0:0:
258,74,127462,1,0,0:0:0:0:
258,74,127546,1,2,0:0:0:0:
258,74,127629,1,0,0:0:0:0:
258,74,127796,1,0,0:0:0:0:
258,74,127962,1,2,0:0:0:0:
258,74,128129,1,2,0:0:0:0:
258,74,128212,1,0,0:0:0:0:
258,74,128296,1,0,0:0:0:0:
258,74,128462,1,0,0:0:0:0:
258,74,128629,1,2,0:0:0:0:
258,74,128796,1,0,0:0:0:0:
258,74,129129,1,0,0:0:0:0:
258,74,129212,1,0,0:0:0:0:
258,74,129296,1,2,0:0:0:0:
258,74,129379,1,2,0:0:0:0:
258,74,129462,1,0,0:0:0:0:
258,74,129629,1,2,0:0:0:0:
258,74,129712,1,0,0:0:0:0:
258,74,129796,1,0,0:0:0:0:
258,74,129879,1,0,0:0:0:0:
258,74,129962,1,2,0:0:0:0:
258,74,130129,1,0,0:0:0:0:
258,74,130296,1,6,0:0:0:0:
258,74,130629,1,6,0:0:0:0:
258,74,130962,1,4,0:0:0:0:
258,74,131129,1,4,0:0:0:0:
258,74,131296,1,4,0:0:0:0:
258,74,131462,1,6,0:0:0:0:
258,74,131796,1,2,0:0:0:0:
258,74,131962,1,0,0:0:0:0:
258,74,132129,1,2,0:0:0:0:
258,74,132212,1,0,0:0:0:0:
258,74,132296,1,0,0:0:0:0:
258,74,132462,1,0,0:0:0:0:
258,74,132629,1,2,0:0:0:0:
258,74,132712,1,0,0:0:0:0:
258,74,132796,1,0,0:0:0:0:
258,74,132879,1,0,0:0:0:0:
258,74,132962,1,2,0:0:0:0:
258,74,133129,1,0,0:0:0:0:
258,74,133296,1,2,0:0:0:0:
258,74,133462,1,2,0:0:0:0:
258,74,133546,1,0,0:0:0:0:
258,74,133629,1,0,0:0:0:0:
258,74,133796,1,0,0:0:0:0:
258,74,133962,1,2,0:0:0:0:
258,74,134129,1,0,0:0:0:0:
258,74,134462,1,2,0:0:0:0:
258,74,134629,1,2,0:0:0:0:
258,74,134796,1,0,0:0:0:0:
258,74,134879,1,0,0:0:0:0:
258,74,134962,1,2,0:0:0:0:
258,74,135046,1,0,0:0:0:0:
258,74,135129,1,0,0:0:0:0:
258,74,135296,1,2,0:0:0:0:
258,74,135462,1,0,0:0:0:0:
258,74,135546,1,0,0:0:0:0:
258,74,135629,1,6,0:0:0:0:
258,74,135962,1,6,0:0:0:0:
258,74,136296,1,4,0:0:0:0:
258,74,136629,1,4,0:0:0:0:
258,74,136796,1,6,0:0:0:0:
258,74,137129,1,0,0:0:0:0:
258,74,137296,1,2,0:0:0:0:
258,74,137462,1,0,0:0:0:0:
258,74,137546,1,0,0:0:0:0:
258,74,137629,1,0,0:0:0:0:
258,74,137796,1,0,0:0:0:0:
258,74,137962,1,2,0:0:0:0:
258,74,138046,1,0,0:0:0:0:
258,74,138129,1,2,0:0:0:0:
258,74,138212,1,2,0:0:0:0:
258,74,138296,1,0,0:0:0:0:
258,74,138462,1,0,0:0:0:0:
258,74,138629,1,2,0:0:0:0:
258,74,138712,1,2,0:0:0:0:
258,74,138796,1,0,0:0:0:0:
258,74,138879,1,2,0:0:0:0:
258,74,138962,1,0,0:0:0:0:
258,74,139129,1,0,0:0:0:0:
258,74,139296,1,2,0:0:0:0:
258,74,139462,1,4,0:0:0:0:
258,74,139796,1,0,0:0:0:0:
258,74,139962,1,2,0:0:0:0:
258,74,140129,1,0,0:0:0:0:
258,74,140296,1,2,0:0:0:0:
258,74,140407,1,2,0:0:0:0:
258,74,140518,1,0,0:0:0:0:
258,74,140629,1,2,0:0:0:0:
258,74,140740,1,2,0:0:0:0:
258,74,140851,1,2,0:0:0:0:
258,74,140962,1,4,0:0:0:0:
258,74,141296,1,0,0:0:0:0:
258,74,141462,1,2,0:0:0:0:
258,74,141796,1,0,0:0:0:0:
258,74,141962,1,2,0:0:0:0:
258,74,142046,1,2,0:0:0:0:
258,74,142129,1,0,0:0:0:0:
258,74,142462,1,0,0:0:0:0:
258,74,142629,1,2,0:0:0:0:
258,74,142796,1,2,0:0:0:0:
258,74,142962,1,0,0:0:0:0:
258,74,143129,1,0,0:0:0:0:
258,74,143212,1,0,0:0:0:0:
258,74,143296,1,2,0:0:0:0:
258,74,143462,1,2,0:0:0:0:
258,74,143629,1,0,0:0:0:0:
258,74,143962,1,0,0:0:0:0:
258,74,144129,1,2,0:0:0:0:
258,74,144462,1,0,0:0:0:0:
258,74,144629,1,2,0:0:0:0:
258,74,144712,1,2,0:0:0:0:
258,74,144796,1,0,0:0:0:0:
258,74,145129,1,0,0:0:0:0:
258,74,145296,1,2,0:0:0:0:
258,74,145462,1,2,0:0:0:0:
258,74,145629,1,0,0:0:0:0:
258,74,145796,1,0,0:0:0:0:
258,74,145879,1,0,0:0:0:0:
258,74,145962,1,2,0:0:0:0:
258,74,146129,1,2,0:0:0:0:
258,74,146296,1,0,0:0:0:0:
258,74,146629,1,0,0:0:0:0:
258,74,146796,1,2,0:0:0:0:
258,74,147129,1,0,0:0:0:0:
258,74,147296,1,2,0:0:0:0:
258,74,147379,1,2,0:0:0:0:
258,74,147462,1,0,0:0:0:0:
258,74,147796,1,0,0:0:0:0:
258,74,147962,1,2,0:0:0:0:
258,74,148129,1,2,0:0:0:0:
258,74,148296,1,0,0:0:0:0:
258,74,148462,1,0,0:0:0:0:
258,74,148546,1,0,0:0:0:0:
258,74,148629,1,2,0:0:0:0:
258,74,148796,1,2,0:0:0:0:
258,74,148962,1,0,0:0:0:0:
258,74,149296,1,0,0:0:0:0:
258,74,149462,1,2,0:0:0:0:
258,74,149796,1,2,0:0:0:0:
258,74,149962,1,4,0:0:0:0:
258,74,150462,1,2,0:0:0:0:
258,74,150629,1,2,0:0:0:0:
258,74,150796,1,0,0:0:0:0:
258,74,150879,1,0,0:0:0:0:
258,74,150962,1,2,0:0:0:0:
258,74,151129,1,2,0:0:0:0:
258,74,151296,1,0,0:0:0:0:
258,74,151462,1,0,0:0:0:0:
258,74,151629,1,0,0:0:0:0:
258,74,151962,1,2,0:0:0:0:
258,74,152129,1,2,0:0:0:0:
258,74,152296,1,0,0:0:0:0:
258,74,152629,1,2,0:0:0:0:
258,74,152796,1,0,0:0:0:0:
258,74,152962,1,0,0:0:0:0:
258,74,153296,1,2,0:0:0:0:
258,74,153462,1,2,0:0:0:0:
258,74,153629,1,0,0:0:0:0:
258,74,153796,1,0,0:0:0:0:
258,74,153962,1,2,0:0:0:0:
258,74,154296,1,0,0:1:0:0:
258,74,154629,1,2,0:0:0:0:
258,74,154796,1,2,0:0:0:0:
258,74,154962,1,0,0:0:0:0:
258,74,155296,1,2,0:0:0:0:
258,74,155462,1,0,0:0:0:0:
258,74,155629,1,0,0:0:0:0:
258,74,155962,1,2,0:0:0:0:
258,74,156129,1,2,0:0:0:0:
258,74,156296,1,0,0:0:0:0:
258,74,156462,1,0,0:0:0:0:
258,74,156629,1,2,0:0:0:0:
258,74,156962,1,0,0:1:0:0:
258,74,157296,1,2,0:0:0:0:
258,74,157462,1,2,0:0:0:0:
258,74,157629,1,0,0:0:0:0:
258,74,157962,1,2,0:0:0:0:
258,74,158129,1,0,0:0:0:0:
258,74,158296,1,0,0:0:0:0:
258,74,158629,1,2,0:0:0:0:
258,74,158796,1,2,0:0:0:0:
258,74,158962,1,0,0:0:0:0:
258,74,159296,1,2,0:0:0:0:
258,74,159629,1,0,0:0:0:0:
258,74,159962,1,2,0:0:0:0:
258,74,160129,1,2,0:0:0:0:
258,74,160296,1,0,0:0:0:0:
258,74,160629,1,2,0:0:0:0:
258,74,160796,1,0,0:0:0:0:
254,60,160962,1,2,0:0:0:0:
254,60,161296,1,2,0:0:0:0:
254,60,161629,1,2,0:0:0:0:
254,59,161962,1,0,0:0:0:0:
254,60,162296,1,6,0:0:0:0:
254,60,162462,1,0,0:0:0:0:
254,60,162629,1,2,0:0:0:0:
254,60,162796,1,0,0:0:0:0:
254,60,162879,1,0,0:0:0:0:
254,60,162962,1,0,0:0:0:0:
254,60,163129,1,0,0:0:0:0:
254,60,163296,1,2,0:0:0:0:
254,60,163462,1,2,0:0:0:0:
254,60,163796,1,0,0:0:0:0:
254,60,163962,1,2,0:0:0:0:
254,60,164129,1,0,0:0:0:0:
254,60,164212,1,0,0:0:0:0:
254,60,164296,1,2,0:0:0:0:
254,60,164462,1,0,0:0:0:0:
254,60,164546,1,0,0:0:0:0:
254,60,164629,1,0,0:0:0:0:
254,60,164796,1,2,0:0:0:0:
254,60,164962,1,0,0:0:0:0:
254,60,165129,1,2,0:0:0:0:
254,60,165212,1,0,0:0:0:0:
254,60,165296,1,2,0:0:0:0:
254,60,165379,1,2,0:0:0:0:
254,60,165462,1,2,0:0:0:0:
254,60,165629,1,2,0:0:0:0:
254,60,165712,1,0,0:0:0:0:
254,60,165796,1,0,0:0:0:0:
254,60,165962,1,2,0:0:0:0:
254,60,166129,1,2,0:0:0:0:
254,60,166462,1,2,0:0:0:0:
254,60,166629,1,0,0:0:0:0:
254,60,166796,1,2,0:0:0:0:
254,60,166962,1,2,0:0:0:0:
254,60,167046,1,0,0:0:0:0:
254,60,167129,1,0,0:0:0:0:
254,60,167296,1,2,0:0:0:0:
254,60,167462,1,2,0:0:0:0:
254,60,167629,1,0,0:0:0:0:
254,60,167962,1,2,0:0:0:0:
254,60,168046,1,2,0:0:0:0:
254,60,168129,1,0,0:0:0:0:
254,60,168296,1,2,0:0:0:0:
254,60,168379,1,2,0:0:0:0:
254,60,168462,1,0,0:0:0:0:
254,60,168546,1,0,0:0:0:0:
254,60,168629,1,2,0:0:0:0:
254,60,168796,1,0,0:0:0:0:
254,60,168879,1,2,0:0:0:0:
254,60,168962,1,0,0:0:0:0:
254,60,169129,1,0,0:0:0:0:
254,60,169296,1,2,0:0:0:0:
254,60,169462,1,2,0:0:0:0:
254,60,169629,1,2,0:0:0:0:
254,60,169712,1,0,0:0:0:0:
254,60,169796,1,2,0:0:0:0:
254,60,169879,1,0,0:0:0:0:
254,60,169962,1,2,0:0:0:0:
254,60,170296,1,4,0:0:0:0:
254,60,170462,1,0,0:0:0:0:
254,60,170546,1,0,0:0:0:0:
254,60,170629,1,2,0:0:0:0:
254,60,170712,1,0,0:0:0:0:
254,60,170796,1,2,0:0:0:0:
254,60,170962,1,2,0:0:0:0:
254,60,171074,1,0,0:0:0:0:
254,60,171185,1,0,0:0:0:0:
254,60,171296,1,6,0:0:0:0:
254,60,171462,1,0,0:0:0:0:
254,60,171546,1,0,0:0:0:0:
254,60,171629,1,2,0:0:0:0:
254,60,171796,1,0,0:0:0:0:
254,60,171962,1,0,0:0:0:0:
254,60,172129,1,0,0:0:0:0:
254,60,172296,1,2,0:0:0:0:
254,60,172462,1,2,0:0:0:0:
254,60,172629,1,0,0:0:0:0:
254,60,172796,1,0,0:0:0:0:
247,50,172962,1,6,0:0:0:0:
254,60,173129,1,0,0:0:0:0:
254,60,173212,1,0,0:0:0:0:
254,60,173296,1,0,0:0:0:0:
247,50,173462,1,6,0:0:0:0:
247,50,173796,1,4,0:0:0:0:
258,74,174296,1,6,0:0:0:0:
258,74,174629,1,6,0:0:0:0:
258,74,174962,1,4,0:0:0:0:
258,74,175129,1,4,0:0:0:0:
258,74,175296,1,4,0:0:0:0:
258,74,175462,1,6,0:0:0:0:
258,74,175796,1,0,0:0:0:0:
258,74,175962,1,2,0:0:0:0:
258,74,176129,1,2,0:0:0:0:
258,74,176212,1,0,0:0:0:0:
258,74,176296,1,0,0:0:0:0:
258,74,176462,1,0,0:0:0:0:
258,74,176629,1,2,0:0:0:0:
258,74,176712,1,0,0:0:0:0:
258,74,176796,1,2,0:0:0:0:
258,74,176879,1,2,0:0:0:0:
258,74,176962,1,0,0:0:0:0:
258,74,177129,1,0,0:0:0:0:
258,74,177296,1,2,0:0:0:0:
258,74,177462,1,2,0:0:0:0:
258,74,177546,1,0,0:0:0:0:
258,74,177629,1,0,0:0:0:0:
258,74,177796,1,0,0:0:0:0:
258,74,177962,1,2,0:0:0:0:
258,74,178129,1,0,0:0:0:0:
258,74,178462,1,2,0:0:0:0:
258,74,178629,1,2,0:0:0:0:
258,74,178796,1,0,0:0:0:0:
258,74,178962,1,2,0:0:0:0:
258,74,179046,1,2,0:0:0:0:
258,74,179129,1,2,0:0:0:0:
258,74,179212,1,0,0:0:0:0:
258,74,179296,1,2,0:0:0:0:
258,74,179462,1,0,0:0:0:0:
258,74,179546,1,0,0:0:0:0:
258,74,179629,1,6,0:0:0:0:
258,74,179796,1,4,0:0:0:0:
258,74,179962,1,6,0:0:0:0:
258,74,180296,1,4,0:0:0:0:
258,74,180462,1,4,0:0:0:0:
258,74,180629,1,4,0:0:0:0:
258,74,180796,1,6,0:0:0:0:
258,74,181129,1,0,0:0:0:0:
258,74,181296,1,2,0:0:0:0:
258,74,181462,1,0,0:0:0:0:
258,74,181546,1,0,0:0:0:0:
258,74,181629,1,0,0:0:0:0:
258,74,181796,1,0,0:0:0:0:
258,74,181962,1,2,0:0:0:0:
258,74,182046,1,0,0:0:0:0:
258,74,182129,1,0,0:0:0:0:
258,74,182212,1,2,0:0:0:0:
258,74,182296,1,0,0:0:0:0:
258,74,182462,1,0,0:0:0:0:
258,74,182629,1,2,0:0:0:0:
258,74,182796,1,2,0:0:0:0:
258,74,182879,1,0,0:0:0:0:
258,74,182962,1,0,0:0:0:0:
258,74,183129,1,0,0:0:0:0:
258,74,183296,1,2,0:0:0:0:
258,74,183462,1,0,0:0:0:0:
258,74,183796,1,0,0:0:0:0:
258,74,183879,1,0,0:0:0:0:
258,74,183962,1,2,0:0:0:0:
258,74,184046,1,2,0:0:0:0:
258,74,184129,1,0,0:0:0:0:
258,74,184296,1,2,0:0:0:0:
258,74,184379,1,0,0:0:0:0:
258,74,184462,1,0,0:0:0:0:
258,74,184546,1,0,0:0:0:0:
258,74,184629,1,2,0:0:0:0:
258,74,184796,1,0,0:0:0:0:
258,74,184962,1,6,0:0:0:0:
258,74,185296,1,6,0:0:0:0:
258,74,185629,1,4,0:0:0:0:
258,74,185796,1,4,0:0:0:0:
258,74,185962,1,4,0:0:0:0:
258,74,186129,1,6,0:0:0:0:
258,74,186462,1,2,0:0:0:0:
258,74,186629,1,0,0:0:0:0:
258,74,186796,1,2,0:0:0:0:
258,74,186879,1,0,0:0:0:0:
258,74,186962,1,0,0:0:0:0:
258,74,187129,1,0,0:0:0:0:
258,74,187296,1,2,0:0:0:0:
258,74,187379,1,0,0:0:0:0:
258,74,187462,1,0,0:0:0:0:
258,74,187546,1,0,0:0:0:0:
258,74,187629,1,2,0:0:0:0:
258,74,187796,1,0,0:0:0:0:
258,74,187962,1,2,0:0:0:0:
258,74,188129,1,2,0:0:0:0:
258,74,188212,1,0,0:0:0:0:
258,74,188296,1,0,0:0:0:0:
258,74,188462,1,0,0:0:0:0:
258,74,188629,1,2,0:0:0:0:
258,74,188796,1,0,0:0:0:0:
258,74,189129,1,2,0:0:0:0:
258,74,189296,1,2,0:0:0:0:
258,74,189462,1,0,0:0:0:0:
258,74,189546,1,0,0:0:0:0:
258,74,189629,1,2,0:0:0:0:
258,74,189712,1,0,0:0:0:0:
258,74,189796,1,0,0:0:0:0:
258,74,189962,1,2,0:0:0:0:
258,74,190129,1,0,0:0:0:0:
258,74,190212,1,0,0:0:0:0:
258,74,190296,1,6,0:0:0:0:
258,74,190629,1,6,0:0:0:0:
258,74,190962,1,4,0:0:0:0:
258,74,191296,1,4,0:0:0:0:
258,74,191462,1,6,0:0:0:0:
258,74,191796,1,0,0:0:0:0:
258,74,191962,1,2,0:0:0:0:
258,74,192129,1,0,0:0:0:0:
258,74,192212,1,0,0:0:0:0:
258,74,192296,1,0,0:0:0:0:
258,74,192462,1,0,0:0:0:0:
258,74,192629,1,2,0:0:0:0:
258,74,192712,1,0,0:0:0:0:
258,74,192796,1,2,0:0:0:0:
258,74,192879,1,2,0:0:0:0:
258,74,192962,1,0,0:0:0:0:
258,74,193129,1,0,0:0:0:0:
258,74,193296,1,2,0:0:0:0:
258,74,193379,1,2,0:0:0:0:
258,74,193462,1,0,0:0:0:0:
258,74,193546,1,2,0:0:0:0:
258,74,193629,1,0,0:0:0:0:
258,74,193796,1,0,0:0:0:0:
258,74,193962,1,2,0:0:0:0:
258,74,194129,1,4,0:0:0:0:
258,74,194462,1,0,0:0:0:0:
258,74,194629,1,2,0:0:0:0:
258,74,194796,1,0,0:0:0:0:
258,74,194962,1,2,0:0:0:0:
258,74,195074,1,2,0:0:0:0:
258,74,195185,1,0,0:0:0:0:
258,74,195296,1,2,0:0:0:0:
258,74,195407,1,2,0:0:0:0:
258,74,195518,1,2,0:0:0:0:
258,74,195629,1,4,0:0:0:0:
258,74,195962,1,0,0:0:0:0:
258,74,196129,1,2,0:0:0:0:
258,74,196462,1,0,0:0:0:0:
258,74,196629,1,2,0:0:0:0:
258,74,196712,1,2,0:0:0:0:
258,74,196796,1,0,0:0:0:0:
258,74,197129,1,0,0:0:0:0:
258,74,197296,1,2,0:0:0:0:
258,74,197462,1,2,0:0:0:0:
258,74,197629,1,0,0:0:0:0:
258,74,197796,1,0,0:0:0:0:
258,74,197879,1,0,0:0:0:0:
258,74,197962,1,2,0:0:0:0:
258,74,198129,1,2,0:0:0:0:
258,74,198296,1,0,0:0:0:0:
258,74,198629,1,0,0:0:0:0:
258,74,198796,1,2,0:0:0:0:
258,74,199129,1,0,0:0:0:0:
258,74,199296,1,2,0:0:0:0:
258,74,199379,1,2,0:0:0:0:
258,74,199462,1,0,0:0:0:0:
258,74,199796,1,0,0:0:0:0:
258,74,199962,1,2,0:0:0:0:
258,74,200129,1,2,0:0:0:0:
258,74,200296,1,0,0:0:0:0:
258,74,200462,1,0,0:0:0:0:
258,74,200546,1,0,0:0:0:0:
258,74,200629,1,2,0:0:0:0:
258,74,200796,1,2,0:0:0:0:
258,74,200962,1,0,0:0:0:0:
258,74,201296,1,0,0:0:0:0:
258,74,201462,1,2,0:0:0:0:
258,74,201796,1,0,0:0:0:0:
258,74,201962,1,2,0:0:0:0:
258,74,202046,1,2,0:0:0:0:
258,74,202129,1,0,0:0:0:0:
258,74,202462,1,0,0:0:0:0:
258,74,202629,1,2,0:0:0:0:
258,74,202796,1,2,0:0:0:0:
258,74,202962,1,0,0:0:0:0:
258,74,203129,1,0,0:0:0:0:
258,74,203212,1,0,0:0:0:0:
258,74,203296,1,2,0:0:0:0:
258,74,203462,1,2,0:0:0:0:
258,74,203629,1,0,0:0:0:0:
258,74,203962,1,0,0:0:0:0:
258,74,204129,1,2,0:0:0:0:
258,74,204462,1,2,0:0:0:0:
258,74,204629,1,4,0:0:0:0:
258,74,205129,1,2,0:0:0:0:
258,74,205296,1,2,0:0:0:0:
258,74,205462,1,0,0:0:0:0:
258,74,205546,1,0,0:0:0:0:
258,74,205629,1,2,0:0:0:0:
258,74,205796,1,0,0:0:0:0:
258,74,205879,1,0,0:0:0:0:
258,74,205962,1,0,0:0:0:0:
258,74,206129,1,0,0:0:0:0:
258,74,206296,1,6,0:1:0:0:
255,57,207129,1,2,0:0:0:0:
255,57,207296,1,2,0:0:0:0:
255,57,207462,1,2,0:0:0:0:
255,57,207629,1,4,0:0:0:0:
255,57,207962,1,2,0:0:0:0:
255,57,208129,1,0,0:0:0:0:
255,57,208296,1,0,0:0:0:0:
255,57,208629,1,2,0:0:0:0:
255,57,208796,1,0,0:0:0:0:
255,57,208879,1,0,0:0:0:0:
255,57,208962,1,2,0:0:0:0:
255,57,209129,1,0,0:0:0:0:
255,57,209296,1,2,0:0:0:0:
255,57,209462,1,0,0:0:0:0:
255,57,209629,1,0,0:0:0:0:
255,57,209796,1,2,0:0:0:0:
255,57,209879,1,2,0:0:0:0:
255,57,209962,1,2,0:0:0:0:
255,57,210129,1,2,0:0:0:0:
255,57,210296,1,0,0:0:0:0:
255,57,210629,1,2,0:0:0:0:
255,57,210796,1,0,0:0:0:0:
255,57,210962,1,0,0:0:0:0:
255,57,211296,1,2,0:0:0:0:
255,57,211462,1,0,0:0:0:0:
255,57,211546,1,0,0:0:0:0:
255,57,211629,1,2,0:0:0:0:
255,57,211796,1,0,0:0:0:0:
255,57,211962,1,2,0:0:0:0:
255,57,212129,1,0,0:0:0:0:
255,57,212296,1,2,0:0:0:0:
255,57,212462,1,2,0:0:0:0:
255,57,212546,1,2,0:0:0:0:
255,57,212629,1,0,0:0:0:0:
255,57,212796,1,2,0:0:0:0:
255,57,212962,1,0,0:0:0:0:
255,57,213296,1,2,0:0:0:0:
255,57,213462,1,0,0:0:0:0:
255,57,213629,1,0,0:0:0:0:
255,57,213962,1,2,0:0:0:0:
255,57,214129,1,0,0:0:0:0:
255,57,214212,1,0,0:0:0:0:
255,57,214296,1,2,0:0:0:0:
255,57,214462,1,0,0:0:0:0:
255,57,214629,1,2,0:0:0:0:
255,57,214796,1,0,0:0:0:0:
255,57,214962,1,0,0:0:0:0:
255,57,215129,1,2,0:0:0:0:
255,57,215212,1,2,0:0:0:0:
255,57,215296,1,2,0:0:0:0:
255,57,215462,1,2,0:0:0:0:
255,57,215629,1,0,0:0:0:0:
255,57,215962,1,2,0:0:0:0:
255,57,216129,1,0,0:0:0:0:
255,57,216296,1,0,0:0:0:0:
255,57,216629,1,2,0:0:0:0:
247,50,216796,1,4,0:0:0:0:
247,50,217129,1,4,0:0:0:0:
247,50,217462,1,2,0:0:0:0:
247,50,217629,1,4,0:0:0:0:
