osu file format v14

[General]
AudioFilename: audio.mp3
AudioLeadIn: 0
PreviewTime: 61495
Countdown: 0
SampleSet: Soft
StackLeniency: 0.2
Mode: 0
LetterboxInBreaks: 0
WidescreenStoryboard: 1

[Editor]
Bookmarks: 17858,23676,29494,40040,45858,48404,61131,61404,107677,115313,116767,119676,122585,125494,128404,134222,140040,141494,148767,149494,151676,157494,161858,163313,165858,167313,167676,169131,174222,174949
DistanceSpacing: 1.2
BeatDivisor: 4
GridSize: 8
TimelineZoom: 2.999999

[Metadata]
Title:JET LAG
TitleUnicode:JET LAG
Artist:POLKADOT STINGRAY
ArtistUnicode:POLKADOT STINGRAY
Creator:Rdzeniu
Version:That smile always kills me
Source:
Tags:jet lag polkadot polka dot stin gray stingray kraszi
BeatmapID:1860879
BeatmapSetID:761712

[Difficulty]
HPDrainRate:7
CircleSize:4
OverallDifficulty:9
ApproachRate:9.2
SliderMultiplier:2
SliderTickRate:1

[Events]
//Background and Video events
0,0,"bg.jpg",0,0
//Break Periods
//Storyboard Layer 0 (Background)
//Storyboard Layer 1 (Fail)
//Storyboard Layer 2 (Pass)
//Storyboard Layer 3 (Foreground)
//Storyboard Sound Samples

[TimingPoints]
404,363.636363636364,4,2,0,60,1,0
404,-222.222222222222,4,2,0,60,0,0
6222,-100,4,2,0,60,0,0
17494,-83.3333333333333,4,2,0,60,0,0
17858,-100,4,2,0,60,0,0
28767,-83.3333333333333,4,2,0,60,0,0
32404,-100,4,2,0,60,0,0
35494,-111.111111111111,4,2,0,60,0,0
36040,-100,4,2,0,60,0,0
43676,-83.3333333333333,4,2,0,60,0,0
44040,-100,4,2,0,60,0,0
48404,-83.3333333333333,4,2,0,60,0,0
49858,-90.9090909090909,4,2,0,60,0,0
96404,-200,4,2,0,60,0,0
97858,-166.666666666667,4,2,0,60,0,0
98585,-142.857142857143,4,2,0,60,0,0
98949,-125,4,2,0,60,0,0
99313,-100,4,2,0,60,0,0
102222,-125,4,2,0,60,0,0
102585,-100,4,2,0,60,0,0
105131,-125,4,2,0,60,0,0
106222,-100,4,2,0,60,0,0
108040,-125,4,2,0,60,0,0
110949,-100,4,2,0,60,0,0
116767,-90.9090909090909,4,2,0,60,0,0
128404,-83.3333333333333,4,2,0,60,0,0

[HitObjects]
45,154,404,6,0,B|120:165|172:169|195:20|328:101|295:202|235:144,1,315
312,51,1858,2,0,B|369:85|384:168|329:221|329:221|360:231|411:206|429:160,1,315
236,145,3313,1,0,0:0:0:0:
70,41,6222,6,0,P|60:102|82:172,1,100
80,152,6494,1,0,0:0:0:0:
90,168,6585,1,0,0:0:0:0:
117,336,6767,1,0,0:0:0:0:
198,186,6949,2,0,P|251:202|171:270,1,200
178,59,7494,5,0,0:0:0:0:
188,75,7585,1,0,0:0:0:0:
201,87,7676,2,0,P|208:137|198:186,1,100
61,289,8040,2,0,P|54:239|64:190,1,100
247,248,8404,1,0,0:0:0:0:
130,244,8585,1,0,0:0:0:0:
319,296,8767,2,0,P|325:246|315:197,1,100
390,352,9131,6,0,P|408:305|411:255,1,100
356,105,9494,1,0,0:0:0:0:
496,182,9676,1,0,0:0:0:0:
316,182,9858,1,0,0:0:0:0:
456,105,10040,1,0,0:0:0:0:
266,108,10222,1,0,0:0:0:0:
407,184,10404,1,0,0:0:0:0:
313,300,10585,6,0,P|356:324|405:327,1,100
316,182,10949,1,0,0:0:0:0:
230,171,11131,1,0,0:0:0:0:
153,211,11313,1,0,0:0:0:0:
270,347,11494,1,0,0:0:0:0:
230,171,11676,2,0,P|200:131|144:100,1,100
263,252,12040,2,0,P|310:263|373:250,1,100
493,131,12404,5,0,0:0:0:0:
342,181,12585,1,0,0:0:0:0:
467,245,12767,2,0,P|450:311|412:353,1,100
243,363,13131,1,0,0:0:0:0:
360,255,13312,1,0,0:0:0:0:
360,234,13404,1,0,0:0:0:0:
358,215,13494,2,0,P|342:165|299:110,1,100
167,246,13858,2,0,P|227:235|258:210,1,100
139,61,14222,5,0,0:0:0:0:
189,170,14404,1,0,0:0:0:0:
39,43,14585,2,0,P|50:103|75:134,1,100
256,211,14949,1,0,0:0:0:0:
110,246,15131,1,0,0:0:0:0:
112,230,15222,1,0,0:0:0:0:
118,216,15313,1,0,0:0:0:0:
182,351,15494,1,0,0:0:0:0:
19,253,15676,6,0,P|31:194|62:136,1,100
199,41,16040,1,0,0:0:0:0:
195,191,16222,1,0,0:0:0:0:
185,180,16313,1,0,0:0:0:0:
178,166,16404,1,0,0:0:0:0:
324,197,16585,1,0,0:0:0:0:
188,64,16767,2,0,P|247:53|315:61,1,100
462,131,17131,1,0,0:0:0:0:
369,55,17313,1,0,0:0:0:0:
481,210,17494,2,0,P|476:269|434:330,1,119.999996337891
229,223,17858,6,0,P|281:199|355:203,1,100
154,107,18222,1,0,0:0:0:0:
229,222,18404,1,0,0:0:0:0:
92,226,18585,2,0,P|92:297|117:349,1,100
153,139,18949,1,0,0:0:0:0:
228,269,19131,6,0,P|234:344|222:378,1,100
215,199,19494,2,0,P|209:274|221:308,1,100
333,355,19858,1,0,0:0:0:0:
359,167,20040,1,0,0:0:0:0:
294,280,20222,1,0,0:0:0:0:
442,160,20404,2,0,P|422:100|368:57,1,100
214,23,20767,6,0,P|259:26|265:127,1,150
245,144,21131,2,0,P|219:194|215:262,1,100
278,349,21494,1,0,0:0:0:0:
398,277,21676,1,0,0:0:0:0:
212,236,21858,1,0,0:0:0:0:
372,245,22040,1,0,0:0:0:0:
186,205,22222,6,0,P|128:227|87:268,1,100
293,182,22585,2,0,P|271:124|230:83,1,100
93,46,22949,1,0,0:0:0:0:
241,22,23131,1,0,0:0:0:0:
66,120,23313,2,0,P|60:181|79:243,1,100
293,182,23676,6,0,P|299:243|280:305,1,100
285,296,23949,1,0,0:0:0:0:
277,311,24040,1,0,0:0:0:0:
118,296,24222,1,0,0:0:0:0:
300,380,24404,2,0,P|344:343|358:278,1,100
173,227,24767,5,0,0:0:0:0:
362,206,24949,1,0,0:0:0:0:
351,216,25040,1,0,0:0:0:0:
340,225,25131,1,0,0:0:0:0:
255,89,25313,1,0,0:0:0:0:
172,259,25494,2,0,P|173:324|182:361,1,100
218,170,25858,6,0,P|217:235|208:272,1,100
136,92,26222,2,0,P|186:67|264:56,1,100
378,121,26585,2,0,P|328:126|278:120,1,100
448,30,26949,1,0,0:0:0:0:
481,166,27131,1,0,0:0:0:0:
278,120,27313,6,0,P|272:169|278:219,1,100
423,290,27676,1,0,0:0:0:0:
280,362,27858,1,0,0:0:0:0:
291,345,27948,1,0,0:0:0:0:
303,329,28039,1,0,0:0:0:0:
149,375,28222,1,0,0:0:0:0:
278,219,28404,2,0,P|228:213|178:219,1,100
392,266,28767,6,0,P|394:209|369:127,1,119.999996337891
365,127,29040,1,0,0:0:0:0:
353,106,29131,1,0,0:0:0:0:
171,43,29313,1,0,0:0:0:0:
410,31,29494,1,0,0:0:0:0:
169,41,32404,6,0,L|147:169,1,100
111,325,32767,1,0,0:0:0:0:
136,207,32949,1,0,0:0:0:0:
229,349,33131,2,0,P|258:304|262:251,1,100
73,266,33494,1,0,0:0:0:0:
263,258,33676,2,0,P|274:205|308:165,1,100
442,189,34040,1,0,0:0:0:0:
260,105,34222,6,0,P|205:86|138:81,1,100
75,249,34585,1,0,0:0:0:0:
192,171,34767,1,0,0:0:0:0:
97,336,34949,2,0,P|145:346|195:346,1,100
365,256,35313,1,0,0:0:0:0:
196,256,35494,6,0,P|191:312|197:349,2,89.9999972534181
271,113,36040,1,0,0:0:0:0:
424,160,36222,1,0,0:0:0:0:
349,302,36404,2,0,P|315:343|263:363,1,100
436,263,36767,2,0,P|440:316|418:366,1,100
259,263,37131,1,0,0:0:0:0:
418,243,37313,1,0,0:0:0:0:
206,189,37494,5,0,0:0:0:0:
365,172,37676,1,0,0:0:0:0:
170,268,37858,2,0,P|133:231|126:158,1,100
342,265,38222,2,0,L|340:373,1,100
508,276,38585,1,0,0:0:0:0:
422,225,38767,1,0,0:0:0:0:
422,325,38949,1,0,0:0:0:0:
422,225,39131,1,0,0:0:0:0:
233,249,39313,5,0,0:0:0:0:
422,325,39494,2,0,L|483:341,2,50
268,250,39858,1,0,0:0:0:0:
422,225,40040,2,0,L|483:209,2,50
233,249,40404,2,0,L|217:143,1,100
77,38,40767,1,0,0:0:0:0:
270,82,40949,6,0,P|219:67|151:97,1,100
108,268,41313,1,0,0:0:0:0:
218,150,41494,1,0,0:0:0:0:
79,169,41676,1,0,0:0:0:0:
339,171,41858,1,0,0:0:0:0:
71,158,42222,5,0,0:0:0:0:
248,227,42404,1,0,0:0:0:0:
122,86,42585,1,0,0:0:0:0:
173,269,42767,1,0,0:0:0:0:
179,19,42949,2,0,P|234:12|292:30,1,100
448,162,43313,2,0,L|454:104,1,50
393,224,43494,2,0,L|438:260,1,50
364,148,43676,2,0,B|268:172|287:83|178:126,1,179.999994506836
160,141,44039,5,0,0:0:0:0:
137,173,44130,1,0,0:0:0:0:
129,212,44221,1,0,0:0:0:0:
137,251,44312,1,0,0:0:0:0:
160,283,44403,1,0,0:0:0:0:
194,304,44494,1,0,0:0:0:0:
234,309,44585,1,0,0:0:0:0:
272,298,44676,1,0,0:0:0:0:
388,269,44858,1,0,0:0:0:0:
349,261,44949,1,0,0:0:0:0:
481,124,45131,1,0,0:0:0:0:
484,314,45313,6,0,L|502:386,2,50
321,363,45676,1,0,0:0:0:0:
374,170,45858,2,0,L|392:98,2,50
189,158,46222,1,0,0:0:0:0:
156,135,46312,1,0,0:0:0:0:
117,130,46403,1,0,0:0:0:0:
79,142,46494,1,0,0:0:0:0:
52,171,46585,2,0,P|46:231|62:300,1,100
264,357,46949,6,0,P|270:307|263:258,1,100
64,356,47313,1,0,0:0:0:0:
246,164,47494,2,0,P|316:177|348:214,1,100
184,333,47858,1,0,0:0:0:0:
412,352,48040,1,0,0:0:0:0:
182,304,48222,1,0,0:0:0:0:
422,156,48404,6,0,L|398:280,1,119.999996337891
246,164,48767,6,0,L|268:46,1,119.999996337891
449,287,49858,6,0,B|391:269|377:217|400:131|316:128|291:180|351:217,1,220.000006713867
275,295,50404,2,0,B|238:338|186:352|186:352|151:318|142:210,1,220.000006713867
192,130,50949,2,0,B|90:136|67:205|26:155|9:85|106:113|65:135,1,220.000006713867
45,264,51494,2,0,B|51:301|75:321|75:321|162:308|228:370,1,220.000006713867
161,248,52040,2,0,B|235:267|276:312,1,110.000003356934
387,383,52404,1,0,0:0:0:0:
292,292,52585,1,0,0:0:0:0:
443,321,52767,6,0,B|476:294|487:258|376:183|371:142|422:113,1,220.000006713867
508,43,53313,2,0,B|441:99|349:95|349:95|351:66|377:29,1,220.000006713867
333,178,53858,2,0,B|267:157|265:89|265:89|237:144|239:205,1,220.000006713867
305,294,54404,2,0,P|286:352|236:388,2,110.000003356934
177,262,54949,1,0,0:0:0:0:
58,319,55131,1,0,0:0:0:0:
176,220,55313,1,0,0:0:0:0:
172,373,55494,1,0,0:0:0:0:
297,283,55676,6,0,L|319:200,1,55.0000016784668
373,243,55858,2,0,L|351:160,1,55.0000016784668
418,170,56040,2,0,L|357:109,1,55.0000016784668
299,143,56222,2,0,P|371:90|291:28,1,220.000006713867
211,129,56767,2,0,B|115:157|75:103|75:103|116:123|155:88,1,220.000006713867
106,14,57313,2,0,P|75:99|93:251,1,220.000006713867
212,252,57858,2,0,P|224:306|223:361,1,110.000003356934
159,160,58222,1,0,0:0:0:0:
132,312,58404,1,0,0:0:0:0:
253,79,58585,5,0,0:0:0:0:
38,212,58767,1,0,0:0:0:0:
32,178,58949,1,0,0:0:0:0:
301,161,59131,1,0,0:0:0:0:
54,103,59313,1,0,0:0:0:0:
40,132,59495,1,0,0:0:0:0:
130,211,59676,2,0,B|164:231|186:265|186:265|120:281|26:231,1,220.000006713867
198,158,60222,2,0,P|251:220|299:358,1,220.000006713867
431,101,60767,5,0,0:0:0:0:
76,116,60949,1,0,0:0:0:0:
228,372,61131,5,0,0:0:0:0:
256,17,61313,1,0,0:0:0:0:
134,249,61494,6,0,P|79:252|15:225,1,110.000003356934
378,135,61858,2,0,P|433:132|497:159,1,110.000003356934
129,146,62222,2,0,P|88:109|62:44,1,110.000003356934
382,237,62586,2,0,P|423:274|449:339,1,110.000003356934
160,279,62949,2,0,B|210:355|210:355|232:312,1,110.000003356934
194,118,63313,1,0,0:0:0:0:
94,313,63494,1,0,0:0:0:0:
233,234,63676,2,0,P|187:197|127:199,1,110.000003356934
376,256,64040,2,0,P|334:291|280:294,1,110.000003356934
294,41,64404,6,0,P|371:41|423:71,1,110.000003356934
218,109,64767,2,0,P|141:109|89:79,1,110.000003356934
126,284,65131,1,0,0:0:0:0:
41,130,65313,1,0,0:0:0:0:
75,347,65494,1,0,0:0:0:0:
249,197,65676,1,0,0:0:0:0:
31,220,65858,1,0,0:0:0:0:
205,262,66040,2,0,P|242:216|246:201,1,55.0000016784668
281,256,66222,2,0,P|306:243|326:224,1,55.0000016784668
357,270,66404,2,0,P|412:248|423:237,1,55.0000016784668
458,194,66585,5,0,0:0:0:0:
466,355,66767,1,0,0:0:0:0:
503,127,66949,1,0,0:0:0:0:
366,302,67131,1,0,0:0:0:0:
357,270,67221,1,0,0:0:0:0:
348,238,67313,2,0,P|312:173|240:130,1,110.000003356934
76,217,67676,1,0,0:0:0:0:
250,242,67858,1,0,0:0:0:0:
120,92,68040,5,0,0:0:0:0:
101,285,68222,1,0,0:0:0:0:
271,78,68404,5,0,0:0:0:0:
45,55,68585,1,0,0:0:0:0:
37,81,68675,1,0,0:0:0:0:
33,107,68767,2,0,P|38:177|81:228,1,110.000003356934
206,99,69131,1,0,0:0:0:0:
176,279,69313,2,0,P|149:276|113:257,1,55.0000016784668
225,224,69494,2,0,L|227:351,1,110.000003356934
147,187,69858,1,0,0:0:0:0:
302,345,70040,1,0,0:0:0:0:
356,124,70222,5,0,0:0:0:0:
393,318,70404,1,0,0:0:0:0:
379,53,70585,1,0,0:0:0:0:
342,247,70767,1,0,0:0:0:0:
240,54,70949,2,0,P|177:104|170:142,1,110.000003356934
434,124,71313,1,0,0:0:0:0:
257,133,71494,1,0,0:0:0:0:
340,351,71676,5,0,0:0:0:0:
381,62,71858,1,0,0:0:0:0:
134,220,72040,5,0,0:0:0:0:
482,193,72222,1,0,0:0:0:0:
237,95,72404,5,0,0:0:0:0:
204,90,72494,1,0,0:0:0:0:
173,79,72585,1,0,0:0:0:0:
144,63,72676,1,0,0:0:0:0:
113,42,72767,1,0,0:0:0:0:
125,95,72857,1,0,0:0:0:0:
132,150,72948,1,0,0:0:0:0:
133,205,73039,1,0,0:0:0:0:
129,261,73131,6,0,B|118:303|103:334|103:334|51:297,1,110.000003356934
296,189,73494,2,0,P|356:213|401:255,1,110.000003356934
180,120,73858,2,0,P|204:60|246:15,1,110.000003356934
109,235,74222,2,0,P|48:211|3:168,1,110.000003356934
228,297,74585,1,0,0:0:0:0:
180,120,74767,1,0,0:0:0:0:
252,330,74949,1,0,0:0:0:0:
300,153,75131,1,0,0:0:0:0:
105,150,75313,5,0,0:0:0:0:
333,179,75494,1,0,0:0:0:0:
75,109,75676,2,0,P|37:172|30:238,1,110.000003356934
270,106,76040,2,0,P|255:53|224:8,1,110.000003356934
267,178,76404,2,0,P|281:125|312:80,1,110.000003356934
292,299,76767,1,0,0:0:0:0:
200,135,76949,1,0,0:0:0:0:
221,365,77131,1,0,0:0:0:0:
354,234,77313,2,0,P|300:212|235:227,1,110.000003356934
88,289,77676,6,0,P|134:252|149:248,1,55.0000016784668
94,212,77858,2,0,P|129:165|143:157,1,55.0000016784668
80,137,78040,2,0,P|102:82|113:71,1,55.0000016784668
156,36,78221,1,0,0:0:0:0:
224,223,78404,1,0,0:0:0:0:
266,8,78585,1,0,0:0:0:0:
353,183,78767,1,0,0:0:0:0:
360,209,78857,1,0,0:0:0:0:
367,236,78949,2,0,P|370:296|346:373,1,110.000003356934
151,271,79313,5,0,0:0:0:0:
398,361,79494,1,0,0:0:0:0:
107,349,79676,5,0,0:0:0:0:
331,244,79857,1,0,0:0:0:0:
76,202,80040,1,0,0:0:0:0:
223,335,80222,2,0,P|202:288|213:214,1,110.000003356934
354,116,80585,2,0,P|348:82|332:59,1,55.0000016784668
306,185,80767,2,0,P|309:212|322:236,1,55.0000016784668
395,191,80949,1,0,0:0:0:0:
223,335,81131,2,0,P|281:357|355:331,1,110.000003356934
489,200,81494,1,0,0:0:0:0:
322,93,81676,1,0,0:0:0:0:
294,90,81766,1,0,0:0:0:0:
267,93,81858,6,0,P|196:112|150:152,1,110.000003356934
144,353,82222,1,0,0:0:0:0:
97,183,82404,1,0,0:0:0:0:
248,249,82585,1,0,0:0:0:0:
88,292,82767,1,0,0:0:0:0:
109,73,82949,1,0,0:0:0:0:
30,218,83131,1,0,0:0:0:0:
315,106,83313,5,0,0:0:0:0:
21,74,83494,1,0,0:0:0:0:
228,326,83676,5,0,0:0:0:0:
268,31,83857,1,0,0:0:0:0:
75,150,84040,5,0,0:0:0:0:
91,171,84130,1,0,0:0:0:0:
99,197,84221,1,0,0:0:0:0:
99,225,84312,1,0,0:0:0:0:
88,260,84404,1,0,0:0:0:0:
133,230,84494,1,0,0:0:0:0:
188,227,84585,1,0,0:0:0:0:
236,251,84676,1,0,0:0:0:0:
267,296,84767,6,0,B|278:331|268:361|268:361|342:320|346:204,1,220.000006713867
123,43,85494,1,0,0:0:0:0:
294,33,85676,1,0,0:0:0:0:
96,129,85858,2,0,B|151:131|206:104|206:104|173:155|170:219,1,220.000006713867
331,114,86404,2,0,P|299:184|300:207,1,55.0000016784668
390,85,86585,2,0,P|379:110|375:138,1,55.0000016784668
439,42,86767,2,0,P|435:69|438:96,1,55.0000016784668
467,213,86949,2,0,P|390:252|305:327,1,165.000005035401
298,345,87313,5,0,0:0:0:0:
247,362,87403,1,0,0:0:0:0:
198,339,87494,1,0,0:0:0:0:
178,289,87585,1,0,0:0:0:0:
185,238,87676,2,0,B|126:229|70:253|70:253|104:263|110:303,1,165.000005035401
86,311,88040,2,0,P|90:344|87:376,2,55.0000016784668
28,180,88404,5,0,0:0:0:0:
16,345,88585,1,0,0:0:0:0:
145,167,88767,1,0,0:0:0:0:
269,351,88949,2,0,P|332:281|218:228,1,220.000006713867
193,261,89404,1,0,0:0:0:0:
168,189,89494,2,0,P|156:163|150:106,2,55.0000016784668
340,89,89858,1,0,0:0:0:0:
119,49,90040,1,0,0:0:0:0:
386,64,90222,2,0,P|391:149|380:213,1,110.000003356934
328,222,90494,1,0,0:0:0:0:
400,252,90585,6,0,P|458:270|510:257,1,110.000003356934
353,370,90949,1,0,0:0:0:0:
457,191,91131,1,0,0:0:0:0:
239,224,91313,1,0,0:0:0:0:
474,177,91676,5,0,0:0:0:0:
225,238,91858,1,0,0:0:0:0:
374,68,92222,5,0,0:0:0:0:
435,317,92404,1,0,0:0:0:0:
353,144,92585,1,0,0:0:0:0:
274,270,92767,2,0,P|301:273|327:281,1,55.0000016784668
274,353,92949,2,0,P|246:352|219:347,1,55.0000016784668
156,286,93131,2,0,B|116:237|59:242|59:242|39:293|78:359,1,220.000006713867
39,114,93676,5,0,0:0:0:0:
43,141,93766,1,0,0:0:0:0:
47,168,93858,2,0,P|115:174|165:195,1,110.000003356934
318,348,94222,1,0,0:0:0:0:
263,135,94404,1,0,0:0:0:0:
318,322,94585,1,0,0:0:0:0:
373,109,94767,1,0,0:0:0:0:
182,148,94949,6,0,P|199:87|244:56,1,110.000003356934
456,68,95313,1,0,0:0:0:0:
266,189,95494,1,0,0:0:0:0:
264,162,95585,1,0,0:0:0:0:
263,135,95675,5,0,0:0:0:0:
373,365,95858,1,0,0:0:0:0:
151,243,96040,5,0,0:0:0:0:
381,133,96223,1,0,0:0:0:0:
119,177,96404,6,0,B|50:225|67:305|136:339|181:315|203:291|203:291|270:314|320:279,1,350
379,224,97858,2,0,P|409:199|442:185,2,59.9999981689454
393,319,98404,1,0,0:0:0:0:
302,289,98585,2,0,P|268:256|247:209,1,69.9999978637696
303,125,98949,2,0,P|244:117|178:138,1,120
126,204,99313,6,0,P|112:135|92:83,1,100
33,287,99676,1,0,0:0:0:0:
23,147,99858,1,0,0:0:0:0:
66,315,100040,2,0,P|135:301|187:281,1,100
338,215,100404,1,0,0:0:0:0:
121,330,100585,6,0,P|190:316|242:296,1,100
348,196,100949,1,0,0:0:0:0:
141,113,101131,2,0,P|165:197|213:212,1,100
292,96,101494,1,0,0:0:0:0:
147,28,101676,1,0,0:0:0:0:
252,198,101858,2,0,P|232:256|202:280,1,100
30,350,102222,6,0,P|69:305|142:287,1,120
142,308,102585,1,0,0:0:0:0:
127,149,102767,1,0,0:0:0:0:
248,205,102949,1,0,0:0:0:0:
89,220,103131,1,0,0:0:0:0:
238,125,103313,1,0,0:0:0:0:
253,284,103495,1,0,0:0:0:0:
168,169,103676,6,0,P|176:219|165:288,1,100
161,109,104040,2,0,P|153:159|164:228,1,100
279,117,104404,1,0,0:0:0:0:
275,216,104585,1,0,0:0:0:0:
353,71,104767,1,0,0:0:0:0:
374,167,104948,1,0,0:0:0:0:
411,8,105131,6,0,P|444:52|478:136,1,120
473,132,105494,1,0,0:0:0:0:
374,167,105676,1,0,0:0:0:0:
275,216,105858,1,0,0:0:0:0:
39,132,106222,5,0,0:0:0:0:
138,181,106404,1,0,0:0:0:0:
45,241,106585,2,0,P|51:304|32:359,1,100
204,358,106949,2,0,P|199:318|213:252,1,100
339,159,107313,1,0,0:0:0:0:
239,182,107495,1,0,0:0:0:0:
404,218,107676,2,0,P|414:266|410:316,1,100
421,143,108040,6,0,P|457:210|467:286,1,120
466,271,108404,1,0,0:0:0:0:
387,338,108585,1,0,0:0:0:0:
282,338,108767,1,0,0:0:0:0:
46,271,109131,5,0,0:0:0:0:
209,88,109494,5,0,0:0:0:0:
201,194,109676,1,0,0:0:0:0:
87,136,109858,1,0,0:0:0:0:
300,160,110222,5,0,0:0:0:0:
266,261,110404,1,0,0:0:0:0:
199,343,110585,1,0,0:0:0:0:
302,360,110767,1,0,0:0:0:0:
201,194,110949,6,0,P|149:194|86:220,1,100
199,343,111313,1,0,0:0:0:0:
229,175,111494,2,0,P|178:161|111:170,1,100
11,175,111858,1,0,0:0:0:0:
110,11,112040,1,0,0:0:0:0:
85,139,112222,2,0,P|140:123|198:136,1,100
144,264,112585,5,0,0:0:0:0:
258,99,112767,1,0,0:0:0:0:
266,219,112949,1,0,0:0:0:0:
359,255,113131,1,0,0:0:0:0:
453,220,113313,1,0,0:0:0:0:
361,55,113494,1,0,0:0:0:0:
359,155,113676,1,0,0:0:0:0:
432,35,113858,6,0,P|357:16|271:45,1,150
271,47,114222,1,0,0:0:0:0:
246,236,114404,2,0,P|174:254|121:244,1,100
62,169,114767,1,0,0:0:0:0:
200,25,114949,1,0,0:0:0:0:
85,59,115131,1,0,0:0:0:0:
323,94,115313,5,0,0:0:0:0:
62,169,115676,5,0,0:0:0:0:
315,30,116767,6,0,B|289:65|303:108|303:108|281:132|281:165|281:165|306:208|299:264,1,220.000006713867
321,354,117313,2,0,B|328:300|381:267|381:267|429:294|452:371,1,220.000006713867
321,354,117858,2,0,B|236:356|197:305|197:305|166:333|112:336,1,220.000006713867
4,299,118404,2,0,B|29:312|39:348|39:348|41:311|63:249|135:196,1,220.000006713867
279,237,118949,2,0,P|224:194|157:192,1,110.000003356934
168,312,119313,1,0,0:0:0:0:
153,152,119494,1,0,0:0:0:0:
202,345,119676,6,0,B|296:357|368:318|368:318|373:345|353:376,1,220.000006713867
467,297,120222,2,0,B|450:248|390:223|390:223|458:197|467:127,1,220.000006713867
379,46,120767,2,0,B|363:83|375:131|375:131|301:124|261:188,1,220.000006713867
328,237,121313,2,0,B|300:292|214:279|192:233|192:233|160:248|140:287,1,220.000006713867
147,284,121767,1,0,0:0:0:0:
148,301,121858,5,0,0:0:0:0:
107,130,122040,1,0,0:0:0:0:
149,316,122222,1,0,0:0:0:0:
181,165,122404,1,0,0:0:0:0:
293,270,122585,2,0,P|321:275|361:272,1,55.0000016784668
220,271,122767,2,0,P|224:303|220:338,1,55.0000016784668
220,198,122949,2,0,P|190:203|152:196,1,55.0000016784668
293,197,123131,6,0,B|301:148|293:85|293:85|342:119|370:182,1,220.000006713867
431,275,123676,2,0,B|461:299|461:348|461:348|405:294|311:293,1,220.000006713867
215,340,124222,2,0,P|152:343|171:218,1,220.000006713867
325,185,124767,2,0,P|337:239|336:294,1,110.000003356934
272,93,125131,1,0,0:0:0:0:
245,245,125313,1,0,0:0:0:0:
93,113,125494,5,0,0:0:0:0:
226,328,125676,1,0,0:0:0:0:
192,334,125858,1,0,0:0:0:0:
175,65,126040,1,0,0:0:0:0:
117,312,126222,1,0,0:0:0:0:
146,326,126404,1,0,0:0:0:0:
305,284,126585,2,0,B|359:239|375:173|375:173|325:175|275:203,1,220.000006713867
117,312,127131,2,0,P|60:241|139:148,1,220.000006713867
322,357,127676,5,0,0:0:0:0:
257,34,127858,1,0,0:0:0:0:
139,233,128040,5,0,0:0:0:0:
463,167,128222,1,0,0:0:0:0:
164,256,128404,6,0,B|174:306|161:357|161:357|177:350|192:323,1,119.999996337891
336,37,128767,2,0,B|335:34|351:27|351:27|338:78|348:128,1,119.999996337891
336,346,129131,2,0,B|335:350|351:357|351:357|338:306|348:256,1,119.999996337891
175,37,129494,2,0,B|177:34|161:27|161:27|174:78|164:128,1,119.999996337891
31,322,129858,6,0,P|107:341|150:392,1,119.999996337891
375,368,130222,2,0,P|422:331|480:321,1,119.999996337891
480,62,130585,2,0,P|422:52|375:15,1,119.999996337891
136,15,130949,2,0,P|89:52|31:62,1,119.999996337891
256,24,131313,6,0,L|256:158,1,119.999996337891
207,305,131676,1,0,0:0:0:0:
358,178,131858,1,0,0:0:0:0:
170,110,132040,1,0,0:0:0:0:
192,267,132222,1,0,0:0:0:0:
152,79,132404,2,0,L|117:13,1,59.9999981689454
99,133,132585,2,0,P|85:217|54:285,1,119.999996337891
218,357,132949,2,0,P|248:339|278:302,1,59.9999981689454
292,353,133131,2,0,P|316:327|335:284,1,59.9999981689454
362,329,133313,2,0,P|378:298|386:251,1,59.9999981689454
379,202,133494,5,0,0:0:0:0:
436,361,133676,1,0,0:0:0:0:
478,141,133858,1,0,0:0:0:0:
311,247,134040,1,0,0:0:0:0:
403,115,134222,2,0,P|328:127|288:188,1,119.999996337891
190,314,134585,2,0,P|145:352|86:355,2,119.999996337891
197,149,135131,1,0,0:0:0:0:
270,342,135313,1,0,0:0:0:0:
136,207,135494,6,0,P|113:142|260:93,1,239.999992675781
347,269,136040,2,0,B|360:281|371:299|371:299|392:260|392:166,1,119.999996337891
349,68,136404,1,0,0:0:0:0:
239,77,136585,1,0,0:0:0:0:
135,206,136767,1,0,0:0:0:0:
298,224,136948,1,0,0:0:0:0:
123,86,137131,6,0,P|64:105|16:164,1,119.999996337891
90,337,137494,1,0,0:0:0:0:
135,206,137676,1,0,0:0:0:0:
224,349,137858,2,0,P|237:257|225:194,1,119.999996337891
356,325,138222,1,0,0:0:0:0:
329,189,138404,1,0,0:0:0:0:
72,132,138585,5,0,0:0:0:0:
318,46,138767,1,0,0:0:0:0:
255,269,138949,5,0,0:0:0:0:
170,23,139131,1,0,0:0:0:0:
409,109,139313,5,0,0:0:0:0:
441,142,139403,1,0,0:0:0:0:
443,189,139494,1,0,0:0:0:0:
412,224,139585,1,0,0:0:0:0:
358,223,139676,1,0,0:0:0:0:
309,189,139766,1,0,0:0:0:0:
253,201,139857,1,0,0:0:0:0:
200,230,139948,1,0,0:0:0:0:
142,221,140040,6,0,B|86:179|76:153|76:153|97:147|125:148,1,119.999996337891
360,130,140404,2,0,B|364:131|384:124|384:124|375:99|318:57,1,119.999996337891
90,30,140767,5,0,0:0:0:0:
91,288,140949,1,0,0:0:0:0:
330,199,141131,5,0,0:0:0:0:
11,147,141313,1,0,0:0:0:0:
349,207,141858,6,0,L|332:359,1,119.999996337891
239,92,142222,2,0,L|256:244,1,119.999996337891
458,144,142585,1,0,0:0:0:0:
349,81,142767,1,0,0:0:0:0:
162,206,142949,6,0,P|77:188|57:120,1,119.999996337891
326,248,143313,2,0,P|284:289|225:289,1,119.999996337891
252,65,143676,1,0,0:0:0:0:
445,124,143858,1,0,0:0:0:0:
252,211,144040,1,0,0:0:0:0:
326,57,144222,2,0,P|389:32|465:58,1,119.999996337891
443,204,144585,2,0,L|385:248,1,59.9999981689454
281,236,144767,2,0,L|339:280,1,59.9999981689454
433,303,144949,2,0,L|375:347,1,59.9999981689454
271,335,145131,6,0,B|324:374|324:374|267:378|172:354,1,179.999994506836
194,356,145494,1,0,0:0:0:0:
200,183,145676,1,0,0:0:0:0:
60,328,145858,2,0,B|75:351|95:360|95:360|111:312|86:227,1,179.999994506836
77,213,146222,5,0,0:0:0:0:
40,48,146404,1,0,0:0:0:0:
25,206,146585,1,0,0:0:0:0:
91,51,146767,1,0,0:0:0:0:
209,72,146949,1,0,0:0:0:0:
283,167,147131,2,0,P|296:242|281:300,1,119.999996337891
92,207,147494,1,0,0:0:0:0:
210,228,147676,1,0,0:0:0:0:
209,72,147858,1,0,0:0:0:0:
29,140,148040,5,0,0:0:0:0:
155,283,148222,1,0,0:0:0:0:
107,61,148404,1,0,0:0:0:0:
46,231,148585,1,0,0:0:0:0:
220,150,148767,2,0,P|297:183|326:222,1,119.999996337891
450,361,149131,2,0,B|457:370|486:359|486:359|503:319|494:278,1,119.999996337891
274,268,149494,1,0,0:0:0:0:
492,204,149676,1,0,0:0:0:0:
274,116,149858,1,0,0:0:0:0:
492,61,150040,1,0,0:0:0:0:
274,268,150222,5,0,0:0:0:0:
235,9,150404,1,0,0:0:0:0:
84,168,150585,5,0,0:0:0:0:
412,166,150767,1,0,0:0:0:0:
228,351,150949,5,0,0:0:0:0:
195,325,151039,1,0,0:0:0:0:
177,287,151130,1,0,0:0:0:0:
178,245,151221,1,0,0:0:0:0:
203,202,151313,1,0,0:0:0:0:
226,153,151403,1,0,0:0:0:0:
222,100,151494,1,0,0:0:0:0:
193,55,151585,1,0,0:0:0:0:
145,31,151676,5,0,0:0:0:0:
93,216,151858,1,0,0:0:0:0:
298,120,152040,1,0,0:0:0:0:
40,113,152222,2,0,P|126:127|161:155,1,119.999996337891
126,341,152585,1,0,0:0:0:0:
298,120,152767,2,0,P|349:90|409:87,1,119.999996337891
499,259,153131,1,0,0:0:0:0:
252,361,153313,2,0,P|222:309|219:249,1,119.999996337891
288,38,153676,1,0,0:0:0:0:
141,235,153858,5,0,0:0:0:0:
116,36,154040,1,0,0:0:0:0:
36,171,154222,1,0,0:0:0:0:
210,109,154404,1,0,0:0:0:0:
141,235,154585,6,0,P|149:320|175:365,2,119.999996337891
331,198,155131,1,0,0:0:0:0:
210,109,155313,1,0,0:0:0:0:
233,278,155494,1,0,0:0:0:0:
126,103,155676,2,0,P|161:39|227:28,1,119.999996337891
394,79,156040,1,0,0:0:0:0:
210,109,156222,1,0,0:0:0:0:
433,162,156404,6,0,B|475:153|511:123|511:123|510:147|483:190,1,119.999996337891
266,322,156767,2,0,B|258:315|257:291|257:291|293:321|335:330,1,119.999996337891
503,356,157131,1,0,0:0:0:0:
487,105,157313,1,0,0:0:0:0:
416,310,157494,5,0,0:0:0:0:
383,56,157676,1,0,0:0:0:0:
267,300,157858,1,0,0:0:0:0:
253,118,158040,2,0,P|258:60|296:7,1,119.999996337891
488,41,158404,1,0,0:0:0:0:
244,149,158585,5,0,0:0:0:0:
487,148,158767,1,0,0:0:0:0:
268,179,158949,1,0,0:0:0:0:
406,273,159131,2,0,P|356:346|286:364,1,119.999996337891
93,349,159494,1,0,0:0:0:0:
227,117,159676,1,0,0:0:0:0:
250,327,159858,1,0,0:0:0:0:
102,228,160040,2,0,P|82:156|115:95,1,119.999996337891
224,228,160404,6,0,P|244:156|211:95,1,119.999996337891
22,43,160767,1,0,0:0:0:0:
230,22,160949,1,0,0:0:0:0:
164,169,161131,1,0,0:0:0:0:
198,26,161313,1,0,0:0:0:0:
81,128,161494,2,0,P|43:186|29:257,1,119.999996337891
166,372,161858,1,0,0:0:0:0:
114,235,162040,1,0,0:0:0:0:
19,369,162222,1,0,0:0:0:0:
236,312,162404,6,0,P|300:343|361:363,1,119.999996337891
464,300,162767,2,0,L|495:226,1,59.9999981689454
414,222,162949,2,0,L|390:166,1,59.9999981689454
464,144,163131,2,0,L|487:88,1,59.9999981689454
414,27,163313,5,0,0:0:0:0:
384,28,163403,1,0,0:0:0:0:
355,36,163494,1,0,0:0:0:0:
328,50,163585,1,0,0:0:0:0:
306,70,163676,1,0,0:0:0:0:
288,94,163767,1,0,0:0:0:0:
274,123,163858,5,0,0:0:0:0:
254,152,163948,1,0,0:0:0:0:
224,171,164039,1,0,0:0:0:0:
188,176,164130,1,0,0:0:0:0:
154,166,164221,1,0,0:0:0:0:
127,143,164312,1,0,0:0:0:0:
112,111,164404,6,0,P|126:48|146:22,1,59.9999981689454
274,123,164585,2,0,P|283:151|285:181,1,59.9999981689454
284,216,164767,1,0,0:0:0:0:
271,249,164857,1,0,0:0:0:0:
266,285,164948,1,0,0:0:0:0:
267,321,165039,1,0,0:0:0:0:
273,352,165131,1,0,0:0:0:0:
237,349,165221,1,0,0:0:0:0:
202,340,165312,1,0,0:0:0:0:
169,326,165403,1,0,0:0:0:0:
139,306,165494,6,0,P|113:247|118:202,1,59.9999981689454
218,178,165676,2,0,P|209:206|192:231,1,59.9999981689454
113,131,165858,2,0,P|122:102|139:78,1,59.9999981689454
224,192,166040,2,0,P|215:220|198:245,1,59.9999981689454
201,120,166222,1,0,0:0:0:0:
235,110,166312,1,0,0:0:0:0:
271,105,166403,1,0,0:0:0:0:
307,107,166494,1,0,0:0:0:0:
342,114,166585,2,0,P|411:127|436:123,1,59.9999981689454
317,21,166767,6,0,P|304:89|308:114,1,59.9999981689454
339,198,166949,1,0,0:0:0:0:
338,233,167039,1,0,0:0:0:0:
328,268,167130,1,0,0:0:0:0:
310,299,167221,1,0,0:0:0:0:
284,323,167313,2,0,P|218:333|198:326,1,59.9999981689454
154,229,167494,2,0,P|182:218|212:218,1,59.9999981689454
128,326,167676,1,0,0:0:0:0:
96,309,167766,1,0,0:0:0:0:
72,282,167857,5,0,0:0:0:0:
59,249,167948,1,0,0:0:0:0:
59,213,168040,2,0,P|76:146|70:113,1,59.9999981689454
127,34,168222,1,0,0:0:0:0:
127,34,168313,1,0,0:0:0:0:
127,34,168404,2,0,P|164:37|196:52,1,59.9999981689454
232,174,168585,1,0,0:0:0:0:
232,174,168676,1,0,0:0:0:0:
231,173,168767,2,0,P|260:171|289:161,1,59.9999981689454
366,60,168949,5,0,0:0:0:0:
398,45,169039,1,0,0:0:0:0:
434,45,169130,1,0,0:0:0:0:
466,61,169221,1,0,0:0:0:0:
489,89,169312,1,0,0:0:0:0:
497,123,169403,1,0,0:0:0:0:
490,159,169494,1,0,0:0:0:0:
472,190,169584,1,0,0:0:0:0:
447,216,169675,5,0,0:0:0:0:
415,231,169766,1,0,0:0:0:0:
379,235,169857,1,0,0:0:0:0:
343,239,169948,1,0,0:0:0:0:
309,250,170039,1,0,0:0:0:0:
280,271,170130,1,0,0:0:0:0:
256,303,170222,1,0,0:0:0:0:
229,326,170312,1,0,0:0:0:0:
196,340,170403,1,0,0:0:0:0:
160,341,170494,1,0,0:0:0:0:
126,330,170585,1,0,0:0:0:0:
97,308,170676,1,0,0:0:0:0:
78,278,170767,5,0,0:0:0:0:
70,243,170858,1,0,0:0:0:0:
74,208,170949,1,0,0:0:0:0:
91,176,171040,1,0,0:0:0:0:
117,151,171131,1,0,0:0:0:0:
153,137,171222,1,0,0:0:0:0:
188,132,171312,1,0,0:0:0:0:
224,134,171403,1,0,0:0:0:0:
259,144,171494,1,0,0:0:0:0:
292,159,171585,1,0,0:0:0:0:
325,171,171676,2,0,P|357:177|392:164,1,59.9999981689454
315,34,171858,2,0,P|289:49|273:74,1,59.9999981689454
451,73,172040,6,0,P|435:49|409:34,1,59.9999981689454
382,169,172222,2,0,P|398:193|424:208,1,59.9999981689454
438,112,172404,2,0,P|421:87|395:72,1,59.9999981689454
368,207,172586,2,0,P|384:231|410:246,1,59.9999981689454
319,115,172767,5,0,0:0:0:0:
272,126,172857,1,0,0:0:0:0:
234,155,172948,1,0,0:0:0:0:
207,194,173039,1,0,0:0:0:0:
167,222,173131,1,0,0:0:0:0:
114,227,173221,1,0,0:0:0:0:
65,204,173312,1,0,0:0:0:0:
37,159,173403,1,0,0:0:0:0:
36,106,173494,5,0,0:0:0:0:
64,61,173585,1,0,0:0:0:0:
112,37,173676,1,0,0:0:0:0:
165,41,173767,1,0,0:0:0:0:
210,74,173858,2,0,L|229:143,1,59.9999981689454
352,100,174040,2,0,L|333:169,1,59.9999981689454
213,206,174222,2,0,L|228:263,1,59.9999981689454
355,232,174404,2,0,L|339:289,1,59.9999981689454
226,356,174585,5,0,0:0:0:0:
189,294,174676,1,0,0:0:0:0:
117,300,174767,1,0,0:0:0:0:
86,234,174858,1,0,0:0:0:0:
14,229,174949,1,0,0:0:0:0:
256,192,175313,12,0,181131,0:0:0:0:
