osu file format v14

[General]
AudioFilename: audio.mp3
AudioLeadIn: 0
PreviewTime: 88022
Countdown: 0
SampleSet: Soft
StackLeniency: 0.4
Mode: 0
LetterboxInBreaks: 0
EpilepsyWarning: 1
WidescreenStoryboard: 1

[Editor]
Bookmarks: 55976
DistanceSpacing: 1.8
BeatDivisor: 4
GridSize: 32
TimelineZoom: 1.7

[Metadata]
Title:FREE
TitleUnicode:FREE
Artist:POLKADOT STINGRAY
ArtistUnicode:ポルカドットスティングレイ
Creator:Plaudible
Version:Normal
Source:
Tags:alternative japanese pop rock flake lokidoki 何者 Nanimono Nani mono What 3rd third full album j-pop jpop jrock j-rock
BeatmapID:2906036
BeatmapSetID:1261605

[Difficulty]
HPDrainRate:3.5
CircleSize:2.5
OverallDifficulty:4
ApproachRate:5
SliderMultiplier:1.2
SliderTickRate:1

[Events]
//Background and Video events
0,0,"bg.jpg",0,0
//Break Periods
2,58903,71594
2,103448,112503
//Storyboard Layer 0 (Background)
//Storyboard Layer 1 (Fail)
//Storyboard Layer 2 (Pass)
//Storyboard Layer 3 (Foreground)
Sprite,Foreground,Centre,"sb/sbar.png",0,0 V,0,15181,,1,10 F,2,14981,15381,0,0.25 C,0,15181,,136,207,239 F,0,29612,,0.25,0 P,0,15181,29812,A M,0,15522,15578,320,240,468.746,354.3572 M,0,15578,15635,468.746,354.3572,465.4921,339.7144 M,0,15635,15692,465.4921,339.7144,462.2381,325.0716 M,0,15692,15749,462.2381,325.0716,458.9842,310.4288 M,1,15749,15976,458.9842,310.4288,408,215 M,1,15976,16431,408,215,208,130 M,1,16431,16885,208,130,187,343 M,0,16885,16941,187,343,173.3212,349.1555 M,0,16941,16998,173.3212,349.1555,159.6424,355.3109 M,0,16998,17055,159.6424,355.3109,145.8899,360.7563 M,0,17055,17112,145.8899,360.7563,131.2387,357.5402 M,0,17112,17169,131.2387,357.5402,116.5875,354.3241 M,0,17169,17225,116.5875,354.3241,101.9364,351.108 M,0,17225,17282,101.9364,351.108,87.2852,347.8919 M,0,17282,17339,87.2852,347.8919,72.63403,344.6758 M,0,17339,17396,72.63403,344.6758,87.2852,347.8919 M,0,17396,17453,87.2852,347.8919,101.9364,351.108 M,0,17453,17509,101.9364,351.108,116.5875,354.3241 M,0,17509,17566,116.5875,354.3241,131.2387,357.5402 M,0,17566,17623,131.2387,357.5402,145.8899,360.7563 M,0,17623,17680,145.8899,360.7563,159.6424,355.3109 M,0,17680,17737,159.6424,355.3109,173.3212,349.1555 M,0,17737,17794,173.3212,349.1555,187,343 M,1,17794,18022,187,343,265,268 M,1,18022,18249,265,268,200,181 M,0,18249,18305,200,181,199.251,166.0579 M,0,18305,18362,199.251,166.0579,200.2527,151.1502 M,0,18362,18419,200.2527,151.1502,203.3533,136.5121 M,0,18419,18476,203.3533,136.5121,208.8962,122.6197 M,1,18476,18703,208.8962,122.6197,306,167 M,0,18703,18759,306,167,320.878,168.548 M,0,18759,18816,320.878,168.548,335.8117,168.2688 M,0,18816,18873,335.8117,168.2688,350.5629,165.7961 M,0,18873,18930,350.5629,165.7961,364.656,160.7951 M,0,18930,18987,364.656,160.7951,377.9376,153.9817 M,0,18987,19043,377.9376,153.9817,390.0849,145.2851 M,1,19043,19158,390.0849,145.2851,427,105 M,0,19158,19214,427,105,441.7718,107.6068 M,0,19214,19271,441.7718,107.6068,456.5435,110.2136 M,0,19271,19328,456.5435,110.2136,471.3152,112.8203 M,0,19328,19385,471.3152,112.8203,486.087,115.4271 M,1,19385,19612,486.087,115.4271,552,199 M,1,19612,20067,552,199,344,261 M,1,20067,20522,344,261,495,415 M,0,20522,20578,495,415,509.5521,418.638 M,0,20578,20635,509.5521,418.638,524.1042,422.2761 M,0,20635,20692,524.1042,422.2761,538.6564,425.9141 M,0,20692,20749,538.6564,425.9141,551.63,420.9791 M,0,20749,20806,551.63,420.9791,563.9319,412.3964 M,0,20806,20862,563.9319,412.3964,576.2338,403.8136 M,0,20862,20919,576.2338,403.8136,563.9319,412.3964 M,0,20919,20976,563.9319,412.3964,551.63,420.9791 M,0,20976,21033,551.63,420.9791,538.6564,425.9141 M,0,21033,21090,538.6564,425.9141,524.1042,422.2761 M,0,21090,21146,524.1042,422.2761,509.5521,418.638 M,0,21146,21203,509.5521,418.638,495,415 M,1,21203,21431,495,415,406,351 M,0,21431,21487,406,351,391.2685,353.8252 M,0,21487,21544,391.2685,353.8252,376.5369,356.6505 M,0,21544,21601,376.5369,356.6505,361.8054,359.4757 M,0,21601,21658,361.8054,359.4757,347.0739,362.3009 M,1,21658,21885,347.0739,362.3009,241,384 M,1,21885,22340,241,384,76,253 M,0,22340,22396,76,253,74.45203,238.122 M,0,22396,22453,74.45203,238.122,74.73122,223.1883 M,0,22453,22510,74.73122,223.1883,77.2039,208.4371 M,0,22510,22567,77.2039,208.4371,82.2049,194.344 M,0,22567,22624,82.2049,194.344,89.01828,181.0625 M,0,22624,22680,89.01828,181.0625,97.71484,168.9151 M,1,22680,22795,97.71484,168.9151,137,131 M,0,22795,22851,137,131,151.6342,134.2927 M,0,22851,22908,151.6342,134.2927,166.2683,137.5854 M,0,22908,22965,166.2683,137.5854,180.9024,140.8781 M,0,22965,23022,180.9024,140.8781,195.5366,144.1707 M,1,23022,23249,195.5366,144.1707,299,115 M,1,23249,23704,299,115,341,328 M,1,23704,24158,341,328,475,147 M,0,24158,24214,475,147,481.1555,160.6788 M,0,24214,24271,481.1555,160.6788,487.3109,174.3576 M,0,24271,24328,487.3109,174.3576,492.7563,188.1101 M,0,24328,24385,492.7563,188.1101,489.5402,202.7613 M,0,24385,24442,489.5402,202.7613,486.3241,217.4125 M,0,24442,24498,486.3241,217.4125,483.108,232.0636 M,0,24498,24555,483.108,232.0636,479.8919,246.7148 M,0,24555,24612,479.8919,246.7148,476.6758,261.366 M,0,24612,24669,476.6758,261.366,479.8919,246.7148 M,0,24669,24726,479.8919,246.7148,483.108,232.0636 M,0,24726,24782,483.108,232.0636,486.3241,217.4125 M,0,24782,24839,486.3241,217.4125,489.5402,202.7613 M,0,24839,24896,489.5402,202.7613,492.7563,188.1101 M,0,24896,24953,492.7563,188.1101,487.3109,174.3576 M,0,24953,25010,487.3109,174.3576,481.1555,160.6788 M,0,25010,25067,481.1555,160.6788,475,147 M,1,25067,25295,475,147,373,107 M,1,25295,25522,373,107,329,205 M,0,25522,25578,329,205,314.0579,205.749 M,0,25578,25635,314.0579,205.749,299.1502,204.7473 M,0,25635,25692,299.1502,204.7473,284.5121,201.6467 M,0,25692,25749,284.5121,201.6467,270.6198,196.1038 M,1,25749,25976,270.6198,196.1038,196,117 M,0,25976,26032,196,117,181.122,115.452 M,0,26032,26089,181.122,115.452,166.1883,115.7312 M,0,26089,26146,166.1883,115.7312,151.4371,118.2039 M,0,26146,26203,151.4371,118.2039,137.344,123.2049 M,0,26203,26260,137.344,123.2049,124.0625,130.0183 M,0,26260,26316,124.0625,130.0183,111.9151,138.7148 M,1,26316,26431,111.9151,138.7148,80,183 M,0,26431,26487,80,183,83.50758,197.5841 M,0,26487,26544,83.50758,197.5841,87.01515,212.1683 M,0,26544,26601,87.01515,212.1683,90.52273,226.7524 M,0,26601,26658,90.52273,226.7524,94.0303,241.3365 M,1,26658,26885,94.0303,241.3365,122,345 M,1,26885,27340,122,345,332,393 M,1,27340,27794,332,393,362,178 M,0,27794,27850,362,178,376.5521,174.362 M,0,27850,27907,376.5521,174.362,391.1043,170.7239 M,0,27907,27964,391.1043,170.7239,405.6564,167.0859 M,0,27964,28021,405.6564,167.0859,418.63,172.0209 M,0,28021,28078,418.63,172.0209,430.9319,180.6036 M,0,28078,28134,430.9319,180.6036,443.2338,189.1864 M,0,28134,28191,443.2338,189.1864,430.9319,180.6036 M,0,28191,28248,430.9319,180.6036,418.63,172.0209 M,0,28248,28305,418.63,172.0209,405.6564,167.0859 M,0,28305,28362,405.6564,167.0859,391.1043,170.7239 M,0,28362,28418,391.1043,170.7239,376.5521,174.362 M,0,28418,28475,376.5521,174.362,362,178 M,1,28475,28703,362,178,390,282 M,0,28703,28759,390,282,404.9415,280.6761 M,0,28759,28816,404.9415,280.6761,419.8829,279.3521 M,0,28816,28873,419.8829,279.3521,434.8244,278.0282 M,0,28873,28930,434.8244,278.0282,449.7658,276.7043 M,0,28930,28987,449.7658,276.7043,434.8244,278.0282 M,0,28987,29043,434.8244,278.0282,419.8829,279.3521 M,0,29043,29100,419.8829,279.3521,404.9415,280.6761 M,0,29100,29157,404.9415,280.6761,390,282
Sprite,Foreground,Centre,"sb/sbar.png",0,0 V,0,128703,,1,10 F,2,128503,128903,0,0.25 C,0,128703,,136,207,239 F,0,170521,,0.25,0 P,0,128703,170721,A M,0,128703,128759,320,240,295.088,368.812 M,0,128759,128816,295.088,368.812,308.1669,358.7921 M,0,128816,128873,308.1669,358.7921,322.8189,351.26 M,0,128873,128930,322.8189,351.26,338.5763,346.4555 M,0,128930,128987,338.5763,346.4555,354.936,344.5317 M,0,128987,129043,354.936,344.5317,371.3805,345.5302 M,1,129043,129157,371.3805,345.5302,426,356 M,0,129157,129213,426,356,414.0687,344.6757 M,0,129213,129270,414.0687,344.6757,404.041,331.6821 M,0,129270,129327,404.041,331.6821,396.4519,317.1288 M,0,129327,129384,396.4519,317.1288,391.5377,301.4685 M,0,129384,129441,391.5377,301.4685,389.451,285.1884 M,0,129441,129497,389.451,285.1884,389.9244,268.7459 M,1,129497,129612,389.9244,268.7459,408,214 M,1,129612,129839,408,214,308,162 M,1,129839,130066,308,162,233,245 M,0,130066,130122,233,245,216.5861,243.3165 M,0,130122,130179,216.5861,243.3165,200.1722,241.633 M,0,130179,130236,200.1722,241.633,183.7583,239.9496 M,0,130236,130293,183.7583,239.9496,167.3444,238.2661 M,0,130293,130350,167.3444,238.2661,183.7583,239.9496 M,0,130350,130406,183.7583,239.9496,200.1722,241.633 M,0,130406,130463,200.1722,241.633,216.5861,243.3165 M,0,130463,130520,216.5861,243.3165,233,245 M,1,130520,130976,233,245,427,358 M,1,130976,131430,427,358,469,137 M,0,131430,131486,469,137,473.8154,121.2497 M,0,131486,131543,473.8154,121.2497,476.7074,105.058 M,0,131543,131600,476.7074,105.058,477.3578,88.62295 M,0,131600,131657,477.3578,88.62295,476.0278,72.20694 M,0,131657,131714,476.0278,72.20694,477.3578,88.62294 M,0,131714,131770,477.3578,88.62294,476.7074,105.058 M,0,131770,131827,476.7074,105.058,473.8154,121.2497 M,0,131827,131884,473.8154,121.2497,469,137 M,1,131884,132112,469,137,366,91 M,1,132112,132339,366,91,269,148 M,0,132339,132395,269,148,270.5166,164.4301 M,0,132395,132452,270.5166,164.4301,272.0333,180.8603 M,0,132452,132509,272.0333,180.8603,273.5499,197.2905 M,0,132509,132566,273.5499,197.2905,275,213 M,1,132566,132793,275,213,358,289 M,0,132793,132849,358,289,356.2855,305.4107 M,0,132849,132906,356.2855,305.4107,354.5709,321.8214 M,0,132906,132963,354.5709,321.8214,352.8564,338.232 M,0,132963,133020,352.8564,338.232,351.1418,354.6427 M,0,133020,133077,351.1418,354.6427,355.2912,369.0331 M,0,133077,133133,355.2912,369.0331,353.8409,385.4692 M,0,133133,133190,353.8409,385.4692,352.3907,401.9053 M,0,133190,133247,352.3907,401.9053,350.9405,418.3415 M,1,133247,133703,350.9405,418.3415,528,279 M,0,133703,133759,528,279,525.6334,262.6706 M,0,133759,133816,525.6334,262.6706,523.2668,246.3412 M,0,133816,133873,523.2668,246.3412,520.9003,230.0118 M,0,133873,133930,520.9003,230.0118,518.5337,213.6824 M,1,133930,134157,518.5337,213.6824,464,115 M,0,134157,134213,464,115,447.7639,112.3343 M,0,134213,134270,447.7639,112.3343,431.3475,111.9952 M,0,134270,134327,431.3475,111.9952,415.0954,114.3487 M,0,134327,134384,415.0954,114.3487,399.4453,119.3322 M,1,134384,134612,399.4453,119.3322,341,216 M,0,134612,134668,341,216,325.3413,221.08 M,0,134668,134725,325.3413,221.08,309.1815,224.072 M,0,134725,134782,309.1815,224.072,292.7551,224.6069 M,0,134782,134839,292.7551,224.6069,276.4333,222.6726 M,0,134839,134896,276.4333,222.6726,260.5848,218.3124 M,0,134896,134952,260.5848,218.3124,245.568,211.6244 M,1,134952,135066,245.568,211.6244,200,177 M,0,135066,135122,200,177,197.5055,193.3103 M,0,135122,135179,197.5055,193.3103,195.011,209.6207 M,0,135179,135236,195.011,209.6207,192.5164,225.931 M,0,135236,135293,192.5164,225.931,190.0219,242.2414 M,1,135293,135521,190.0219,242.2414,173,353 M,1,135521,135975,173,353,390,408 M,0,135975,136031,390,408,402.928,397.7651 M,0,136031,136088,402.928,397.7651,416.9719,389.1274 M,0,136088,136145,416.9719,389.1274,431.9351,382.2073 M,0,136145,136202,431.9351,382.2073,447.6088,377.1011 M,0,136202,136259,447.6088,377.1011,463.7741,373.8797 M,0,136259,136315,463.7741,373.8797,480.205,372.5878 M,1,136315,136430,480.205,372.5878,536,372 M,0,136430,136486,536,372,519.5992,370.4068 M,0,136486,136543,519.5992,370.4068,503.4607,367.1594 M,0,136543,136600,503.4607,367.1594,487.8093,362.0572 M,0,136600,136657,487.8093,362.0572,472.8575,355.1693 M,0,136657,136714,472.8575,355.1693,458.8081,346.5892 M,0,136714,136770,458.8081,346.5892,445.7067,336.5956 M,1,136770,136884,445.7067,336.5956,407,295 M,1,136884,137111,407,295,302,254 M,1,137111,137339,302,254,341,149 M,0,137339,137395,341,149,339.0145,132.6199 M,0,137395,137452,339.0145,132.6199,337.0291,116.2398 M,0,137452,137509,337.0291,116.2398,335.0436,99.85968 M,0,137509,137566,335.0436,99.85968,333.0581,83.47957 M,0,137566,137623,333.0581,83.47957,335.0436,99.85967 M,0,137623,137679,335.0436,99.85967,337.0291,116.2398 M,0,137679,137736,337.0291,116.2398,339.0145,132.6199 M,0,137736,137793,339.0145,132.6199,341,149 M,1,137793,138248,341,149,342,373 M,1,138248,138702,342,373,127,282 M,0,138702,138758,127,282,110.6879,279.6594 M,0,138758,138815,110.6879,279.6594,94.21595,280.1002 M,0,138815,138872,94.21595,280.1002,78.055,283.3095 M,0,138872,138929,78.055,283.3095,63,289 M,0,138929,138986,63,289,78.055,283.3095 M,0,138986,139042,78.055,283.3095,94.21594,280.1002 M,0,139042,139099,94.21594,280.1002,110.6879,279.6594 M,0,139099,139156,110.6879,279.6594,127,282 M,1,139156,139384,127,282,189,188 M,1,139384,139612,189,188,261,101 M,0,139612,139668,261,101,276.2511,94.76805 M,0,139668,139725,276.2511,94.76805,292.3598,91.32972 M,0,139725,139782,292.3598,91.32972,308.8191,90.79197 M,0,139782,139839,308.8191,90.79197,325.1243,93.12898 M,1,139839,140066,325.1243,93.12898,398,178 M,0,140066,140122,398,178,400.6182,194.291 M,0,140122,140179,400.6182,194.291,403.2364,210.5819 M,0,140179,140236,403.2364,210.5819,405.8546,226.8728 M,0,140236,140293,405.8546,226.8728,408.4727,243.1638 M,0,140293,140350,408.4727,243.1638,411.0909,259.4548 M,0,140350,140406,411.0909,259.4548,413.7091,275.7457 M,1,140406,140521,413.7091,275.7457,423,331 M,0,140521,140577,423,331,439.3762,332.6601 M,0,140577,140634,439.3762,332.6601,455.7971,332.0837 M,0,140634,140691,455.7971,332.0837,471.9284,328.9595 M,0,140691,140748,471.9284,328.9595,487.3776,323.3633 M,1,140748,140975,487.3776,323.3633,538,224 M,1,140975,141430,538,224,352,98 M,0,141430,141486,352,98,335.6009,99.82212 M,0,141486,141543,335.6009,99.82212,319.2018,101.6442 M,0,141543,141600,319.2018,101.6442,302.8028,103.4664 M,0,141600,141657,302.8028,103.4664,286.4037,105.2885 M,1,141657,141884,286.4037,105.2885,203,180 M,0,141884,141940,203,180,197.7781,195.5827 M,0,141940,141997,197.7781,195.5827,195.382,211.7931 M,0,141997,142054,195.382,211.7931,196.2891,228.1545 M,0,142054,142111,196.2891,228.1545,200.4625,244.0008 M,0,142111,142168,200.4625,244.0008,207.7323,258.6866 M,0,142168,142224,207.7323,258.6866,217.8024,271.6142 M,1,142224,142339,217.8024,271.6142,265,302 M,1,142339,142566,265,302,185,380 M,0,142566,142622,185,380,168.6747,377.6056 M,0,142622,142679,168.6747,377.6056,152.3493,375.2112 M,0,142679,142736,152.3493,375.2112,136.024,372.8168 M,0,142736,142793,136.024,372.8168,119.6986,370.4225 M,0,142793,142850,119.6986,370.4225,136.024,372.8168 M,0,142850,142906,136.024,372.8168,152.3493,375.2112 M,0,142906,142963,152.3493,375.2112,168.6747,377.6056 M,0,142963,143020,168.6747,377.6056,185,380 M,1,143020,143248,185,380,292,409 M,0,143248,143304,292,409,308.3278,406.6222 M,0,143304,143361,308.3278,406.6222,324.6555,404.2444 M,0,143361,143418,324.6555,404.2444,340.9833,401.8665 M,0,143418,143475,340.9833,401.8665,357.3111,399.4887 M,0,143475,143532,357.3111,399.4887,373.6388,397.1108 M,0,143532,143588,373.6388,397.1108,389.9666,394.733 M,1,143588,143703,389.9666,394.733,442,415 M,0,143703,143759,442,415,449.4482,400.3153 M,0,143759,143816,449.4482,400.3153,454.9991,384.8402 M,0,143816,143873,454.9991,384.8402,458.2744,368.7288 M,0,143873,143930,458.2744,368.7288,459.2061,352.3136 M,0,143930,143987,459.2061,352.3136,457.775,335.9336 M,0,143987,144043,457.775,335.9336,454.0103,319.9269 M,1,144043,144157,454.0103,319.9269,480,269 M,1,144157,144384,480,269,411,180 M,1,144384,144612,411,180,467,82 M,0,144612,144668,467,82,451.4491,76.50356 M,0,144668,144725,451.4491,76.50356,435.4527,72.48522 M,0,144725,144782,435.4527,72.48522,419.151,69.98014 M,0,144782,144839,419.151,69.98014,403,69 M,0,144839,144896,403,69,419.151,69.98013 M,0,144896,144952,419.151,69.98013,435.4527,72.48522 M,0,144952,145009,435.4527,72.48522,451.4491,76.50356 M,0,145009,145066,451.4491,76.50356,467,82 M,1,145066,145521,467,82,573,279 M,1,145521,145975,573,279,348,235 M,0,145975,146031,348,235,344.4795,251.1201 M,0,146031,146088,344.4795,251.1201,340.959,267.2401 M,0,146088,146145,340.959,267.2401,337.4386,283.3602 M,0,146145,146202,337.4386,283.3602,333.9181,299.4802 M,0,146202,146259,333.9181,299.4802,337.4386,283.3602 M,0,146259,146315,337.4386,283.3602,340.959,267.2401 M,0,146315,146372,340.959,267.2401,344.4795,251.1201 M,0,146372,146429,344.4795,251.1201,348,235 M,1,146429,146657,348,235,457,207 M,1,146657,146884,457,207,376,128 M,0,146884,146940,376,128,359.8856,124.8329 M,0,146940,146997,359.8856,124.8329,343.5197,124.6891 M,0,146997,147054,343.5197,124.6891,327.4942,128.022 M,0,147054,147111,327.4942,128.022,312.5384,134.6811 M,1,147111,147339,312.5384,134.6811,231,213 M,0,147339,147395,231,213,214.7233,210.3964 M,0,147395,147452,214.7233,210.3964,199.0847,205.1973 M,0,147452,147509,199.0847,205.1973,184.5589,197.4138 M,0,147509,147566,184.5589,197.4138,171.5119,187.3415 M,0,147566,147623,171.5119,187.3415,157.2078,190.6159 M,0,147623,147679,157.2078,190.6159,141.6249,196.0038 M,0,147679,147736,141.6249,196.0038,125.4529,199.2059 M,0,147736,147793,125.4529,199.2059,108.9883,200.0266 M,1,147793,148248,108.9883,200.0266,94,424 M,0,148248,148304,94,424,110.2431,421.0995 M,0,148304,148361,110.2431,421.0995,126.4861,418.1989 M,0,148361,148418,126.4861,418.1989,142.7292,415.2984 M,0,148418,148475,142.7292,415.2984,158.9722,412.3978 M,1,148475,148703,158.9722,412.3978,236,330 M,0,148703,148759,236,330,252.4372,331.4383 M,0,148759,148816,252.4372,331.4383,268.8744,332.8765 M,0,148816,148873,268.8744,332.8765,285.3116,334.3148 M,0,148873,148930,285.3116,334.3148,301.7488,335.753 M,1,148930,149157,301.7488,335.753,402,384 M,0,149157,149213,402,384,404.6182,367.709 M,0,149213,149270,404.6182,367.709,407.2364,351.4181 M,0,149270,149327,407.2364,351.4181,409.8546,335.1271 M,0,149327,149384,409.8546,335.1271,412.4727,318.8362 M,0,149384,149441,412.4727,318.8362,415.0909,302.5452 M,0,149441,149497,415.0909,302.5452,417.7091,286.2543 M,1,149497,149612,417.7091,286.2543,424,229 M,0,149612,149668,424,229,440.3762,230.6601 M,0,149668,149725,440.3762,230.6601,456.7971,230.0837 M,0,149725,149782,456.7971,230.0837,472.9284,226.9595 M,0,149782,149839,472.9284,226.9595,488.3776,221.3633 M,0,149839,149896,488.3776,221.3633,472.9284,226.9595 M,0,149896,149952,472.9284,226.9595,456.7971,230.0837 M,0,149952,150009,456.7971,230.0837,440.3762,230.6601 M,0,150009,150066,440.3762,230.6601,424,229 M,1,150066,150521,424,229,238,103 M,0,150521,150577,238,103,233.4699,118.8129 M,0,150577,150634,233.4699,118.8129,231.411,135.095 M,0,150634,150691,231.411,135.095,232.2359,151.4864 M,0,150691,150748,232.2359,151.4864,235.9192,167.4805 M,0,150748,150805,235.9192,167.4805,242.3473,182.5829 M,0,150805,150861,242.3473,182.5829,251.3218,196.3267 M,1,150861,150975,251.3218,196.3267,303,220 M,0,150975,151031,303,220,313.3696,232.7733 M,0,151031,151088,313.3696,232.7733,321.6853,246.9296 M,0,151088,151145,321.6853,246.9296,327.4491,262.3026 M,0,151145,151202,327.4491,262.3026,330.49,278.4365 M,0,151202,151259,330.49,278.4365,330.7179,294.8528 M,0,151259,151315,330.7179,294.8528,328.1259,311.065 M,1,151315,151430,328.1259,311.065,303,361 M,1,151430,151657,303,361,412,384 M,1,151657,151884,412,384,487,301 M,0,151884,151940,487,301,484.8576,284.6397 M,0,151940,151997,484.8576,284.6397,482.7151,268.2794 M,0,151997,152054,482.7151,268.2794,480.5727,251.9191 M,0,152054,152111,480.5727,251.9191,478.4303,235.5587 M,0,152111,152168,478.4303,235.5587,480.5727,251.919 M,0,152168,152224,480.5727,251.919,482.7151,268.2794 M,0,152224,152281,482.7151,268.2794,484.8576,284.6397 M,0,152281,152338,484.8576,284.6397,487,301 M,1,152338,152794,487,301,377,104 M,1,152794,153248,377,104,209,258 M,0,153248,153304,209,258,223.1624,266.4119 M,0,153304,153361,223.1624,266.4119,238.1121,273.2829 M,0,153361,153418,238.1121,273.2829,253.7956,278.2675 M,0,153418,153475,253.7956,278.2675,269.9671,281.4164 M,0,153475,153532,269.9671,281.4164,253.7956,278.2675 M,0,153532,153588,253.7956,278.2675,238.1121,273.2829 M,0,153588,153645,238.1121,273.2829,223.1624,266.4119 M,0,153645,153702,223.1624,266.4119,209,258 M,1,153702,153930,209,258,99,220 M,1,153930,154157,99,220,180,151 M,0,154157,154213,180,151,196.1144,147.8329 M,0,154213,154270,196.1144,147.8329,212.4803,147.6891 M,0,154270,154327,212.4803,147.6891,228.5058,151.022 M,0,154327,154384,228.5058,151.022,243.4616,157.6811 M,1,154384,154612,243.4616,157.6811,331,227 M,0,154612,154668,331,227,326.2958,242.8138 M,0,154668,154725,326.2958,242.8138,322.2123,258.7988 M,0,154725,154782,322.2123,258.7988,318.7556,274.9307 M,0,154782,154839,318.7556,274.9307,315.9308,291.1848 M,0,154839,154896,315.9308,291.1848,313.7425,307.5366 M,0,154896,154952,313.7425,307.5366,312.1937,323.961 M,0,154952,155009,312.1937,323.961,311.2868,340.4331 M,0,155009,155066,311.2868,340.4331,310.9861,356.9283 M,1,155066,155521,310.9861,356.9283,533,322 M,0,155521,155577,533,322,531.0117,305.6421 M,0,155577,155634,531.0117,305.6421,527.4819,289.562 M,0,155634,155691,527.4819,289.562,522.1973,273.9687 M,0,155691,155748,522.1973,273.9687,515.2219,259.0523 M,1,155748,155975,515.2219,259.0523,422,196 M,0,155975,156031,422,196,423.9883,179.6421 M,0,156031,156088,423.9883,179.6421,427.5181,163.562 M,0,156088,156145,427.5181,163.562,432.8027,147.9687 M,0,156145,156202,432.8027,147.9687,439.7781,133.0523 M,1,156202,156430,439.7781,133.0523,550,112 M,0,156430,156486,550,112,533.6705,114.2706 M,0,156486,156543,533.6705,114.2706,517.1874,114.4496 M,0,156543,156600,517.1874,114.4496,500.8173,112.5348 M,0,156600,156657,500.8173,112.5348,484.8251,108.5576 M,0,156657,156714,484.8251,108.5576,469.4694,102.5831 M,0,156714,156770,469.4694,102.5831,454.9982,94.70835 M,0,156770,156827,454.9982,94.70835,441.6456,85.06117 M,0,156827,156884,441.6456,85.06117,429.5608,73.8557 M,1,156884,157112,429.5608,73.8557,329,124 M,1,157112,157339,329,124,226,170 M,0,157339,157395,226,170,209.6747,167.6056 M,0,157395,157452,209.6747,167.6056,193.3493,165.2112 M,0,157452,157509,193.3493,165.2112,177.024,162.8168 M,0,157509,157566,177.024,162.8168,160.6986,160.4225 M,1,157566,157793,160.6986,160.4225,320,248 M,1,160521,161430,320,248,309,76 M,0,161430,161486,309,76,323.878,74.45203 M,0,161486,161543,323.878,74.45203,338.8117,74.73122 M,0,161543,161600,338.8117,74.73122,353.5629,77.20391 M,0,161600,161657,353.5629,77.20391,367.656,82.20491 M,0,161657,161714,367.656,82.20491,380.9376,89.01829 M,0,161714,161770,380.9376,89.01829,393.0849,97.71486 M,1,161770,161885,393.0849,97.71486,424,143 M,0,161885,161941,424,143,420.746,157.6428 M,0,161941,161998,420.746,157.6428,417.4921,172.2856 M,0,161998,162055,417.4921,172.2856,414.2381,186.9284 M,0,162055,162112,414.2381,186.9284,410.9842,201.5712 M,1,162112,162339,410.9842,201.5712,395,308 M,1,162339,162794,395,308,192,382 M,1,162794,163248,192,382,132,174 M,0,163248,163304,132,174,128.362,159.4479 M,0,163304,163361,128.362,159.4479,124.7239,144.8957 M,0,163361,163418,124.7239,144.8957,121.0859,130.3436 M,0,163418,163475,121.0859,130.3436,126.0209,117.37 M,0,163475,163532,126.0209,117.37,134.6036,105.0681 M,0,163532,163588,134.6036,105.0681,143.1864,92.76622 M,0,163588,163645,143.1864,92.76622,134.6036,105.0681 M,0,163645,163702,134.6036,105.0681,126.0209,117.37 M,0,163702,163759,126.0209,117.37,121.0859,130.3436 M,0,163759,163816,121.0859,130.3436,124.7239,144.8957 M,0,163816,163872,124.7239,144.8957,128.362,159.4479 M,0,163872,163929,128.362,159.4479,132,174 M,1,163929,164157,132,174,222,233 M,0,164157,164213,222,233,236.8842,231.1395 M,0,164213,164270,236.8842,231.1395,251.7683,229.279 M,0,164270,164327,251.7683,229.279,266.6525,227.4184 M,0,164327,164384,266.6525,227.4184,281.5367,225.5579 M,1,164384,164612,281.5367,225.5579,374,169 M,1,164612,165066,374,169,554,285 M,0,165066,165122,554,285,555.548,299.878 M,0,165122,165179,555.548,299.878,555.2688,314.8117 M,0,165179,165236,555.2688,314.8117,552.7961,329.5629 M,0,165236,165293,552.7961,329.5629,547.7951,343.656 M,0,165293,165350,547.7951,343.656,540.9817,356.9376 M,0,165350,165406,540.9817,356.9376,532.2852,369.0849 M,1,165406,165521,532.2852,369.0849,495,409 M,0,165521,165577,495,409,480.3658,405.7073 M,0,165577,165634,480.3658,405.7073,465.7317,402.4146 M,0,165634,165691,465.7317,402.4146,451.0976,399.1219 M,0,165691,165748,451.0976,399.1219,436.4634,395.8293 M,1,165748,165975,436.4634,395.8293,332,366 M,1,165975,166430,332,366,317,150 M,1,166430,166884,317,150,522,208 M,0,166884,166940,522,208,530.4829,195.6291 M,0,166940,166997,530.4829,195.6291,538.9658,183.2581 M,0,166997,167054,538.9658,183.2581,545.5245,170.4827 M,0,167054,167111,545.5245,170.4827,542.7404,155.7433 M,0,167111,167168,542.7404,155.7433,539.9563,141.004 M,0,167168,167224,539.9563,141.004,537.1722,126.2646 M,0,167224,167281,537.1722,126.2646,534.3881,111.5253 M,0,167281,167338,534.3881,111.5253,531.604,96.7859 M,0,167338,167395,531.604,96.7859,534.3881,111.5253 M,0,167395,167452,534.3881,111.5253,537.1722,126.2646 M,0,167452,167508,537.1722,126.2646,539.9563,141.004 M,0,167508,167565,539.9563,141.004,542.7404,155.7433 M,0,167565,167622,542.7404,155.7433,545.5245,170.4827 M,0,167622,167679,545.5245,170.4827,538.9658,183.2581 M,0,167679,167736,538.9658,183.2581,530.4829,195.6291 M,0,167736,167793,530.4829,195.6291,522,208 M,1,167793,168021,522,208,442,281 M,1,168021,168248,442,281,342,239 M,0,168248,168304,342,239,327.1957,236.8279 M,0,168304,168361,327.1957,236.8279,312.2607,236.5035 M,0,168361,168418,312.2607,236.5035,297.4303,238.3607 M,0,168418,168475,297.4303,238.3607,283.0178,242.3634 M,1,168475,168703,283.0178,242.3634,231,337 M,0,168703,168759,231,337,245.7843,339.5345 M,0,168759,168816,245.7843,339.5345,260.5687,342.0689 M,0,168816,168873,260.5687,342.0689,275.353,344.6034 M,0,168873,168930,275.353,344.6034,290.1373,347.1378 M,0,168930,168987,290.1373,347.1378,304.9217,349.6723 M,0,168987,169043,304.9217,349.6723,319.706,352.2068 M,1,169043,169157,319.706,352.2068,350,397 M,0,169157,169213,350,397,364.7087,394.0583 M,0,169213,169270,364.7087,394.0583,379.4174,391.1165 M,0,169270,169327,379.4174,391.1165,394.1261,388.1748 M,0,169327,169384,394.1261,388.1748,408.8348,385.233 M,1,169384,169612,408.8348,385.233,503,332 M,1,169612,170066,503,332,407,138 M,0,170066,170122,407,138,392.1412,136.3877 M,0,170122,170179,392.1412,136.3877,377.2337,136.8865 M,0,170179,170236,377.2337,136.8865,362.6025,139.8994 M,0,170236,170293,362.6025,139.8994,348.6591,145.3526
Sprite,Foreground,Centre,"sb/sbar.png",0,0 V,0,88703,,1,10 F,2,88503,88903,0,0.25 C,0,88703,,136,207,239 F,0,103248,,0.25,0 P,0,88703,103448,A M,0,88704,88760,320,240,397.5504,325.4862 M,0,88760,88817,397.5504,325.4862,382.606,318.5612 M,0,88817,88874,382.606,318.5612,366.6593,314.4521 M,0,88874,88931,366.6593,314.4521,350.2359,313.2929 M,0,88931,88988,350.2359,313.2929,333.8766,315.1207 M,0,88988,89044,333.8766,315.1207,318.12,319.8741 M,1,89044,89157,318.12,319.8741,262,319 M,0,89157,89213,262,319,276.8594,311.8882 M,0,89213,89270,276.8594,311.8882,290.195,302.2242 M,0,89270,89327,290.195,302.2242,301.5734,290.3238 M,0,89327,89384,301.5734,290.3238,310.6253,276.5756 M,0,89384,89441,310.6253,276.5756,317.0572,261.4281 M,0,89441,89497,317.0572,261.4281,320.6609,245.375 M,1,89497,89612,320.6609,245.375,341,192 M,1,89612,89839,341,192,254,120 M,1,89839,90066,254,120,153,170 M,0,90066,90122,153,170,145.5131,155.3204 M,0,90122,90179,145.5131,155.3204,140.4358,139.6486 M,0,90179,90236,140.4358,139.6486,137.8937,123.3767 M,0,90236,90293,137.8937,123.3767,137.949,106.9118 M,0,90293,90350,137.949,106.9118,137.8937,123.3767 M,0,90350,90406,137.8937,123.3767,140.4358,139.6486 M,0,90406,90463,140.4358,139.6486,145.5131,155.3204 M,0,90463,90520,145.5131,155.3204,153,170 M,1,90520,90976,153,170,360,82 M,1,90976,91430,360,82,509,248 M,0,91430,91486,509,248,525.4093,246.2727 M,0,91486,91543,525.4093,246.2727,541.8187,244.5454 M,0,91543,91600,541.8187,244.5454,558.228,242.8181 M,0,91600,91657,558.228,242.8181,574.6373,241.0908 M,0,91657,91714,574.6373,241.0908,558.228,242.8181 M,0,91714,91770,558.228,242.8181,541.8187,244.5454 M,0,91770,91827,541.8187,244.5454,525.4093,246.2727 M,0,91827,91884,525.4093,246.2727,509,248 M,1,91884,92111,509,248,413,307 M,1,92111,92339,413,307,312,358 M,0,92339,92395,312,358,298.0247,349.2985 M,0,92395,92452,298.0247,349.2985,286.3714,337.6727 M,0,92452,92509,286.3714,337.6727,277.6389,323.7214 M,0,92509,92566,277.6389,323.7214,272.2756,308.163 M,1,92566,92793,272.2756,308.163,317,204 M,0,92793,92849,317,204,300.5876,202.3022 M,0,92849,92906,300.5876,202.3022,284.1752,200.6043 M,0,92906,92963,284.1752,200.6043,267.7628,198.9065 M,0,92963,93020,267.7628,198.9065,253.562,192.562 M,0,93020,93077,253.562,192.562,237.3706,190.4591 M,0,93077,93133,237.3706,190.4591,220.9502,188.8402 M,0,93133,93190,220.9502,188.8402,204.5298,187.2213 M,0,93190,93247,204.5298,187.2213,188.1094,185.6023 M,1,93247,93703,188.1094,185.6023,124,401 M,0,93703,93759,124,401,127.4572,384.8663 M,0,93759,93816,127.4572,384.8663,130.9145,368.7325 M,0,93816,93873,130.9145,368.7325,134.3717,352.5988 M,0,93873,93930,134.3717,352.5988,137.8289,336.465 M,1,93930,94157,137.8289,336.465,240,289 M,0,94157,94213,240,289,242.7468,305.2698 M,0,94213,94270,242.7468,305.2698,245.4937,321.5395 M,0,94270,94327,245.4937,321.5395,248.2405,337.8093 M,0,94327,94384,248.2405,337.8093,250.9874,354.079 M,1,94384,94612,250.9874,354.079,347,412 M,0,94612,94668,347,412,353.995,397.0561 M,0,94668,94725,353.995,397.0561,360.99,382.1122 M,0,94725,94782,360.99,382.1122,367.985,367.1683 M,0,94782,94839,367.985,367.1683,366.6217,351.0961 M,0,94839,94896,366.6217,351.0961,363.8397,334.8323 M,0,94896,94952,363.8397,334.8323,361.0578,318.5685 M,1,94952,95067,361.0578,318.5685,345,263 M,0,95067,95123,345,263,347.4945,246.6897 M,0,95123,95180,347.4945,246.6897,349.989,230.3793 M,0,95180,95237,349.989,230.3793,352.4836,214.069 M,0,95237,95294,352.4836,214.069,354.9781,197.7586 M,1,95294,95521,354.9781,197.7586,419,106 M,1,95521,95975,419,106,571,269 M,0,95975,96031,571,269,556.7407,277.2634 M,0,96031,96088,556.7407,277.2634,541.3966,283.2669 M,0,96088,96145,541.3966,283.2669,525.3232,286.8727 M,0,96145,96202,525.3232,286.8727,508.8923,287.9984 M,0,96202,96259,508.8923,287.9984,492.4842,286.6192 M,0,96259,96315,492.4842,286.6192,476.4476,282.8478 M,1,96315,96430,476.4476,282.8478,451,231 M,0,96430,96486,451,231,436.6777,222.8441 M,0,96486,96543,436.6777,222.8441,423.7534,212.6208 M,0,96543,96600,423.7534,212.6208,412.523,200.565 M,0,96600,96657,412.523,200.565,403.2433,186.9539 M,0,96657,96714,403.2433,186.9539,396.1266,172.0999 M,0,96714,96770,396.1266,172.0999,391.2752,156.3537 M,1,96770,96884,391.2752,156.3537,403,101 M,1,96884,97111,403,101,296,135 M,1,97111,97339,296,135,206,66 M,0,97339,97395,206,66,189.6246,68.02393 M,0,97395,97452,189.6246,68.02393,173.2492,70.04785 M,0,97452,97509,173.2492,70.04785,156.8738,72.07178 M,0,97509,97566,156.8738,72.07178,140.4984,74.0957 M,0,97566,97623,140.4984,74.0957,156.8738,72.07178 M,0,97623,97679,156.8738,72.07178,173.2492,70.04785 M,0,97679,97736,173.2492,70.04785,189.6246,68.02393 M,0,97736,97793,189.6246,68.02393,206,66 M,1,97793,98248,206,66,381,206 M,1,98248,98703,381,206,209,350 M,0,98703,98759,209,350,207.9316,333.5605 M,0,98759,98816,207.9316,333.5605,209.8212,317.1993 M,0,98816,98873,209.8212,317.1993,214.6062,301.444 M,0,98873,98930,214.6062,301.444,222.0908,286.7725 M,0,98930,98987,222.0908,286.7725,214.6062,301.444 M,0,98987,99043,214.6062,301.444,209.8212,317.1993 M,0,99043,99100,209.8212,317.1993,207.9316,333.5605 M,0,99100,99157,207.9316,333.5605,209,350 M,1,99157,99384,209,350,294,424 M,1,99384,99612,294,424,393,370 M,0,99612,99668,393,370,409.3855,368.0596 M,0,99668,99725,409.3855,368.0596,425.771,366.1192 M,0,99725,99782,425.771,366.1192,442.1565,364.1788 M,0,99782,99839,442.1565,364.1788,458.5421,362.2384 M,1,99839,100066,458.5421,362.2384,569,377 M,0,100066,100122,569,377,560.7329,362.7205 M,0,100122,100179,560.7329,362.7205,552.4658,348.4409 M,0,100179,100236,552.4658,348.4409,547.9192,333.4851 M,0,100236,100293,547.9192,333.4851,550.6317,317.2096 M,0,100293,100350,550.6317,317.2096,553.3444,300.9341 M,0,100350,100406,553.3444,300.9341,556.0569,284.6586 M,0,100406,100463,556.0569,284.6586,558.7695,268.3831 M,0,100463,100520,558.7695,268.3831,561.4821,252.1076 M,1,100520,100975,561.4821,252.1076,392,103 M,0,100975,101031,392,103,375.5936,102.0493 M,0,101031,101088,375.5936,102.0493,359.3105,103.8842 M,0,101088,101145,359.3105,103.8842,343.6978,108.866 M,0,101145,101202,343.6978,108.866,329.1753,116.5587 M,1,101202,101430,329.1753,116.5587,271,213 M,0,101430,101486,271,213,254.5936,213.9507 M,0,101486,101543,254.5936,213.9507,238.3105,212.1158 M,0,101543,101600,238.3105,212.1158,222.6978,207.134 M,0,101600,101657,222.6978,207.134,208.1753,199.4413 M,0,101657,101714,208.1753,199.4413,222.6978,207.134 M,0,101714,101770,222.6978,207.134,238.3105,212.1158 M,0,101770,101827,238.3105,212.1158,254.5936,213.9507 M,0,101827,101884,254.5936,213.9507,271,213 M,1,101884,102339,271,213,491,172 M,0,102339,102395,491,172,488.2874,188.2755 M,0,102395,102452,488.2874,188.2755,485.5748,204.551 M,0,102452,102509,485.5748,204.551,482.8622,220.8265 M,0,102509,102566,482.8622,220.8265,480.1497,237.102 M,1,102566,102793,480.1497,237.102,375,278 M,0,102793,102849,375,278,376.7975,294.4018 M,0,102849,102906,376.7975,294.4018,378.5949,310.8036 M,0,102906,102963,378.5949,310.8036,380.3924,327.2054 M,0,102963,103020,380.3924,327.2054,382.1898,343.6072
Sprite,Foreground,Centre,"sb/sbar.png",0,0 V,0,44158,,1,10 F,2,43958,44358,0,0.25 C,0,44158,,136,207,239 F,0,73249,,0.25,0 P,0,44158,73449,A M,0,44158,44214,320,240,163.4496,294.4862 M,0,44214,44271,163.4496,294.4862,178.394,287.5613 M,0,44271,44328,178.394,287.5613,194.3407,283.4521 M,0,44328,44385,194.3407,283.4521,210.7641,282.2929 M,0,44385,44442,210.7641,282.2929,227.1234,284.1207 M,0,44442,44498,227.1234,284.1207,242.88,288.8741 M,1,44498,44612,242.88,288.8741,279,331 M,0,44612,44668,279,331,294.8149,335.6161 M,0,44668,44725,294.8149,335.6161,311.2062,337.2537 M,0,44725,44782,311.2062,337.2537,327.6178,335.8579 M,0,44782,44839,327.6178,335.8579,343.4931,331.4767 M,0,44839,44896,343.4931,331.4767,358.2941,324.2595 M,0,44896,44952,358.2941,324.2595,371,315 M,1,44952,45067,371,315,415,277 M,1,45067,45294,415,277,516,323 M,1,45294,45522,516,323,502,211 M,0,45522,45578,502,211,500.2727,194.5907 M,0,45578,45635,500.2727,194.5907,498.5454,178.1813 M,0,45635,45692,498.5454,178.1813,496.8181,161.772 M,0,45692,45749,496.8181,161.772,495.0908,145.3626 M,0,45749,45806,495.0908,145.3626,496.8181,161.772 M,0,45806,45862,496.8181,161.772,498.5454,178.1813 M,0,45862,45919,498.5454,178.1813,500.2727,194.5907 M,0,45919,45976,500.2727,194.5907,502,211 M,1,45976,46431,502,211,420,420 M,1,46431,46885,420,420,209,342 M,0,46885,46941,209,342,192.724,339.4251 M,0,46941,46998,192.724,339.4251,177.1087,334.1703 M,0,46998,47055,177.1087,334.1703,162.592,326.384 M,0,47055,47112,162.592,326.384,149.5806,316.2852 M,0,47112,47169,149.5806,316.2852,162.592,326.384 M,0,47169,47225,162.592,326.384,177.1087,334.1703 M,0,47225,47282,177.1087,334.1703,192.724,339.4251 M,0,47282,47339,192.724,339.4251,209,342 M,1,47339,47567,209,342,233,233 M,1,47567,47794,233,233,124,203 M,0,47794,47850,124,203,121.8959,186.6347 M,0,47850,47907,121.8959,186.6347,119.7918,170.2694 M,0,47907,47964,119.7918,170.2694,117.6877,153.9041 M,0,47964,48021,117.6877,153.9041,115.5836,137.5388 M,1,48021,48249,115.5836,137.5388,212,80 M,0,48249,48305,212,80,228.4107,78.35603 M,0,48305,48362,228.4107,78.35603,244.8978,78.5937 M,0,48362,48419,244.8978,78.5937,261.1784,81.16795 M,0,48419,48476,261.1784,81.16795,276.7774,86.47361 M,0,48476,48533,276.7774,86.47361,292.1063,92.52522 M,0,48533,48589,292.1063,92.52522,308.2267,95.9586 M,0,48589,48646,308.2267,95.9586,324.6856,96.89853 M,0,48646,48703,324.6856,96.89853,341.1287,95.65739 M,1,48703,49158,341.1287,95.65739,562,135 M,0,49158,49214,562,135,570.4526,149.1346 M,0,49214,49271,570.4526,149.1346,575.8477,164.6927 M,0,49271,49328,575.8477,164.6927,577.9595,181.0215 M,0,49328,49385,577.9595,181.0215,576.722,197.442 M,1,49385,49612,576.722,197.442,552,313 M,0,49612,49668,552,313,535.6479,310.7952 M,0,49668,49725,535.6479,310.7952,519.2959,308.5905 M,0,49725,49782,519.2959,308.5905,502.9439,306.3857 M,0,49782,49839,502.9439,306.3857,486.5919,304.1809 M,1,49839,50067,486.5919,304.1809,404,219 M,0,50067,50123,404,219,388.852,212.4588 M,0,50123,50180,388.852,212.4588,373.7039,205.9176 M,0,50180,50237,373.7039,205.9176,358.4775,200.3954 M,0,50237,50294,358.4775,200.3954,342.5075,204.5435 M,0,50294,50351,342.5075,204.5435,326.5374,208.6916 M,0,50351,50407,326.5374,208.6916,310.5673,212.8397 M,1,50407,50522,310.5673,212.8397,281,261 M,0,50522,50578,281,261,264.6896,258.5055 M,0,50578,50635,264.6896,258.5055,248.3793,256.011 M,0,50635,50692,248.3793,256.011,232.069,253.5164 M,0,50692,50749,232.069,253.5164,215.7586,251.0219 M,1,50749,50976,215.7586,251.0219,104,236 M,1,50976,51431,104,236,260,396 M,0,51431,51487,260,396,275.8475,400.4925 M,0,51487,51544,275.8475,400.4925,292.2416,402.0317 M,0,51544,51601,292.2416,402.0317,308.6371,400.5685 M,0,51601,51658,308.6371,400.5685,324.4892,396.1535 M,0,51658,51715,324.4892,396.1535,339.2714,388.9351 M,0,51715,51771,339.2714,388.9351,352.4931,379.1548 M,1,51771,51885,352.4931,379.1548,407,391 M,0,51885,51941,407,391,418.774,379.4787 M,0,51941,51998,418.774,379.4787,428.2526,366.011 M,0,51998,52055,428.2526,366.011,435.1208,351.0473 M,0,52055,52112,435.1208,351.0473,439.1507,335.0877 M,0,52112,52169,439.1507,335.0877,440.2091,318.6651 M,0,52169,52225,440.2091,318.6651,438.2621,302.3278 M,1,52225,52340,438.2621,302.3278,409,253 M,1,52340,52567,409,253,299,231 M,1,52567,52794,299,231,372,146 M,0,52794,52850,372,146,368.5817,129.858 M,0,52850,52907,368.5817,129.858,365.1634,113.7159 M,0,52907,52964,365.1634,113.7159,361.7451,97.57391 M,0,52964,53021,361.7451,97.57391,358.3268,81.43188 M,0,53021,53078,358.3268,81.43188,361.7451,97.5739 M,0,53078,53134,361.7451,97.5739,365.1634,113.7159 M,0,53134,53191,365.1634,113.7159,368.5817,129.858 M,0,53191,53248,368.5817,129.858,372,146 M,1,53248,53704,372,146,350,361 M,1,53704,54157,350,361,469,171 M,0,54157,54213,469,171,471.3406,154.6879 M,0,54213,54270,471.3406,154.6879,470.8998,138.2159 M,0,54270,54327,470.8998,138.2159,467.6905,122.055 M,0,54327,54384,467.6905,122.055,462,107 M,0,54384,54441,462,107,467.6905,122.055 M,0,54441,54497,467.6905,122.055,470.8997,138.2159 M,0,54497,54554,470.8997,138.2159,471.3406,154.6879 M,0,54554,54611,471.3406,154.6879,469,171 M,1,54611,54839,469,171,357,155 M,1,54839,55066,357,155,291,246 M,0,55066,55122,291,246,274.6347,243.8959 M,0,55122,55179,274.6347,243.8959,258.2694,241.7918 M,0,55179,55236,258.2694,241.7918,241.9041,239.6877 M,0,55236,55293,241.9041,239.6877,225.5388,237.5836 M,1,55293,55522,225.5388,237.5836,142,161 M,0,55522,55578,142,161,152.002,174.1031 M,0,55578,55635,152.002,174.1031,160.1231,188.4441 M,0,55635,55692,160.1231,188.4441,166.2126,203.7552 M,0,55692,55749,166.2126,203.7552,170.1578,219.7505 M,0,55749,55806,170.1578,219.7505,171.8857,236.1315 M,0,55806,55862,171.8857,236.1315,171.365,252.5924 M,0,55862,55919,171.365,252.5924,168.6059,268.8263 M,0,55919,55976,168.6059,268.8263,163.7607,284.5742 M,1,55976,56431,163.7607,284.5742,358,406 M,0,56431,56487,358,406,374.3051,408.348 M,0,56487,56544,374.3051,408.348,390.7606,407.6822 M,0,56544,56601,390.7606,407.6822,406.8145,404.0267 M,0,56601,56658,406.8145,404.0267,421.9556,397.5471 M,1,56658,56885,421.9556,397.5471,523,349 M,0,56885,56941,523,349,520.3489,332.7144 M,0,56941,56998,520.3489,332.7144,517.6977,316.4288 M,0,56998,57055,517.6977,316.4288,515.0466,300.1431 M,0,57055,57112,515.0466,300.1431,512.3954,283.8575 M,1,57112,57340,512.3954,283.8575,411,231 M,0,57340,57396,411,231,404.4588,215.852 M,0,57396,57453,404.4588,215.852,397.9176,200.7039 M,0,57453,57510,397.9176,200.7039,392.3954,185.4776 M,0,57510,57567,392.3954,185.4776,396.5435,169.5075 M,0,57567,57624,396.5435,169.5075,400.6916,153.5374 M,0,57624,57680,400.6916,153.5374,404.8397,137.5673 M,1,57680,57794,404.8397,137.5673,417,82 M,1,57794,58249,417,82,193,107 M,0,58249,58305,193,107,189.1973,123.0558 M,0,58305,58362,189.1973,123.0558,185.3946,139.1116 M,0,58362,58419,185.3946,139.1116,181.5919,155.1675 M,0,58419,58476,181.5919,155.1675,177.7892,171.2233 M,1,58476,58703,177.7892,171.2233,215,265 M,1,58703,72794,215,265,80,204 M,0,72794,72850,80,204,82.08882,218.8539 M,0,72850,72907,82.08882,218.8539,84.17764,233.7077 M,0,72907,72964,84.17764,233.7077,86.26646,248.5616 M,0,72964,73021,86.26646,248.5616,88.35529,263.4154
//Storyboard Sound Samples

[TimingPoints]
522,454.545454545455,4,2,1,40,1,0
7794,-100,4,2,1,50,0,0
15067,-100,4,2,1,65,0,0
29612,-100,4,2,1,60,0,0
43476,-100,4,2,1,60,0,0
44158,-90.9090909090909,4,2,1,70,0,1
58703,-100,4,2,1,65,0,0
72794,-100,4,2,1,65,0,0
73248,-100,4,2,1,60,0,0
73249,-100,4,2,1,60,0,0
86431,-100,4,2,1,50,0,0
88703,454.545454545455,4,2,1,70,1,1
88703,-90.9090909090909,4,2,1,70,0,1
103248,-100,3,2,1,70,0,0
103286,-100,3,2,1,35,0,0
113703,-100,3,2,1,50,0,0
114158,-100,4,2,1,50,0,0
128703,-90.9090909090909,4,2,1,70,0,1
157339,-90.9090909090909,4,2,1,70,0,1
157793,-100,4,2,1,65,0,0

[Colours]
Combo1 : 164,170,200
Combo2 : 179,206,187
Combo3 : 196,197,165
Combo4 : 197,167,167

[HitObjects]
228,183,7794,5,4,3:2:0:0:
331,73,8249,2,0,P|391:66|454:83,2,120,0|0|2,3:0|3:0|3:2,0:0:0:0:
228,183,9612,2,0,P|168:190|105:173,2,120,0|2|2,3:2|3:2|3:2,0:0:0:0:
331,74,10976,1,0,3:2:0:0:
474,141,11431,6,0,L|460:274,1,120,2|0,3:2|3:2,0:0:0:0:
331,363,12340,2,0,L|317:230,1,120,0|2,3:2|3:2,0:0:0:0:
220,116,13249,2,0,P|166:107|97:136,1,120,2|0,3:2|3:2,0:0:0:0:
35,281,14158,2,0,L|104:291,1,60,2|0,0:3|3:0,0:0:0:0:
181,257,14612,1,8,0:0:0:0:
280,368,15067,6,0,P|328:366|374:337,1,90,4|2,3:2|0:0,0:0:0:0:
408,313,15522,2,0,L|390:232,1,60,8|2,3:2|0:0,0:0:0:0:
344,159,15976,1,0,3:0:0:0:
144,74,16431,1,10,3:2:0:0:
123,287,16885,2,0,B|83:305|83:305|1:287,2,120,0|10|2,3:2|3:2|3:2,0:0:0:0:
201,212,18022,1,2,0:0:0:0:
136,125,18249,2,0,P|138:85|149:58,1,60,8|2,3:2|0:3,0:0:0:0:
242,111,18703,6,0,P|290:109|336:80,1,90,2|2,3:2|0:0,0:0:0:0:
363,49,19158,2,0,L|431:61,1,60,8|2,3:2|0:0,0:0:0:0:
488,143,19612,1,0,3:0:0:0:
280,205,20067,1,10,3:2:0:0:
431,359,20522,2,0,B|479:371|479:371|522:341,2,90,2|2|2,3:2|0:0|0:0,0:0:0:0:
342,295,21431,2,0,L|269:309,1,60,2|2,3:2|0:3,0:0:0:0:
177,328,21885,1,8,3:2:0:0:
12,197,22340,6,0,P|14:149|43:103,1,90,4|2,3:1|0:0,0:0:0:0:
73,75,22795,2,0,L|153:93,1,60,8|2,3:2|0:0,0:0:0:0:
235,59,23249,1,0,3:0:0:0:
277,272,23704,1,10,3:2:0:0:
411,91,24158,2,0,B|429:131|429:131|411:213,2,120,0|10|2,3:2|3:2|3:2,0:0:0:0:
309,51,25295,1,2,0:0:0:0:
265,149,25522,2,0,P|225:147|198:136,1,60,8|2,3:2|0:3,0:0:0:0:
132,61,25976,6,0,P|84:63|38:92,1,90,2|2,3:2|0:0,0:0:0:0:
16,127,26431,2,0,L|35:206,1,60,8|2,3:2|0:0,0:0:0:0:
58,289,26885,1,0,3:0:0:0:
268,337,27340,1,10,3:2:0:0:
298,122,27794,2,0,B|346:110|346:110|389:140,2,90,2|2|2,3:2|0:0|0:0,0:0:0:0:
326,226,28703,2,0,L|405:219,2,60,0|2|2,3:2|0:3|0:0,0:0:0:0:
184,62,29612,6,0,B|133:53|133:53|95:79|88:119,1,120,4|10,3:2|3:2,0:0:0:0:
122,214,30294,1,2,0:0:0:0:
122,214,30522,2,0,L|223:226,1,90,2|2,3:2|0:0,0:0:0:0:
264,232,30976,1,8,3:2:0:0:
463,148,31431,1,0,3:2:0:0:
368,96,31658,2,0,L|358:10,2,60,2|10|2,0:0|3:2|0:3,0:0:0:0:
368,204,32340,2,0,P|315:205|266:175,2,90,2|2|2,3:2|0:0|0:0,0:0:0:0:
510,366,33476,6,0,P|470:351|446:353,1,60,2|10,0:0|3:2,0:0:0:0:
369,282,33931,2,0,P|336:309|325:330,2,60,2|2|2,0:0|3:2|0:0,0:0:0:0:
421,187,34612,1,8,3:2:0:0:
244,61,35067,2,0,B|206:37|206:37|140:51,2,90,2|2|2,3:2|0:0|0:3,0:0:0:0:
293,157,35976,2,0,L|226:168,1,60,2|2,3:2|0:3,0:0:0:0:
126,180,36431,1,8,3:2:0:0:
7,345,36885,6,0,B|43:335|72:353|72:353|102:372|142:362,1,120,0|10,3:2|3:2,0:0:0:0:
202,292,37567,1,2,0:0:0:0:
301,334,37794,2,0,L|313:222,1,90,0|2,3:2|0:0,0:0:0:0:
355,213,38249,2,0,L|341:142,1,60,8|2,3:2|0:0,0:0:0:0:
286,62,38703,2,0,B|311:53|326:37|326:37|348:51|385:55,2,90,0|2|2,3:2|0:0|0:0,0:0:0:0:
199,127,39612,2,0,L|136:117,1,60,2|2,3:2|0:0,0:0:0:0:
32,100,40067,1,8,3:2:0:0:
128,293,40522,6,0,P|178:309|196:306,1,60,2|2,3:2|0:0,0:0:0:0:
278,255,40976,2,0,L|297:147,1,90,10|2,3:2|0:0,0:0:0:0:
339,137,41431,2,0,L|327:76,2,60,2|2|8,3:2|0:0|3:2,0:0:0:0:
440,328,42340,1,2,0:0:0:0:
97,136,43476,2,0,L|107:70,2,60,2|2|2,0:0|0:0|0:0,0:0:0:0:
86,248,44158,6,0,P|163:228|199:244,1,99.0000030212403,4|2,3:2|0:3,0:0:0:0:
215,275,44612,2,0,P|263:280|307:259,1,99.0000030212403,10|2,0:0|0:0,0:0:0:0:
351,221,45067,1,2,3:2:0:0:
452,267,45294,1,2,0:0:0:0:
438,155,45522,2,0,L|430:79,2,66.0000020141602,10|2|0,0:0|0:0|3:0,0:0:0:0:
356,364,46431,1,8,0:0:0:0:
145,286,46885,2,0,P|95:268|75:249,2,66.0000020141602,2|0|8,3:2|0:0|0:0,0:0:0:0:
169,177,47567,1,2,0:3:0:0:
60,147,47794,6,0,L|51:77,1,66.0000020141602,2|2,3:2|0:0,0:0:0:0:
148,24,48249,2,0,B|188:18|216:32|216:32|247:46|287:38,1,132.00000402832,8|0,0:0|3:2,0:0:0:0:
498,79,49158,2,0,P|514:129|511:149,1,66.0000020141602,8|2,0:0|0:3,0:0:0:0:
488,257,49612,2,0,L|399:245,1,66.0000020141602,0|8,3:2|0:0,0:0:0:0:
340,163,50067,2,0,B|296:144|296:144|219:164,1,99.0000030212403,8|8,0:0|0:3,0:0:0:0:
217,205,50522,2,0,L|132:192,1,66.0000020141602,4|4,0:3|0:3,0:0:0:0:
40,180,50976,1,8,3:2:0:0:
196,340,51431,6,0,P|266:338|303:307,1,99.0000030212403,4|2,3:2|0:3,0:0:0:0:
343,335,51885,2,0,P|376:273|367:225,1,99.0000030212403,10|2,0:0|0:0,0:0:0:0:
345,197,52340,1,2,3:2:0:0:
235,175,52567,1,2,0:0:0:0:
308,90,52794,2,0,L|290:5,2,66.0000020141602,10|2|0,0:0|0:0|3:0,0:0:0:0:
286,305,53704,1,8,0:0:0:0:
405,115,54157,2,0,P|407:83|398:51,2,66.0000020141602,2|0|8,3:2|0:0|0:0,0:0:0:0:
293,99,54839,1,2,0:3:0:0:
227,190,55066,6,0,L|157:181,1,66.0000020141602,2|2,3:2|0:0,0:0:0:0:
78,105,55522,2,0,P|108:180|98:233,1,132.00000402832,8|0,0:0|3:2,0:0:0:0:
294,350,56431,2,0,P|346:347|364:338,1,66.0000020141602,8|2,0:0|0:3,0:0:0:0:
459,293,56885,2,0,L|445:207,1,66.0000020141602,0|8,3:2|0:0,0:0:0:0:
347,175,57340,2,0,B|328:131|328:131|348:54,1,99.0000030212403,8|8,0:0|0:0,0:0:0:0:
353,26,57794,1,4,0:3:0:0:
129,51,58249,2,0,L|111:127,1,66.0000020141602,8|4,3:2|0:3,0:0:0:0:
151,209,58703,5,4,3:2:0:0:
16,148,72794,6,0,L|25:212,1,60,10|10,0:0|0:3,0:0:0:0:
111,275,73249,6,0,B|172:282|172:282|238:248,1,120,4|10,3:2|3:2,0:0:0:0:
360,87,74158,2,0,L|376:181,1,90,2|2,3:2|0:0,0:0:0:0:
385,228,74612,2,0,P|347:212|312:211,1,60,10|2,3:2|0:0,0:0:0:0:
243,142,75067,2,0,P|201:163|164:165,2,60,0|2|10,3:2|0:0|3:2,0:0:0:0:
264,35,75749,1,2,0:0:0:0:
360,87,75976,2,0,B|415:93|415:93|421:90|421:90|487:100,1,120,2|8,3:2|3:2,0:0:0:0:
389,295,76885,6,0,L|463:287,2,60,0|2|10,3:2|0:0|3:2,0:0:0:0:
297,353,77567,1,2,0:0:0:0:
190,335,77794,2,0,P|150:308|123:238,1,120,2|10,3:2|3:2,0:0:0:0:
238,60,78703,2,0,P|288:64|317:78,1,60,2|2,3:2|0:0,0:0:0:0:
352,160,79158,2,0,P|402:155|431:141,1,60,10|2,3:2|0:3,0:0:0:0:
510,110,79612,2,0,L|492:237,1,120,2|8,3:2|3:2,0:0:0:0:
312,348,80522,6,0,P|259:324|213:330,1,90,4|2,3:2|0:0,0:0:0:0:
177,344,80976,2,0,L|167:279,1,60,10|2,3:2|0:0,0:0:0:0:
224,192,81431,2,0,L|214:127,2,60,0|2|8,3:2|0:0|3:2,0:0:0:0:
97,16,82340,2,0,L|84:96,1,60,0|2,3:2|0:2,0:0:0:0:
40,172,82794,2,0,P|85:184|121:175,1,60,10|2,3:2|0:0,0:0:0:0:
185,119,83249,2,0,B|245:104|245:104|308:140,1,120,2|8,3:2|3:2,0:0:0:0:
345,228,83931,1,2,0:3:0:0:
274,309,84158,6,0,B|214:324|214:324|151:288,1,120,2|10,3:2|3:2,0:0:0:0:
37,129,85067,2,0,L|55:53,1,60,2|10,3:2|0:0,0:0:0:0:
148,24,85522,2,0,L|156:85,1,60,8|2,3:2|0:3,0:0:0:0:
250,135,85976,1,8,0:0:0:0:
444,337,88022,2,0,L|454:271,2,60,2|2|2,0:0|0:0|0:0,0:0:0:0:
347,279,88704,6,0,P|270:259|234:275,1,99.0000030212403,4|2,3:2|0:3,0:0:0:0:
198,263,89157,2,0,P|253:206|257:167,1,99.0000030212403,10|2,0:0|0:0,0:0:0:0:
277,136,89612,1,2,3:2:0:0:
190,64,89839,1,2,0:0:0:0:
89,114,90066,2,0,P|75:77|78:29,2,66.0000020141602,10|2|0,0:0|0:0|3:0,0:0:0:0:
296,26,90976,1,8,0:0:0:0:
445,192,91430,2,0,L|540:182,2,66.0000020141602,2|0|8,3:2|0:0|0:0,0:0:0:0:
349,251,92111,1,2,0:3:0:0:
248,302,92339,6,0,P|217:274|207:228,1,66.0000020141602,2|2,3:2|0:0,0:0:0:0:
253,148,92793,2,0,B|195:142|195:142|189:136|189:136|118:129,1,132.00000402832,8|0,0:0|3:2,0:0:0:0:
60,345,93703,2,0,L|75:275,1,66.0000020141602,8|2,0:0|0:3,0:0:0:0:
176,233,94157,2,0,L|189:310,1,66.0000020141602,0|8,3:2|0:0,0:0:0:0:
283,356,94612,2,0,B|305:309|305:309|292:233,1,99.0000030212403,8|8,0:0|0:3,0:0:0:0:
281,207,95067,2,0,L|294:122,1,66.0000020141602,4|4,0:3|0:3,0:0:0:0:
355,50,95521,1,8,3:2:0:0:
507,213,95975,6,0,P|461:231|407:225,1,99.0000030212403,4|2,3:2|0:3,0:0:0:0:
387,175,96430,2,0,P|348:144|326:94,1,99.0000030212403,10|2,0:0|0:0,0:0:0:0:
339,45,96884,1,2,3:2:0:0:
232,79,97111,1,2,0:0:0:0:
142,10,97339,2,0,L|53:21,2,66.0000020141602,10|2|0,0:0|0:0|3:0,0:0:0:0:
317,150,98248,1,8,0:0:0:0:
145,294,98703,2,0,P|152:242|162:225,2,66.0000020141602,2|0|8,3:2|0:0|0:0,0:0:0:0:
230,368,99384,1,2,0:3:0:0:
329,314,99612,6,0,L|405:305,1,66.0000020141602,2|2,3:2|0:0,0:0:0:0:
505,321,100066,2,0,B|483:283|483:283|500:181,1,132.00000402832,8|0,0:0|3:2,0:0:0:0:
328,47,100975,2,0,P|286:50|263:62,1,66.0000020141602,8|2,0:0|0:3,0:0:0:0:
207,157,101430,2,0,P|165:154|142:142,2,66.0000020141602,0|8|8,3:2|0:0|0:0,0:0:0:0:
427,116,102339,2,0,L|416:182,1,66.0000020141602,4|4,0:3|3:3,0:0:0:0:
311,222,102793,2,0,L|319:295,1,66.0000020141602,8|4,0:2|0:3,0:0:0:0:
399,350,103248,5,4,3:2:0:0:
15,78,113703,6,0,L|6:160,1,60,8|8,0:0|0:0,0:0:0:0:
72,223,114157,6,0,P|118:228|139:238,1,60,4|2,3:2|0:3,0:0:0:0:
188,324,114612,2,0,P|234:318|255:309,1,60,8|2,0:0|0:3,0:0:0:0:
333,250,115066,2,0,P|334:202|352:120,1,120,0|8,3:0|0:0,0:0:0:0:
507,22,115975,2,0,P|483:69|470:77,2,60,0|2|8,3:2|0:3|0:0,0:0:0:0:
490,237,116884,2,0,P|437:239|423:232,2,60,0|2|8,3:0|0:3|0:0,0:0:0:0:
321,371,117793,6,0,P|311:331|316:248,1,120,0|8,3:2|0:0,0:0:0:0:
228,186,118475,1,2,0:3:0:0:
292,98,118703,2,0,P|283:62|201:58,1,120,0|8,3:0|0:0,0:0:0:0:
51,196,119612,2,0,P|60:247|65:327,1,120,0|8,3:2|0:0,0:0:0:0:
218,162,120521,2,0,P|222:128|224:100,2,60,0|2|8,3:0|0:3|0:0,0:0:0:0:
297,236,121203,1,8,0:0:0:0:
386,175,121430,6,0,P|428:175|461:191,1,60,4|2,3:2|0:3,0:0:0:0:
489,278,121884,2,0,P|468:314|437:334,1,60,8|2,0:0|0:3,0:0:0:0:
355,370,122339,2,0,P|312:357|220:354,1,120,0|8,3:0|0:0,0:0:0:0:
35,274,123248,2,0,P|23:246|22:215,2,60,0|2|8,3:2|0:3|0:0,0:0:0:0:
227,174,124157,2,0,P|239:146|240:115,2,60,0|2|8,3:0|0:3|0:0,0:0:0:0:
142,372,125066,6,0,P|180:358|264:356,1,120,0|8,3:2|0:0,0:0:0:0:
342,286,125748,1,2,0:3:0:0:
428,351,125976,2,0,P|464:342|468:260,1,120,0|8,3:0|0:0,0:0:0:0:
341,116,126884,2,0,P|305:107|264:111,1,60,8|12,3:2|0:3,0:0:0:0:
218,194,127339,2,0,P|185:197|144:185,1,60,8|8,0:2|3:0,0:0:0:0:
102,99,127793,1,10,0:0:0:0:
220,325,128703,6,0,P|257:296|315:291,1,99.0000030212403,4|2,3:2|0:3,0:0:0:0:
362,300,129157,2,0,P|332:261|326:212,1,99.0000030212403,10|2,0:0|0:0,0:0:0:0:
344,158,129612,1,2,3:2:0:0:
244,106,129839,1,2,0:0:0:0:
169,189,130066,2,0,L|91:181,2,66.0000020141602,10|2|0,0:0|0:0|3:0,0:0:0:0:
363,302,130976,1,8,0:0:0:0:
405,81,131430,2,0,P|413:49|412:16,2,66.0000020141602,2|0|8,3:2|0:0|0:0,0:0:0:0:
302,35,132112,1,2,0:3:0:0:
205,92,132339,6,0,L|211:157,1,66.0000020141602,2|2,3:2|0:0,0:0:0:0:
294,233,132793,2,0,B|287:300|287:300|292:305|292:305|286:373,1,132.00000402832,8|0,0:0|3:2,0:0:0:0:
464,223,133703,2,0,L|454:154,1,66.0000020141602,8|2,0:0|0:3,0:0:0:0:
400,59,134157,2,0,P|363:56|325:68,1,66.0000020141602,0|8,3:2|0:0,0:0:0:0:
277,160,134612,2,0,P|231:169|165:145,1,99.0000030212403,8|8,0:0|0:3,0:0:0:0:
136,121,135066,2,0,L|123:206,1,66.0000020141602,4|4,0:3|0:3,0:0:0:0:
109,297,135521,1,8,3:2:0:0:
326,352,135975,6,0,P|371:325|431:317,1,99.0000030212403,4|2,3:2|0:3,0:0:0:0:
472,316,136430,2,0,P|423:306|381:280,1,99.0000030212403,10|2,0:0|0:0,0:0:0:0:
343,239,136884,1,2,3:2:0:0:
238,198,137111,1,2,0:0:0:0:
277,93,137339,2,0,L|269:27,2,66.0000020141602,10|2|0,0:0|0:0|3:0,0:0:0:0:
278,317,138248,1,8,0:0:0:0:
63,226,138702,2,0,P|31:224|-1:233,2,66.0000020141602,2|0|8,3:2|0:0|0:0,0:0:0:0:
125,132,139384,1,2,0:3:0:0:
197,45,139612,6,0,P|231:35|268:39,1,66.0000020141602,2|2,3:2|0:0,0:0:0:0:
334,122,140066,2,0,L|352:234,1,99.0000030212403,10|2,0:0|0:0,0:0:0:0:
359,275,140521,2,0,P|409:273|439:259,1,66.0000020141602,2|2,3:2|0:0,0:0:0:0:
474,168,140975,1,8,0:0:0:0:
288,42,141430,2,0,L|198:52,1,66.0000020141602,0|10,3:0|0:0,0:0:0:0:
139,124,141884,2,0,P|133:178|160:222,1,99.0000030212403,6|0,3:2|0:0,0:0:0:0:
201,246,142339,1,10,3:2:0:0:
121,324,142566,2,0,L|46:313,2,66.0000020141602,0|8|8,0:0|0:0|0:0,0:0:0:0:
228,353,143248,6,0,L|331:338,1,99.0000030212403,4|2,3:2|0:3,0:0:0:0:
378,359,143703,2,0,P|395:309|383:246,1,99.0000030212403,10|2,0:0|0:0,0:0:0:0:
416,213,144157,1,2,3:2:0:0:
347,124,144384,1,2,0:0:0:0:
403,26,144612,2,0,P|369:16|339:13,2,66.0000020141602,10|2|2,0:0|0:0|3:2,0:0:0:0:
509,223,145521,1,8,0:0:0:0:
284,179,145975,2,0,L|265:266,2,66.0000020141602,2|0|8,3:2|0:0|0:0,0:0:0:0:
393,151,146657,1,2,0:3:0:0:
312,72,146884,6,0,P|269:70|233:90,1,66.0000020141602,2|2,3:2|0:0,0:0:0:0:
167,157,147339,2,0,B|131:154|105:129|105:129|75:145|44:144,1,132.00000402832,8|0,0:0|3:2,0:0:0:0:
30,368,148248,2,0,L|114:353,1,66.0000020141602,8|2,0:0|0:3,0:0:0:0:
172,274,148703,2,0,L|252:281,1,66.0000020141602,0|8,3:2|0:0,0:0:0:0:
338,328,149157,2,0,L|356:216,1,99.0000030212403,8|8,0:0|0:3,0:0:0:0:
360,173,149612,2,0,P|410:171|440:157,2,66.0000020141602,4|4|8,0:3|0:3|3:2,0:0:0:0:
174,47,150521,6,0,P|169:102|200:154,1,99.0000030212403,4|2,3:2|0:3,0:0:0:0:
239,164,150975,2,0,P|265:211|259:271,1,99.0000030212403,10|2,0:0|0:0,0:0:0:0:
239,305,151430,1,2,3:2:0:0:
348,328,151657,1,2,0:0:0:0:
423,245,151884,2,0,L|412:161,2,66.0000020141602,10|2|2,0:0|0:0|3:2,0:0:0:0:
313,48,152794,1,8,0:0:0:0:
145,202,153248,2,0,P|178:219|211:226,2,66.0000020141602,2|0|8,3:2|0:0|0:0,0:0:0:0:
35,164,153930,1,2,0:3:0:0:
116,95,154157,6,0,P|159:93|195:113,1,66.0000020141602,2|2,3:2|0:0,0:0:0:0:
267,171,154612,2,0,P|248:270|247:305,1,132.00000402832,8|0,0:0|3:2,0:0:0:0:
469,266,155521,2,0,P|454:208|440:185,1,66.0000020141602,8|2,0:0|0:3,0:0:0:0:
358,140,155975,2,0,P|373:82|387:59,1,66.0000020141602,0|8,3:2|0:0,0:0:0:0:
486,56,156430,2,0,P|404:46|362:14,1,132.00000402832,4|4,3:2|0:3,0:0:0:0:
265,68,157112,1,4,3:3:0:0:
162,114,157339,2,0,L|87:103,1,66.0000020141602,8|4,0:2|0:3,0:0:0:0:
256,192,157793,12,2,160521,3:2:0:0:
245,20,161430,6,0,P|293:22|339:51,1,90,2|2,3:2|0:0,0:0:0:0:
360,87,161885,2,0,L|342:168,1,60,8|2,3:2|0:0,0:0:0:0:
331,252,162339,1,0,3:0:0:0:
128,326,162794,1,10,3:2:0:0:
68,118,163248,2,0,B|56:70|56:70|86:27,2,90,2|2|0,3:2|0:0|0:0,0:0:0:0:
158,177,164157,2,0,L|222:169,1,60,2|2,3:2|0:3,0:0:0:0:
310,113,164612,1,8,3:2:0:0:
490,229,165066,6,0,P|488:277|459:323,1,90,4|2,3:1|0:0,0:0:0:0:
431,353,165521,2,0,L|351:335,1,60,8|2,3:2|0:0,0:0:0:0:
268,310,165975,1,0,3:0:0:0:
253,94,166430,1,10,3:2:0:0:
458,152,166884,2,0,B|482:117|482:117|465:27,2,120,0|10|2,3:2|3:2|3:2,0:0:0:0:
378,225,168021,1,2,0:0:0:0:
278,183,168248,2,0,P|240:181|206:192,1,60,8|2,3:2|0:3,0:0:0:0:
167,281,168703,6,0,L|272:299,1,90,2|2,3:2|0:0,0:0:0:0:
286,341,169157,2,0,L|351:328,1,60,8|2,3:2|0:0,0:0:0:0:
439,276,169612,1,0,3:2:0:0:
343,82,170066,2,0,P|305:82|264:104,1,60,8|8,3:2|0:2,0:0:0:0:
218,175,170521,5,2,0:0:0:0:
