osu file format v14

[General]
AudioFilename: audio.mp3
AudioLeadIn: 0
PreviewTime: 88022
Countdown: 0
SampleSet: Soft
StackLeniency: 0.3
Mode: 0
LetterboxInBreaks: 0
EpilepsyWarning: 1
WidescreenStoryboard: 1

[Editor]
Bookmarks: 7794,15067,29612,44158,58703,73249,87794,88703,103248,114157,128703,129384,134612,139839,157793
DistanceSpacing: 0.7
BeatDivisor: 12
GridSize: 32
TimelineZoom: 1

[Metadata]
Title:FREE
TitleUnicode:FREE
Artist:POLKADOT STINGRAY
ArtistUnicode:ポルカドットスティングレイ
Creator:Plaudible
Version:Lokidoki's Insane
Source:
Tags:alternative japanese pop rock flake lokidoki 何者 Nanimono Nani mono What 3rd third full album j-pop jpop jrock j-rock
BeatmapID:2842818
BeatmapSetID:1261605

[Difficulty]
HPDrainRate:4.5
CircleSize:3.8
OverallDifficulty:7
ApproachRate:8.8
SliderMultiplier:1.6
SliderTickRate:1

[Events]
//Background and Video events
0,0,"bg.jpg",0,0
//Break Periods
2,58903,65120
2,103448,108074
//Storyboard Layer 0 (Background)
//Storyboard Layer 1 (Fail)
//Storyboard Layer 2 (Pass)
//Storyboard Layer 3 (Foreground)
Sprite,Foreground,Centre,"sb/sbar.png",0,0 V,0,15181,,1,10 F,2,14981,15381,0,0.25 C,0,15181,,136,207,239 F,0,29612,,0.25,0 P,0,15181,29812,A M,0,15408,15464,320,240,236.9327,118.8367 M,0,15464,15521,236.9327,118.8367,243.1071,137.6096 M,0,15521,15578,243.1071,137.6096,243.4144,157.4208 M,0,15578,15635,243.4144,157.4208,236.441,175.9661 M,1,15635,15749,236.441,175.9661,122,287 M,0,15749,15805,122,287,111.2322,270.1461 M,0,15805,15862,111.2322,270.1461,100.4644,253.2921 M,0,15862,15919,100.4644,253.2921,105.5624,235.0146 M,0,15919,15976,105.5624,235.0146,113.1578,216.513 M,0,15976,16033,113.1578,216.513,120.7532,198.0114 M,0,16033,16089,120.7532,198.0114,128.3486,179.5098 M,1,16089,16203,128.3486,179.5098,73,116 M,1,16203,16317,73,116 M,1,16317,16431,73,116 M,0,16431,16487,73,116,70.35673,96.17545 M,0,16487,16544,70.35673,96.17545,67.71346,76.35089 M,0,16544,16601,67.71346,76.35089,70.35673,96.17545 M,0,16601,16658,70.35673,96.17545,73,116 M,1,16658,16885,73,116,207,266 M,1,16885,16999,207,266 M,0,16999,17055,207,266,220.0818,280.8875 M,0,17055,17112,220.0818,280.8875,227.5202,299.183 M,0,17112,17169,227.5202,299.183,228.9089,318.9032 M,0,17169,17226,228.9089,318.9032,222.9339,337.7602 M,1,17226,17340,222.9339,337.7602,142,380 M,0,17340,17396,142,380,161.7761,377.2596 M,0,17396,17453,161.7761,377.2596,181.7266,377.4582 M,0,17453,17510,181.7266,377.4582,201.4719,380.3777 M,0,17510,17567,201.4719,380.3777,220.4496,386.5641 M,0,17567,17624,220.4496,386.5641,238.3004,395.4701 M,0,17624,17680,238.3004,395.4701,254.7425,406.7742 M,1,17680,17794,254.7425,406.7742,309,340 M,1,17794,17907,309,340,322,337 M,1,17907,18021,322,337,335,335 M,1,18021,18134,335,335,348,333 M,1,18134,18249,348,333,361,330 M,1,18249,18476,361,330,420,241 M,1,18476,18590,420,241 M,1,18590,18703,420,241 M,0,18703,18759,420,241,436.5954,251.7561 M,0,18759,18816,436.5954,251.7561,448.1447,267.7093 M,0,18816,18873,448.1447,267.7093,453.4153,286.6782 M,0,18873,18930,453.4153,286.6782,450.6841,306.2025 M,1,18930,19044,450.6841,306.2025,464,317 M,0,19044,19100,464,317,467.9619,336.3779 M,0,19100,19157,467.9619,336.3779,464.7312,355.8104 M,0,19157,19214,464.7312,355.8104,454.958,372.8986 M,0,19214,19271,454.958,372.8986,439.2112,384.7609 M,1,19271,19385,439.2112,384.7609,366,194 M,0,19385,19441,366,194,385.8676,196.2976 M,0,19441,19498,385.8676,196.2976,405.7352,198.5952 M,0,19498,19555,405.7352,198.5952,425.6028,200.8928 M,0,19555,19612,425.6028,200.8928,445.4703,203.1904 M,0,19612,19669,445.4703,203.1904,465.338,205.4881 M,0,19669,19725,465.338,205.4881,485.2055,207.7857 M,1,19725,19840,485.2055,207.7857,549,152 M,1,19840,19953,549,152 M,1,19953,20067,549,152 M,0,20067,20123,549,152,552.5777,132.3226 M,0,20123,20180,552.5777,132.3226,556.1554,112.6452 M,0,20180,20237,556.1554,112.6452,552.5777,132.3226 M,0,20237,20294,552.5777,132.3226,549,152 M,1,20294,20522,549,152,361,330 M,1,20522,20635,361,330 M,0,20635,20691,361,330,351.7685,312.408 M,0,20691,20748,351.7685,312.408,347.9835,292.9587 M,1,20748,20862,347.9835,292.9587,454,317 M,0,20862,20918,454,317,457.7317,297.4658 M,0,20918,20975,457.7317,297.4658,456.13,277.6883 M,1,20975,21090,456.13,277.6883,394,222 M,1,21090,21317,394,222,253,96 M,1,21317,21430,253,96 M,0,21430,21486,253,96,243.7685,113.592 M,0,21486,21543,243.7685,113.592,239.9835,133.0413 M,1,21543,21658,239.9835,133.0413,346,109 M,0,21658,21714,346,109,349.6976,128.5332 M,0,21714,21771,349.6976,128.5332,347.9512,148.2891 M,0,21771,21828,347.9512,148.2891,349.6976,128.5332 M,0,21828,21885,349.6976,128.5332,346,109 M,1,21885,22112,346,109,223,246 M,1,22112,22226,223,246 M,1,22226,22340,223,246 M,0,22340,22396,223,246,203.2369,247.3053 M,0,22396,22453,203.2369,247.3053,185.2458,255.3986 M,0,22453,22510,185.2458,255.3986,171.2507,269.2371 M,0,22510,22567,171.2507,269.2371,162.4344,286.9257 M,1,22567,22681,162.4344,286.9257,148,285 M,0,22681,22737,148,285,134.7371,299.6937 M,0,22737,22794,134.7371,299.6937,127.6465,318.0852 M,0,22794,22851,127.6465,318.0852,127.6189,337.7492 M,0,22851,22908,127.6189,337.7492,134.1616,356.3784 M,1,22908,23022,134.1616,356.3784,210,387 M,0,23022,23078,210,387,190.6533,392.0702 M,0,23078,23135,190.6533,392.0702,171.3067,397.1403 M,0,23135,23192,171.3067,397.1403,151.96,402.2105 M,0,23192,23249,151.96,402.2105,132.6133,407.2806 M,0,23249,23306,132.6133,407.2806,113.2667,412.3508 M,0,23306,23362,113.2667,412.3508,93.92001,417.421 M,1,23362,23476,93.92001,417.421,294,329 M,1,23476,23590,294,329 M,1,23590,23703,294,329 M,0,23703,23759,294,329,291.3812,348.8278 M,0,23759,23816,291.3812,348.8278,288.7625,368.6556 M,0,23816,23873,288.7625,368.6556,291.3812,348.8278 M,0,23873,23930,291.3812,348.8278,294,329 M,1,23930,24158,294,329,316,117 M,1,24158,24272,316,117 M,0,24272,24328,316,117,313.2673,136.8124 M,0,24328,24385,313.2673,136.8124,310.5345,156.6248 M,0,24385,24442,310.5345,156.6248,307.8018,176.4373 M,0,24442,24499,307.8018,176.4373,305.069,196.2497 M,1,24499,24612,305.069,196.2497,294,209 M,0,24612,24668,294,209,313.1804,203.3331 M,0,24668,24725,313.1804,203.3331,332.3607,197.6662 M,0,24725,24782,332.3607,197.6662,351.1419,201.1629 M,0,24782,24839,351.1419,201.1629,369.7603,205.5326 M,0,24839,24896,369.7603,205.5326,388.3919,198.2617 M,0,24896,24952,388.3919,198.2617,407,191 M,1,24952,25067,407,191,472,129 M,1,25067,25180,472,129,485,132 M,1,25180,25294,485,132,498,134 M,1,25294,25407,498,134,511,136 M,1,25407,25522,511,136,524,139 M,1,25522,25749,524,139,482,239 M,1,25749,25862,482,239 M,1,25862,25976,482,239 M,0,25976,26032,482,239,465.8098,250.502 M,0,26032,26089,465.8098,250.502,453.8342,266.2739 M,0,26089,26146,453.8342,266.2739,447.1375,284.8743 M,0,26146,26203,447.1375,284.8743,445.8155,304.6617 M,1,26203,26317,445.8155,304.6617,424,304 M,0,26317,26373,424,304,420.3471,323.5132 M,0,26373,26430,420.3471,323.5132,422.8276,343.1497 M,0,26430,26487,422.8276,343.1497,431.1812,361.0549 M,0,26487,26544,431.1812,361.0549,444.2994,375.9102 M,1,26544,26658,444.2994,375.9102,518,397 M,0,26658,26714,518,397,498.5667,401.727 M,0,26714,26771,498.5667,401.727,479.1333,406.4541 M,0,26771,26828,479.1333,406.4541,459.7,411.1811 M,0,26828,26885,459.7,411.1811,440.2666,415.9081 M,0,26885,26942,440.2666,415.9081,420.8333,420.6352 M,0,26942,26998,420.8333,420.6352,401.3999,425.3622 M,1,26998,27112,401.3999,425.3622,333,364 M,1,27112,27226,333,364 M,1,27226,27340,333,364 M,0,27340,27396,333,364,335.7639,344.1919 M,0,27396,27453,335.7639,344.1919,338.5278,324.3838 M,0,27453,27510,338.5278,324.3838,335.7639,344.1919 M,0,27510,27567,335.7639,344.1919,333,364 M,1,27567,27794,333,364,304,158 M,1,27794,27908,304,158 M,0,27908,27964,304,158,323.8103,157.2445 M,0,27964,28021,323.8103,157.2445,342.7578,162.8577 M,1,28021,28135,342.7578,162.8577,354,248 M,0,28135,28191,354,248,334.2168,250.6208 M,0,28191,28248,334.2168,250.6208,314.2864,249.9966 M,0,28248,28305,314.2864,249.9966,294.7033,246.2524 M,0,28305,28362,294.7033,246.2524,276.1074,239.0459 M,1,28362,28476,276.1074,239.0459,148,287 M,1,28476,28590,148,287 M,0,28590,28646,148,287,167.8103,287.7555 M,0,28646,28703,167.8103,287.7555,186.7578,282.1423 M,1,28703,28817,186.7578,282.1423,198,197 M,0,28817,28873,198,197,178.2168,194.3792 M,0,28873,28930,178.2168,194.3792,158.2864,195.0034 M,0,28930,28987,158.2864,195.0034,138.7033,198.7476 M,0,28987,29044,138.7033,198.7476,120.1073,205.9541 M,1,29044,29158,120.1073,205.9541,104,201 M,1,29158,29385,104,201,269,76 M,1,29385,29499,269,76
Sprite,Foreground,Centre,"sb/sbar.png",0,0 V,0,128703,,1,10 F,2,128503,128903,0,0.25 C,0,128703,,136,207,239 F,0,170521,,0.25,0 P,0,128703,170721,A M,1,128703,128817,377,169,392,158 M,1,128817,128930,392,158,406,128 M,1,128930,129044,406,128,392,95 M,1,129044,129157,392,95,359,74 M,0,129157,129213,359,74,387.3478,81.5514 M,0,129213,129270,387.3478,81.5514,415.0605,72.24295 M,1,129270,129384,415.0605,72.24295,549,113 M,1,129384,129498,549,113 M,1,129498,129612,549,113 M,0,129612,129668,549,113,519.8879,108.8231 M,0,129668,129725,519.8879,108.8231,497.1067,90.13821 M,1,129725,129839,497.1067,90.13821,353,198 M,0,129839,129895,353,198,377.8717,182.3602 M,0,129895,129952,377.8717,182.3602,390.4193,155.9201 M,1,129952,130066,390.4193,155.9201,497,228 M,0,130066,130122,497,228,478.6299,205.1254 M,0,130122,130179,478.6299,205.1254,475.8618,175.87 M,1,130179,130293,475.8618,175.87,410,282 M,1,130293,130407,410,282 M,1,130407,130521,410,282 M,0,130521,130577,410,282,382.3757,293.0931 M,0,130577,130634,382.3757,293.0931,368.8051,319.0079 M,0,130634,130691,368.8051,319.0079,355.1649,345.1273 M,0,130691,130748,355.1649,345.1273,329.2175,359.8095 M,1,130748,130862,329.2175,359.8095,175,246 M,0,130862,130918,175,246,204.5786,243.8402 M,0,130918,130975,204.5786,243.8402,232.4703,253.8258 M,0,130975,131032,232.4703,253.8258,253.1243,275.0534 M,0,131032,131089,253.1243,275.0534,263.1937,302.8548 M,1,131089,131203,263.1937,302.8548,246,389 M,1,131203,131430,246,389,414,147 M,0,131430,131486,414,147,384.4648,144.3515 M,0,131486,131543,384.4648,144.3515,356.5298,154.0747 M,0,131543,131600,356.5298,154.0747,335.3529,174.8166 M,0,131600,131657,335.3529,174.8166,325.0552,202.6996 M,1,131657,131771,325.0552,202.6996,508,104 M,1,131771,131884,508,104 M,0,131884,131940,508,104,504.2274,133.7618 M,0,131940,131997,504.2274,133.7618,500.4547,163.5237 M,0,131997,132054,500.4547,163.5237,504.2274,133.7618 M,0,132054,132111,504.2274,133.7618,508,104 M,1,132111,132339,508,104,317,279 M,0,132339,132395,317,279,288.1413,286.3267 M,0,132395,132452,288.1413,286.3267,263.4465,302.8763 M,1,132452,132566,263.4465,302.8763,317,424 M,0,132566,132622,317,424,288.1413,416.6733 M,0,132622,132679,288.1413,416.6733,263.4465,400.1237 M,1,132679,132793,263.4465,400.1237,379,220 M,0,132793,132849,379,220,397.6338,243.1538 M,0,132849,132906,397.6338,243.1538,406.3369,271.5138 M,0,132906,132963,406.3369,271.5138,403.4741,301.1047 M,0,132963,133020,403.4741,301.1047,389.0036,327.0436 M,1,133020,133134,389.0036,327.0436,456,386 M,1,133134,133248,456,386 M,0,133248,133304,456,386,482.7623,372.6709 M,0,133304,133361,482.7623,372.6709,511.8705,365.962 M,1,133361,133475,511.8705,365.962,492,165 M,0,133475,133531,492,165,462.9299,158.0994 M,0,133531,133588,462.9299,158.0994,436.4268,144.2831 M,1,133588,133703,436.4268,144.2831,328,279 M,0,133703,133759,328,279,357.5814,274.0057 M,0,133759,133816,357.5814,274.0057,387.1628,269.0115 M,0,133816,133873,387.1628,269.0115,416.7441,264.0172 M,0,133873,133930,416.7441,264.0172,446.3255,259.023 M,1,133930,134043,446.3255,259.023,462,257 M,1,134043,134157,462,257,477,254 M,0,134157,134213,477,254,506.6259,249.277 M,0,134213,134270,506.6259,249.277,536.2518,244.5541 M,1,134270,134384,536.2518,244.5541,548,336 M,0,134384,134440,548,336,518.3319,340.4502 M,0,134440,134497,518.3319,340.4502,488.6638,344.9004 M,1,134497,134612,488.6638,344.9004,335,390 M,0,134612,134668,335,390,364.6259,394.723 M,0,134668,134725,364.6259,394.723,394.2518,399.4459 M,1,134725,134839,394.2518,399.4459,406,308 M,1,134839,134953,406,308 M,0,134953,135009,406,308,376.4082,303.068 M,0,135009,135066,376.4082,303.068,346.8164,298.136 M,0,135066,135123,346.8164,298.136,376.4082,303.068 M,0,135123,135180,376.4082,303.068,406,308 M,1,135180,135293,406,308,185,246 M,0,135293,135349,185,246,214.6259,241.277 M,0,135349,135406,214.6259,241.277,244.2518,236.5541 M,1,135406,135521,244.2518,236.5541,256,328 M,0,135521,135577,256,328,226.3319,332.4502 M,0,135577,135634,226.3319,332.4502,196.6638,336.9004 M,0,135634,135691,196.6638,336.9004,226.3319,332.4502 M,0,135691,135748,226.3319,332.4502,256,328 M,1,135748,135975,256,328,374,80 M,1,135975,136088,374,80,390,89 M,1,136088,136202,390,89,406,113 M,1,136202,136316,406,113,405,150 M,1,136316,136429,405,150,378,181 M,0,136429,136485,378,181,404.7724,168.154 M,0,136485,136542,404.7724,168.154,434.4277,166.468 M,1,136542,136657,434.4277,166.468,300,221 M,1,136657,136771,300,221 M,1,136771,136884,300,221 M,0,136884,136940,300,221,273.2275,233.846 M,0,136940,136997,273.2275,233.846,243.5723,235.532 M,1,136997,137112,243.5723,235.532,383,261 M,0,137112,137168,383,261,410.9926,270.9221 M,0,137168,137225,410.9926,270.9221,433.1542,290.7013 M,1,137225,137339,433.1542,290.7013,303,137 M,0,137339,137395,303,137,274.9422,127.3484 M,0,137395,137452,274.9422,127.3484,252.972,107.404 M,1,137452,137566,252.972,107.404,179,168 M,0,137566,137622,179,168,149.5336,173.6333 M,0,137622,137679,149.5336,173.6333,120.0673,179.2665 M,1,137679,137793,120.0673,179.2665,76,259 M,1,137793,137907,76,259 M,1,137907,138021,76,259 M,0,138021,138077,76,259,101.4484,274.1596 M,0,138077,138134,101.4484,274.1596,117.8848,298.7058 M,0,138134,138191,117.8848,298.7058,121.7263,328.0698 M,0,138191,138248,121.7263,328.0698,111.6285,355.8829 M,1,138248,138362,111.6285,355.8829,179,168 M,0,138362,138418,179,168,208.8212,169.8337 M,0,138418,138475,208.8212,169.8337,232.3146,187.3652 M,0,138475,138532,232.3146,187.3652,256.7122,203.7552 M,0,138532,138589,256.7122,203.7552,286.4742,206.7261 M,1,138589,138703,286.4742,206.7261,262,301 M,0,138703,138759,262,301,233.5559,309.5052 M,0,138759,138816,233.5559,309.5052,210.86,328.6584 M,1,138816,138930,210.86,328.6584,280,381 M,0,138930,138986,280,381,265.6545,406.9923 M,0,138986,139043,265.6545,406.9923,262.7685,436.5525 M,1,139043,139157,262.7685,436.5525,349,330 M,1,139157,139271,349,330 M,1,139271,139384,349,330 M,0,139384,139440,349,330,378.5687,324.9311 M,0,139440,139497,378.5687,324.9311,408.1373,319.8622 M,1,139497,139612,408.1373,319.8622,461,248 M,1,139612,139725,461,248 M,1,139725,139839,461,248 M,0,139839,139895,461,248,490.5687,253.0689 M,0,139895,139952,490.5687,253.0689,520.1373,258.1378 M,1,139952,140066,520.1373,258.1378,426,84 M,0,140066,140122,426,84,401.2954,100.3572 M,0,140122,140179,401.2954,100.3572,385.9404,125.6021 M,0,140179,140236,385.9404,125.6021,383.2564,155.0947 M,0,140236,140293,383.2564,155.0947,393.896,182.8278 M,1,140293,140407,393.896,182.8278,324,228 M,1,140407,140521,324,228 M,0,140521,140577,324,228,339.3416,253.2452 M,0,140577,140634,339.3416,253.2452,340.6609,282.7677 M,1,140634,140748,340.6609,282.7677,250,303 M,0,140748,140804,250,303,234.6584,277.7548 M,0,140804,140861,234.6584,277.7548,233.3391,248.2323 M,1,140861,140975,233.3391,248.2323,152,374 M,0,140975,141031,152,374,180.7476,366.7317 M,0,141031,141088,180.7476,366.7317,209.8696,371.9304 M,0,141088,141145,209.8696,371.9304,234.0625,389.0881 M,0,141145,141202,234.0625,389.0881,248.1075,415.1755 M,1,141202,141316,248.1075,415.1755,142,283 M,1,141316,141430,142,283 M,0,141430,141486,142,283,112.9816,290.6114 M,0,141486,141543,112.9816,290.6114,83.96323,298.2228 M,1,141543,141657,83.96323,298.2228,64,220 M,0,141657,141713,64,220,92.91978,212.0221 M,0,141713,141770,92.91978,212.0221,121.8396,204.0443 M,1,141770,141884,121.8396,204.0443,225,168 M,0,141884,141940,225,168,198.2651,154.3895 M,0,141940,141997,198.2651,154.3895,171.5302,140.779 M,0,141997,142054,171.5302,140.779,182.4761,114.6175 M,0,142054,142111,182.4761,114.6175,195.7097,87.69408 M,1,142111,142225,195.7097,87.69408,292,59 M,1,142225,142339,292,59 M,0,142339,142395,292,59,318.8328,72.41641 M,0,142395,142452,318.8328,72.41641,345.6656,85.83282 M,0,142452,142509,345.6656,85.83282,332.9313,112.588 M,0,142509,142566,332.9313,112.588,319.6978,139.5114 M,1,142566,142680,319.6978,139.5114,295,214 M,1,142680,142793,295,214 M,1,142793,142906,295,214,272,246 M,1,142906,143020,272,246,269,285 M,1,143020,143133,269,285,287,320 M,1,143133,143248,287,320,325,340 M,0,143248,143304,325,340,345.7041,318.6947 M,0,143304,143361,345.7041,318.6947,372.8728,306.8012 M,1,143361,143475,372.8728,306.8012,429,245 M,0,143475,143531,429,245,458.6796,244.369 M,0,143531,143588,458.6796,244.369,486.1665,255.4098 M,1,143588,143703,486.1665,255.4098,549,324 M,0,143703,143759,549,324,543.7111,353.5301 M,0,143759,143816,543.7111,353.5301,538.4221,383.0602 M,1,143816,143930,538.4221,383.0602,448,369 M,1,143930,144043,448,369 M,1,144043,144157,448,369 M,0,144157,144213,448,369,453.289,398.5301 M,0,144213,144270,453.289,398.5301,458.5779,428.0602 M,1,144270,144384,458.5779,428.0602,491,209 M,0,144384,144440,491,209,485.711,238.5301 M,0,144440,144497,485.711,238.5301,480.4221,268.0602 M,1,144497,144612,480.4221,268.0602,362,247 M,0,144612,144668,362,247,367.289,276.5301 M,0,144668,144725,367.289,276.5301,372.5779,306.0602 M,1,144725,144839,372.5779,306.0602,305,369 M,1,144839,144953,305,369 M,1,144953,145066,305,369 M,0,145066,145122,305,369,285.9205,391.7507 M,0,145122,145179,285.9205,391.7507,259.5842,405.4085 M,0,145179,145236,259.5842,405.4085,229.9578,406.7792 M,0,145236,145293,229.9578,406.7792,202.0675,396.6484 M,1,145293,145407,202.0675,396.6484,178,303 M,0,145407,145463,178,303,196.4093,279.7248 M,0,145463,145520,196.4093,279.7248,222.4778,265.5986 M,0,145520,145577,222.4778,265.5986,252.0767,264.0364 M,0,145577,145634,252.0767,264.0364,279.91,274.2727 M,1,145634,145748,279.91,274.2727,359,210 M,0,145748,145804,359,210,342.8149,185.1513 M,0,145804,145861,342.8149,185.1513,338.7841,155.8689 M,1,145861,145975,338.7841,155.8689,461,108 M,1,145975,146089,461,108 M,1,146089,146203,461,108 M,0,146203,146259,461,108,446.9874,134.1432 M,0,146259,146316,446.9874,134.1432,423.367,151.931 M,1,146316,146430,423.367,151.931,321,71 M,0,146430,146486,321,71,350.4738,68.5446 M,0,146486,146543,350.4738,68.5446,377.5436,80.16202 M,1,146543,146657,377.5436,80.16202,338,155 M,0,146657,146713,338,155,308.5187,160.5544 M,0,146713,146770,308.5187,160.5544,279.0374,166.1089 M,1,146770,146884,279.0374,166.1089,210,220 M,0,146884,146940,210,220,180.5187,214.4456 M,0,146940,146997,180.5187,214.4456,151.0374,208.8911 M,1,146997,147112,151.0374,208.8911,346,287 M,0,147112,147168,346,287,316.5187,292.5544 M,0,147168,147225,316.5187,292.5544,287.0374,298.1089 M,1,147225,147339,287.0374,298.1089,174,371 M,0,147339,147395,174,371,203.3203,376.8654 M,0,147395,147452,203.3203,376.8654,226.8059,394.9459 M,0,147452,147509,226.8059,394.9459,251.6775,410.9981 M,0,147509,147566,251.6775,410.9981,281.1412,416.2964 M,1,147566,147680,281.1412,416.2964,363,370 M,1,147680,147793,363,370 M,0,147793,147849,363,370,359.5983,399.196 M,0,147849,147906,359.5983,399.196,372.0285,425.8137 M,1,147906,148021,372.0285,425.8137,462,409 M,0,148021,148077,462,409,465.4017,379.804 M,0,148077,148134,465.4017,379.804,452.9715,353.1863 M,1,148134,148248,452.9715,353.1863,392,290 M,0,148248,148304,392,290,376.3537,264.7043 M,0,148304,148361,376.3537,264.7043,370.7069,235.5461 M,0,148361,148418,370.7069,235.5461,376.194,206.2807 M,0,148418,148475,376.194,206.2807,392.5728,181.4605 M,1,148475,148589,392.5728,181.4605,492,91 M,1,148589,148703,492,91 M,0,148703,148759,492,91,478.0485,116.8919 M,0,148759,148816,478.0485,116.8919,452.7271,131.8498 M,1,148816,148930,452.7271,131.8498,526,215 M,0,148930,148986,526,215,497.6983,223.0618 M,0,148986,149043,497.6983,223.0618,469.2371,215.5627 M,1,149043,149157,469.2371,215.5627,473,338 M,0,149157,149213,473,338,447.1082,324.0485 M,0,149213,149270,447.1082,324.0485,432.1502,298.7271 M,1,149270,149384,432.1502,298.7271,344,371 M,1,149384,149498,344,371 M,0,149498,149554,344,371,335.0723,343.0027 M,0,149554,149611,335.0723,343.0027,342.2164,314.4866 M,0,149611,149668,342.2164,314.4866,335.0723,343.0027 M,0,149668,149725,335.0723,343.0027,344,371 M,1,149725,149839,344,371,222,320 M,0,149839,149895,222,320,235.3334,293.7945 M,0,149895,149952,235.3334,293.7945,260.3571,278.3322 M,1,149952,150066,260.3571,278.3322,197,193 M,0,150066,150122,197,193,224.9884,184.144 M,0,150122,150179,224.9884,184.144,253.3392,191.7437 M,1,150179,150293,253.3392,191.7437,330,138 M,1,150293,150407,330,138 M,1,150407,150521,330,138 M,0,150521,150577,330,138,325.7574,108.3015 M,0,150577,150634,325.7574,108.3015,321.5147,78.60303 M,1,150634,150748,321.5147,78.60303,448,177 M,0,150748,150804,448,177,452.2426,147.3015 M,0,150804,150861,452.2426,147.3015,456.4853,117.603 M,1,150861,150975,456.4853,117.603,262,251 M,0,150975,151031,262,251,257.7574,221.3015 M,0,151031,151088,257.7574,221.3015,253.5147,191.603 M,1,151088,151203,253.5147,191.603,427,316 M,1,151203,151316,427,316 M,1,151316,151430,427,316 M,0,151430,151486,427,316,431.2426,286.3015 M,0,151486,151543,431.2426,286.3015,435.4853,256.603 M,1,151543,151657,435.4853,256.603,331,344 M,0,151657,151713,331,344,347.9432,368.2664 M,0,151713,151770,347.9432,368.2664,351.7441,397.5023 M,1,151770,151884,351.7441,397.5023,507,368 M,0,151884,151940,507,368,483.7708,386.2795 M,0,151940,151997,483.7708,386.2795,472.261,413.3703 M,1,151997,152112,472.261,413.3703,342,259 M,0,152112,152168,342,259,312.6385,265.1564 M,0,152168,152225,312.6385,265.1564,283.277,271.3129 M,1,152225,152339,283.277,271.3129,210,207 M,1,152339,152453,210,207 M,1,152453,152566,210,207 M,0,152566,152622,210,207,186.1339,189.2772 M,0,152622,152679,186.1339,189.2772,170.4349,164.0912 M,0,152679,152736,170.4349,164.0912,165.4489,134.7588 M,0,152736,152793,165.4489,134.7588,172.2598,105.7609 M,1,152793,152907,172.2598,105.7609,262,75 M,0,152907,152963,262,75,285.747,92.87093 M,0,152963,153020,285.747,92.87093,301.1168,118.2392 M,0,153020,153077,301.1168,118.2392,305.546,147.6237 M,0,153077,153134,305.546,147.6237,298.2206,176.486 M,1,153134,153248,298.2206,176.486,186,318 M,0,153248,153304,186,318,176.1348,290.1898 M,0,153304,153361,176.1348,290.1898,153.833,271.07 M,1,153361,153475,153.833,271.07,273,356 M,0,153475,153531,273,356,282.8652,328.1898 M,0,153531,153588,282.8652,328.1898,305.167,309.07 M,1,153588,153703,305.167,309.07,371,245 M,0,153703,153759,371,245,399.9803,252.7553 M,0,153759,153816,399.9803,252.7553,428.9605,260.5106 M,1,153816,153930,428.9605,260.5106,496,203 M,1,153930,154043,496,203 M,1,154043,154157,496,203 M,0,154157,154213,496,203,509.9456,176.8858 M,0,154213,154270,509.9456,176.8858,510.6808,147.2814 M,1,154270,154384,510.6808,147.2814,526,295 M,0,154384,154440,526,295,512.0544,321.1142 M,0,154440,154497,512.0544,321.1142,511.3192,350.7185 M,1,154497,154612,511.3192,350.7185,371,245 M,0,154612,154668,371,245,342.2,253.4 M,0,154668,154725,342.2,253.4,319.2137,268.2555 M,0,154725,154782,319.2137,268.2555,298.5762,286.0526 M,0,154782,154839,298.5762,286.0526,270.067,295.3918 M,1,154839,154953,270.067,295.3918,184,255 M,1,154953,155066,184,255 M,0,155066,155122,184,255,168.2506,229.7873 M,0,155122,155179,168.2506,229.7873,162.9946,200.5172 M,1,155179,155293,162.9946,200.5172,223,142 M,0,155293,155349,223,142,229.3383,112.9417 M,0,155349,155406,229.3383,112.9417,245.8611,88.20315 M,1,155406,155521,245.8611,88.20315,425,164 M,0,155521,155577,425,164,395.2415,160.201 M,0,155577,155634,395.2415,160.201,365.483,156.4021 M,0,155634,155691,365.483,156.4021,335.7245,152.6031 M,0,155691,155748,335.7245,152.6031,305.966,148.8042 M,1,155748,155862,305.966,148.8042,379,259 M,1,155862,155975,379,259 M,0,155975,156031,379,259,397.3012,282.465 M,0,156031,156088,397.3012,282.465,406.4989,310.759 M,1,156088,156203,406.4989,310.759,474,368 M,0,156203,156259,474,368,469.9015,397.511 M,0,156259,156316,469.9015,397.511,456.2575,424.0016 M,1,156316,156430,456.2575,424.0016,249,375 M,0,156430,156486,249,375,278.7645,378.7518 M,0,156486,156543,278.7645,378.7518,308.5289,382.5037 M,0,156543,156600,308.5289,382.5037,338.2934,386.2555 M,0,156600,156657,338.2934,386.2555,368,390 M,1,156657,156771,368,390,176,331 M,1,156771,156884,176,331 M,0,156884,156940,176,331,162.2536,357.0032 M,0,156940,156997,162.2536,357.0032,163.9129,386.4008 M,1,156997,157112,163.9129,386.4008,252,290 M,0,157112,157168,252,290,236.0601,265.2352 M,0,157168,157225,236.0601,265.2352,209.8367,251.7753 M,1,157225,157339,209.8367,251.7753,98,219 M,1,157339,157452,98,219,129,229 M,1,157452,157566,129,229,129,261 M,1,157566,157679,129,261,98,271 M,1,157679,157793,98,271,80,245 M,1,157793,157907,80,245,320,248 M,1,159612,160066,320,248,224,191 M,1,160066,160293,224,191,310,174 M,1,160293,160521,310,174,198,278 M,1,160521,160634,198,278,185,275 M,1,160634,160748,185,275,172,273 M,1,160748,160861,172,273,159,271 M,1,160861,160975,159,271,146,270 M,1,160975,161203,146,270,98,352 M,1,161203,161316,98,352 M,1,161316,161430,98,352 M,0,161430,161486,98,352,117.1831,356.5895 M,0,161486,161543,117.1831,356.5895,132.8134,368.4471 M,0,161543,161600,132.8134,368.4471,142.8179,385.3753 M,0,161600,161657,142.8179,385.3753,144.4859,405.0934 M,1,161657,161771,144.4859,405.0934,145,415 M,0,161771,161827,145,415,158.2813,400.4271 M,0,161827,161884,158.2813,400.4271,176.2506,392.5785 M,0,161884,161941,176.2506,392.5785,195.9035,392.2108 M,0,161941,161998,195.9035,392.2108,213.8243,400.5902 M,1,161998,162112,213.8243,400.5902,227,414 M,0,162112,162168,227,414,246.8502,411.5569 M,0,162168,162225,246.8502,411.5569,266.7004,409.1138 M,0,162225,162282,266.7004,409.1138,286.5507,406.6707 M,0,162282,162339,286.5507,406.6707,306.4009,404.2276 M,0,162339,162396,306.4009,404.2276,326.2511,401.7845 M,0,162396,162452,326.2511,401.7845,346.1013,399.3414 M,1,162452,162566,346.1013,399.3414,396,327 M,1,162566,162680,396,327 M,1,162680,162793,396,327 M,0,162793,162849,396,327,415.6116,330.9223 M,0,162849,162906,415.6116,330.9223,435.2232,334.8446 M,0,162906,162963,435.2232,334.8446,415.6116,330.9223 M,0,162963,163020,415.6116,330.9223,396,327 M,1,163020,163248,396,327,305,231 M,1,163248,163362,305,231 M,0,163362,163418,305,231,291.0772,216.9531 M,0,163418,163475,291.0772,216.9531,283.8068,198.5517 M,1,163475,163589,283.8068,198.5517,397,211 M,0,163589,163645,397,211,403.3812,192.2611 M,0,163645,163702,403.3812,192.2611,402.1085,172.5001 M,1,163702,163816,402.1085,172.5001,330,124 M,1,163816,164043,330,124,116,202 M,1,164043,164157,116,202 M,0,164157,164213,116,202,102.0772,216.0469 M,0,164213,164270,102.0772,216.0469,94.80678,234.4483 M,1,164270,164384,94.80678,234.4483,208,222 M,0,164384,164440,208,222,214.393,240.6978 M,0,164440,164497,214.393,240.6978,212.8661,260.4109 M,1,164497,164611,212.8661,260.4109,141,309 M,1,164611,164839,141,309,225,394 M,1,164839,164953,225,394 M,1,164953,165066,225,394 M,0,165066,165122,225,394,239.6324,380.7133 M,0,165122,165179,239.6324,380.7133,258.1368,374.0428 M,0,165179,165236,258.1368,374.0428,277.7333,374.9375 M,0,165236,165293,277.7333,374.9375,295.819,382.7653 M,1,165293,165407,295.819,382.7653,315,398 M,0,165407,165463,315,398,329.6324,411.2867 M,0,165463,165520,329.6324,411.2867,348.1368,417.9572 M,0,165520,165577,348.1368,417.9572,367.7333,417.0625 M,0,165577,165634,367.7333,417.0625,385.819,409.2347 M,1,165634,165748,385.819,409.2347,429,291 M,0,165748,165804,429,291,413.0669,302.8629 M,0,165804,165861,413.0669,302.8629,401.2247,318.7467 M,0,165861,165918,401.2247,318.7467,394.0656,337.2454 M,0,165918,165975,394.0656,337.2454,393.2631,357.0705 M,0,165975,166032,393.2631,357.0705,398.1575,376.2574 M,0,166032,166088,398.1575,376.2574,408.0368,393.4626 M,1,166088,166203,408.0368,393.4626,494,428 M,1,166203,166316,494,428 M,1,166316,166430,494,428 M,0,166430,166486,494,428,513.7818,425.0538 M,0,166486,166543,513.7818,425.0538,533.5636,422.1075 M,0,166543,166600,533.5636,422.1075,513.7818,425.0538 M,0,166600,166657,513.7818,425.0538,494,428 M,1,166657,166884,494,428,427,292 M,1,166884,166998,427,292 M,0,166998,167054,427,292,407.1483,294.4308 M,0,167054,167111,407.1483,294.4308,387.2965,296.8616 M,0,167111,167168,387.2965,296.8616,367.4448,299.2925 M,0,167168,167225,367.4448,299.2925,347.5931,301.7233 M,1,167225,167339,347.5931,301.7233,336,311 M,0,167339,167395,336,311,322.0995,296.6202 M,0,167395,167452,322.0995,296.6202,308.1991,282.2405 M,0,167452,167509,308.1991,282.2405,312.9487,263.7206 M,0,167509,167566,312.9487,263.7206,319.4589,244.8098 M,1,167566,167793,319.4589,244.8098,258,140 M,1,167793,167906,258,140,245,143 M,1,167906,168020,245,143,232,145 M,1,168020,168133,232,145,219,147 M,1,168133,168247,219,147,206,148 M,1,168247,168475,206,148,135,244 M,1,168475,168589,135,244 M,1,168589,168703,135,244 M,0,168703,168759,135,244,153.7503,250.2012 M,0,168759,168816,153.7503,250.2012,168.5664,263.1108 M,0,168816,168873,168.5664,263.1108,177.7939,280.5404 M,0,168873,168930,177.7939,280.5404,178.7608,300.3307 M,1,168930,169043,178.7608,300.3307,194,308 M,0,169043,169099,194,308,202.4568,325.8508 M,0,169099,169156,202.4568,325.8508,203.4569,345.484 M,0,169156,169213,203.4569,345.484,197.3081,364.1891 M,0,169213,169270,197.3081,364.1891,183.9498,378.8155 M,1,169270,169384,183.9498,378.8155,96,405 M,0,169384,169440,96,405,115.2802,399.8749 M,0,169440,169497,115.2802,399.8749,135.1377,398.1405 M,0,169497,169554,135.1377,398.1405,154.9895,399.8289 M,0,169554,169611,154.9895,399.8289,174.1876,405.1929 M,0,169611,169668,174.1876,405.1929,192.1803,413.7505 M,0,169668,169724,192.1803,413.7505,208.2634,425.5271 M,1,169724,169839,208.2634,425.5271,289,358 M,1,169839,169953,289,358,301,328 M,1,169953,170066,301,328,333,331 M,1,170066,170180,333,331,340,362 M,1,170180,170293,340,362,313,378 M,0,170293,170349,313,378,305.7757,396.2251 M,0,170349,170406,305.7757,396.2251,308.5536,415.4695
Sprite,Foreground,Centre,"sb/sbar.png",0,0 V,0,88703,,1,10 F,2,88503,88903,0,0.25 C,0,88703,,136,207,239 F,0,103248,,0.25,0 P,0,88703,103448,A M,1,88703,88817,266,176,251,187 M,1,88817,88930,251,187,237,217 M,1,88930,89044,237,217,251,250 M,1,89044,89157,251,250,284,271 M,0,89157,89213,284,271,255.6522,263.4486 M,0,89213,89270,255.6522,263.4486,227.9395,272.757 M,1,89270,89384,227.9395,272.757,93,308 M,1,89384,89498,93,308 M,1,89498,89612,93,308 M,0,89612,89668,93,308,117.2572,291.4957 M,0,89668,89725,117.2572,291.4957,146.6475,290.92 M,1,89725,89839,146.6475,290.92,265,150 M,0,89839,89895,265,150,239.3626,164.1749 M,0,89895,89952,239.3626,164.1749,226.3065,190.2845 M,1,89952,90066,226.3065,190.2845,81,184 M,0,90066,90122,81,184,109.7344,189.5424 M,0,90122,90179,109.7344,189.5424,130,210 M,1,90179,90293,130,210,203,354 M,1,90293,90407,203,354 M,1,90407,90521,203,354 M,0,90521,90577,203,354,226.4423,372.3627 M,0,90577,90634,226.4423,372.3627,254.6095,382.0855 M,0,90634,90691,254.6095,382.0855,284.3599,380.8291 M,0,90691,90748,284.3599,380.8291,312,370 M,1,90748,90862,312,370,332,230 M,0,90862,90918,332,230,308.812,211.3158 M,0,90918,90975,308.812,211.3158,280.7847,201.3807 M,0,90975,91032,280.7847,201.3807,250.9971,201.67 M,0,91032,91089,250.9971,201.67,223.1504,212.3536 M,1,91089,91203,223.1504,212.3536,366,305 M,0,91203,91259,366,305,395.4344,299.2023 M,0,91259,91316,395.4344,299.2023,424.8689,293.4046 M,1,91316,91430,424.8689,293.4046,459,167 M,1,91430,91543,459,167 M,1,91543,91657,459,167 M,0,91657,91713,459,167,434.791,183.9336 M,0,91713,91770,434.791,183.9336,421.7423,210.4483 M,1,91770,91884,421.7423,210.4483,514,306 M,0,91884,91940,514,306,511.1448,276.5904 M,0,91940,91997,511.1448,276.5904,495.1153,251.7838 M,1,91997,92112,495.1153,251.7838,369,314 M,0,92112,92168,369,314,398.4344,308.2023 M,0,92168,92225,398.4344,308.2023,427.8689,302.4046 M,1,92225,92339,427.8689,302.4046,468,374 M,0,92339,92395,468,374,497.4746,379.59 M,0,92395,92452,497.4746,379.59,526,385 M,1,92452,92566,526,385,421,210 M,0,92566,92622,421,210,391.5082,215.4985 M,0,92622,92679,391.5082,215.4985,362.0164,220.9969 M,1,92679,92793,362.0164,220.9969,250,323 M,0,92793,92849,250,323,277.9734,333.4864 M,0,92849,92906,277.9734,333.4864,297.1566,355.932 M,0,92906,92963,297.1566,355.932,315.3057,379.2716 M,0,92963,93020,315.3057,379.2716,343,390 M,1,93020,93134,343,390,174,296 M,1,93134,93248,174,296 M,0,93248,93304,174,296,144.3686,294.4587 M,0,93304,93361,144.3686,294.4587,116.7117,305.2283 M,1,93361,93475,116.7117,305.2283,136,393 M,0,93475,93531,136,393,165.6314,394.5413 M,0,93531,93588,165.6314,394.5413,193.2883,383.7717 M,1,93588,93703,193.2883,383.7717,250,323 M,0,93703,93759,250,323,251.8427,293.0566 M,0,93759,93816,251.8427,293.0566,253.6853,263.1133 M,0,93816,93873,253.6853,263.1133,255.528,233.1699 M,0,93873,93930,255.528,233.1699,257.3707,203.2266 M,1,93930,94043,257.3707,203.2266,258,188 M,1,94043,94157,258,188,260,173 M,0,94157,94213,260,173,289.8165,176.3129 M,0,94213,94270,289.8165,176.3129,319.633,179.6259 M,1,94270,94384,319.633,179.6259,330,93 M,0,94384,94440,330,93,300.2021,89.52357 M,0,94440,94497,300.2021,89.52357,270.4042,86.04716 M,1,94497,94612,270.4042,86.04716,402,147 M,0,94612,94668,402,147,431.8165,143.6871 M,0,94668,94725,431.8165,143.6871,461.633,140.3741 M,1,94725,94839,461.633,140.3741,472,227 M,1,94839,94953,472,227 M,0,94953,95009,472,227,442.1489,229.9851 M,0,95009,95066,442.1489,229.9851,412.2978,232.9702 M,0,95066,95123,412.2978,232.9702,442.1489,229.9851 M,0,95123,95180,442.1489,229.9851,472,227 M,1,95180,95293,472,227,244,349 M,0,95293,95349,244,349,273.8165,352.313 M,0,95349,95406,273.8165,352.313,303.633,355.6259 M,1,95406,95520,303.633,355.6259,314,269 M,0,95520,95576,314,269,284.2021,265.5236 M,0,95576,95633,284.2021,265.5236,254.4042,262.0472 M,0,95633,95690,254.4042,262.0472,284.2021,265.5236 M,0,95690,95747,284.2021,265.5236,314,269 M,1,95747,95975,314,269,137,281 M,1,95975,96088,137,281,121,272 M,1,96088,96202,121,272,105,248 M,1,96202,96316,105,248,106,211 M,1,96316,96429,106,211,133,180 M,0,96429,96485,133,180,106.2276,192.846 M,0,96485,96542,106.2276,192.846,76.5723,194.532 M,1,96542,96657,76.5723,194.532,211,140 M,1,96657,96771,211,140 M,1,96771,96884,211,140 M,0,96884,96940,211,140,237.7724,127.154 M,0,96940,96997,237.7724,127.154,267.4277,125.468 M,1,96997,97112,267.4277,125.468,128,100 M,0,97112,97168,128,100,100.0074,90.07787 M,0,97168,97225,100.0074,90.07787,77.84582,70.29871 M,1,97225,97339,77.84582,70.29871,208,224 M,0,97339,97395,208,224,236.0578,233.6516 M,0,97395,97452,236.0578,233.6516,258.028,253.596 M,1,97452,97566,258.028,253.596,347,165 M,0,97566,97622,347,165,351.777,135.3828 M,0,97622,97679,351.777,135.3828,356.554,105.7655 M,1,97679,97793,356.554,105.7655,455,219 M,1,97793,97907,455,219 M,1,97907,98021,455,219 M,0,98021,98077,455,219,427.5245,230.8197 M,0,98077,98134,427.5245,230.8197,409.1872,253.8374 M,0,98134,98191,409.1872,253.8374,393.7755,279.2539 M,0,98191,98248,393.7755,279.2539,368.9122,295.8297 M,1,98248,98362,368.9122,295.8297,516,163 M,0,98362,98418,516,163,497.0608,140.0646 M,0,98418,98475,497.0608,140.0646,487.4402,111.9528 M,0,98475,98532,487.4402,111.9528,489.2683,82.29787 M,0,98532,98589,489.2683,82.29787,501.636,55.32971 M,1,98589,98703,501.636,55.32971,536,244 M,0,98703,98759,536,244,559.3031,262.2898 M,0,98759,98816,559.3031,262.2898,572.4476,288.8561 M,1,98816,98930,572.4476,288.8561,491,344 M,0,98930,98986,491,344,467.8655,325.4347 M,0,98986,99043,467.8655,325.4347,454.049,299.1512 M,1,99043,99157,454.049,299.1512,343,231 M,1,99157,99271,343,231 M,1,99271,99384,343,231 M,0,99384,99440,343,231,313.385,235.7907 M,0,99440,99497,313.385,235.7907,283.77,240.5813 M,1,99497,99612,283.77,240.5813,214,300 M,0,99612,99668,214,300,184.385,295.2094 M,0,99668,99725,184.385,295.2094,154.77,290.4187 M,1,99725,99839,154.77,290.4187,265,157 M,0,99839,99895,265,157,294.5782,151.9868 M,0,99895,99952,294.5782,151.9868,324,147 M,1,99952,100066,324,147,390,292 M,0,100066,100122,390,292,367.7197,311.6994 M,0,100122,100179,367.7197,311.6994,354.0029,338.0283 M,0,100179,100236,354.0029,338.0283,351.033,367.6245 M,0,100236,100293,351.033,367.6245,359.7397,396.0424 M,1,100293,100407,359.7397,396.0424,445,359 M,0,100407,100463,445,359,474.3893,352.9776 M,0,100463,100520,474.3893,352.9776,503.7786,346.9552 M,0,100520,100577,503.7786,346.9552,533.1678,340.9328 M,0,100577,100634,533.1678,340.9328,562.5572,334.9104 M,1,100634,100748,562.5572,334.9104,518,218 M,0,100748,100804,518,218,494.7815,235.8381 M,0,100804,100861,494.7815,235.8381,485.7483,263.6788 M,1,100861,100975,485.7483,263.6788,414,210 M,0,100975,101031,414,210,409.4667,180.3445 M,0,101031,101088,409.4667,180.3445,404.9333,150.689 M,0,101088,101145,404.9333,150.689,400.4,121.0335 M,0,101145,101202,400.4,121.0335,395.8667,91.37798 M,1,101202,101316,395.8667,91.37798,497,60 M,1,101316,101430,497,60 M,0,101430,101486,497,60,491.7403,89.53532 M,0,101486,101543,491.7403,89.53532,486.4806,119.0706 M,1,101543,101657,486.4806,119.0706,331,217 M,0,101657,101713,331,217,336.0132,246.5782 M,0,101713,101770,336.0132,246.5782,341,276 M,1,101770,101884,341,276,423,328 M,1,101884,101998,423,328 M,1,101998,102112,423,328 M,0,102112,102168,423,328,417.5015,357.4918 M,0,102168,102225,417.5015,357.4918,412.0031,386.9836 M,1,102225,102339,412.0031,386.9836,260,291 M,0,102339,102395,260,291,254.5902,261.4918 M,0,102395,102452,254.5902,261.4918,249.1803,231.9836 M,1,102452,102566,249.1803,231.9836,506,344 M,0,102566,102622,506,344,500.5015,373.4918 M,0,102622,102679,500.5015,373.4918,495.0031,402.9836 M,1,102679,102793,495.0031,402.9836,460,258 M,1,102793,102907,460,258,425,246 M,1,102907,103021,425,246,425,210 M,1,103021,103134,425,210,460,199
Sprite,Foreground,Centre,"sb/sbar.png",0,0 V,0,44158,,1,10 F,2,43958,44358,0,0.25 C,0,44158,,136,207,239 F,0,73249,,0.25,0 P,0,44158,73449,A M,1,44158,44272,260,225,275,236 M,1,44272,44385,275,236,289,266 M,1,44385,44499,289,266,275,299 M,1,44499,44612,275,299,242,320 M,0,44612,44668,242,320,270.3478,312.4486 M,0,44668,44725,270.3478,312.4486,298.0605,321.757 M,1,44725,44840,298.0605,321.757,443,295 M,1,44840,44953,443,295 M,1,44953,45067,443,295 M,0,45067,45123,443,295,413.6722,294.3585 M,0,45123,45180,413.6722,294.3585,388.8544,310.0779 M,1,45180,45294,388.8544,310.0779,256,439 M,0,45294,45350,256,439,270.1749,413.3626 M,0,45350,45407,270.1749,413.3626,296.2845,400.3065 M,1,45407,45522,296.2845,400.3065,454,415 M,0,45522,45578,454,415,433.6063,393.9516 M,0,45578,45635,433.6063,393.9516,404.867,387.9552 M,1,45635,45749,404.867,387.9552,336,251 M,1,45749,45862,336,251 M,1,45862,45976,336,251 M,0,45976,46032,336,251,312.9462,232.3811 M,0,46032,46089,312.9462,232.3811,299.7742,205.8642 M,0,46089,46146,299.7742,205.8642,300.1162,176.2709 M,0,46146,46203,300.1162,176.2709,312.9301,149.642 M,1,46203,46317,312.9301,149.642,431,125 M,0,46317,46373,431,125,453.8016,143.9184 M,0,46373,46430,453.8016,143.9184,466.4878,170.6449 M,0,46430,46487,466.4878,170.6449,465.6076,200.2128 M,0,46487,46544,465.6076,200.2128,452.1364,226.4815 M,1,46544,46658,452.1364,226.4815,364,90 M,1,46658,46885,364,90,280,320 M,0,46885,46941,280,320,250.0802,319.6299 M,0,46941,46998,250.0802,319.6299,220.6998,325.2164 M,0,46998,47055,220.6998,325.2164,193.0875,336.7529 M,0,47055,47112,193.0875,336.7529,168.6277,353.9796 M,1,47112,47226,168.6277,353.9796,361,212 M,1,47226,47340,361,212 M,0,47340,47396,361,212,358.3632,241.8839 M,0,47396,47453,358.3632,241.8839,355.7264,271.7678 M,0,47453,47510,355.7264,271.7678,358.3632,241.8839 M,0,47510,47567,358.3632,241.8839,361,212 M,1,47567,47794,361,212,288,379 M,0,47794,47850,288,379,283.6352,349.3192 M,0,47850,47907,283.6352,349.3192,279.2704,319.6385 M,1,47907,48022,279.2704,319.6385,480,286 M,0,48022,48078,480,286,483.9649,256.2632 M,0,48078,48135,483.9649,256.2632,487.9298,226.5263 M,1,48135,48249,487.9298,226.5263,351,130 M,0,48249,48305,351,130,322.6523,139.2941 M,0,48305,48362,322.6523,139.2941,303.8593,162.0647 M,0,48362,48419,303.8593,162.0647,284.8478,184.8018 M,0,48419,48476,284.8478,184.8018,257.4488,196.7127 M,1,48476,48590,257.4488,196.7127,179,107 M,1,48590,48703,179,107 M,0,48703,48759,179,107,208.5374,106.2673 M,0,48759,48816,208.5374,106.2673,235.1645,119.1573 M,1,48816,48931,235.1645,119.1573,200,251 M,0,48931,48987,200,251,170.4501,251.6546 M,0,48987,49044,170.4501,251.6546,143.8623,238.6731 M,1,49044,49158,143.8623,238.6731,257,197 M,0,49158,49214,257,197,274.2632,221.1606 M,0,49214,49271,274.2632,221.1606,280.7968,250.0619 M,0,49271,49328,280.7968,250.0619,275.1717,279.2174 M,0,49328,49385,275.1717,279.2174,257.9111,303.3502 M,1,49385,49499,257.9111,303.3502,246,315 M,1,49499,49612,246,315,233,326 M,0,49612,49668,233,326,215.7319,350.2198 M,0,49668,49725,215.7319,350.2198,208.5006,379.0032 M,1,49725,49840,208.5006,379.0032,309,383 M,0,49840,49896,309,383,313.1723,412.4129 M,0,49896,49953,313.1723,412.4129,328.4519,437.7982 M,1,49953,50067,328.4519,437.7982,416,369 M,0,50067,50123,416,369,440.2198,386.2681 M,0,50123,50180,440.2198,386.2681,469.0032,393.4994 M,1,50180,50294,469.0032,393.4994,473,293 M,1,50294,50408,473,293 M,0,50408,50464,473,293,502.3022,287.9031 M,0,50464,50521,502.3022,287.9031,527.6227,272.4316 M,0,50521,50578,527.6227,272.4316,502.3022,287.9031 M,0,50578,50635,502.3022,287.9031,473,293 M,1,50635,50749,473,293,470,195 M,0,50749,50805,470,195,487.2681,170.7802 M,0,50805,50862,487.2681,170.7802,494.4995,141.9968 M,1,50862,50976,494.4995,141.9968,396,124 M,0,50976,51032,396,124,391.26,94.63442 M,0,51032,51089,391.26,94.63442,376.093,69.12782 M,0,51089,51146,376.093,69.12782,391.26,94.63441 M,0,51146,51203,391.26,94.63441,396,124 M,1,51203,51431,396,124,276,144 M,1,51431,51544,276,144,260,153 M,1,51544,51658,260,153,244,177 M,1,51658,51772,244,177,245,214 M,1,51772,51885,245,214,272,245 M,0,51885,51941,272,245,245.2276,232.154 M,0,51941,51998,245.2276,232.154,215.5723,230.468 M,1,51998,52112,215.5723,230.468,73,265 M,1,52112,52226,73,265 M,1,52226,52340,73,265 M,0,52340,52396,73,265,96.08743,246.4158 M,0,52396,52453,96.08743,246.4158,124.8203,239.0135 M,1,52453,52567,124.8203,239.0135,258,362 M,0,52567,52623,258,362,248.09,334.005 M,0,52623,52680,248.09,334.005,228.3022,311.8261 M,1,52680,52794,228.3022,311.8261,110,377 M,0,52794,52850,110,377,113.2492,347.5636 M,0,52850,52907,113.2492,347.5636,128.7421,322.2852 M,1,52907,53022,128.7421,322.2852,185,377 M,0,53022,53078,185,377,187.8443,406.8649 M,0,53078,53135,187.8443,406.8649,190.6885,436.7297 M,1,53135,53249,190.6885,436.7297,323,245 M,1,53249,53362,323,245 M,1,53362,53476,323,245 M,0,53476,53532,323,245,294.5748,254.0075 M,0,53532,53589,294.5748,254.0075,274.7427,276.0699 M,0,53589,53646,274.7427,276.0699,254.6489,298.0399 M,0,53646,53703,254.6489,298.0399,227.633,310.8347 M,1,53703,53817,227.633,310.8347,132,147 M,0,53817,53873,132,147,160.9269,153.8976 M,0,53873,53930,160.9269,153.8976,185.3917,170.7111 M,0,53930,53987,185.3917,170.7111,201.8607,195.4789 M,0,53987,54044,201.8607,195.4789,207.4064,224.6766 M,1,54044,54158,207.4064,224.6766,282,169 M,0,54158,54214,282,169,288.4803,140.2649 M,0,54214,54271,288.4803,140.2649,308.4186,118.5927 M,1,54271,54385,308.4186,118.5927,388,128 M,0,54385,54441,388,128,403.6862,152.8945 M,0,54441,54498,403.6862,152.8945,404.4058,182.2983 M,1,54498,54612,404.4058,182.2983,349,327 M,1,54612,54726,349,327 M,1,54726,54840,349,327 M,0,54840,54896,349,327,378.5082,321.5901 M,0,54896,54953,378.5082,321.5901,408.0164,316.1803 M,1,54953,55067,408.0164,316.1803,473,250 M,1,55067,55181,473,250 M,1,55181,55295,473,250 M,0,55295,55351,473,250,502.5082,255.4098 M,0,55351,55408,502.5082,255.4098,532.0164,260.8197 M,1,55408,55522,532.0164,260.8197,444,393 M,0,55522,55578,444,393,414.4191,397.9968 M,0,55578,55635,414.4191,397.9968,384.8381,402.9936 M,0,55635,55692,384.8381,402.9936,355.2572,407.9904 M,0,55692,55749,355.2572,407.9904,325.6762,412.9871 M,1,55749,55862,325.6762,412.9871,270,356 M,1,55862,55976,270,356 M,0,55976,56032,270,356,251.701,332.727 M,0,56032,56089,251.701,332.727,245.8661,303.6954 M,1,56089,56203,245.8661,303.6954,324,274 M,0,56203,56259,324,274,342.299,297.273 M,0,56259,56316,342.299,297.273,348.1339,326.3046 M,1,56316,56431,348.1339,326.3046,260,224 M,0,56431,56487,260,224,230.234,225.0256 M,0,56487,56544,230.234,225.0256,202.4806,235.724 M,0,56544,56601,202.4806,235.724,179.9615,255.2427 M,0,56601,56658,179.9615,255.2427,165.598,281.3877 M,1,56658,56772,165.598,281.3877,214,129 M,1,56772,56885,214,129 M,0,56885,56941,214,129,243.4174,134.8835 M,0,56941,56998,243.4174,134.8835,272.8348,140.767 M,1,56998,57112,272.8348,140.767,338,195 M,0,57112,57168,338,195,367.4174,189.1165 M,0,57168,57225,367.4174,189.1165,396.8348,183.233 M,1,57225,57340,396.8348,183.233,459,56 M,0,57340,57396,459,56,440.4435,79.00801 M,0,57396,57453,440.4435,79.00801,434.8635,108.0484 M,0,57453,57510,434.8635,108.0484,440.4435,79.00802 M,0,57510,57567,440.4435,79.00802,459,56 M,1,57567,57681,459,56,413,266 M,1,57681,57794,413,266 M,0,57794,57850,413,266,383.5082,271.4985 M,0,57850,57907,383.5082,271.4985,354.0164,276.9969 M,1,57907,58022,354.0164,276.9969,296,337 M,0,58022,58078,296,337,266.6019,331.0207 M,0,58078,58135,266.6019,331.0207,237.2038,325.0414 M,1,58135,58249,237.2038,325.0414,183,250 M,1,58249,58362,183,250,162,220 M,1,58362,58476,162,220,184,191 M,1,58476,58590,184,191,218,203 M,1,58590,58703,218,203,217,239 M,1,58703,65749,217,239,154,121 M,1,65749,65862,154,121 M,1,65862,65976,154,121 M,0,65976,66032,154,121,172.4577,128.0511 M,0,66032,66089,172.4577,128.0511,186.7726,141.5329 M,0,66089,66146,186.7726,141.5329,195.4719,159.2555 M,0,66146,66203,195.4719,159.2555,195.9332,179.0739 M,1,66203,66317,195.9332,179.0739,211,186 M,0,66317,66373,211,186,218.4444,204.3113 M,0,66373,66430,218.4444,204.3113,218.5565,223.9888 M,0,66430,66487,218.5565,223.9888,211.7656,242.4921 M,0,66487,66544,211.7656,242.4921,198.0671,256.8162 M,1,66544,66658,198.0671,256.8162,97,340 M,0,66658,66714,97,340,112.8525,327.8058 M,0,66714,66771,112.8525,327.8058,129.8282,322.2761 M,0,66771,66828,129.8282,322.2761,148.8019,328.6006 M,0,66828,66885,148.8019,328.6006,167.7755,334.9252 M,0,66885,66942,167.7755,334.9252,186.7492,341.2497 M,0,66942,66998,186.7492,341.2497,205.7229,347.5743 M,1,66998,67112,205.7229,347.5743,281,304 M,1,67112,67226,281,304 M,1,67226,67340,281,304 M,0,67340,67396,281,304,300.3247,298.8467 M,0,67396,67453,300.3247,298.8467,319.6494,293.6935 M,0,67453,67510,319.6494,293.6935,300.3247,298.8467 M,0,67510,67567,300.3247,298.8467,281,304 M,1,67567,67794,281,304,384,198 M,1,67794,67908,384,198 M,0,67908,67964,384,198,383.622,178.1528 M,0,67964,68021,383.622,178.1528,377.1862,159.4379 M,0,68021,68078,377.1862,159.4379,365.3319,143.634 M,0,68078,68135,365.3319,143.634,349.4256,131.8149 M,1,68135,68249,349.4256,131.8149,268,118 M,0,68249,68305,268,118,287.9193,117.7475 M,0,68305,68362,287.9193,117.7475,307.2795,113.178 M,0,68362,68419,307.2795,113.178,325.2534,104.6602 M,0,68419,68476,325.2534,104.6602,340.6473,92.04996 M,0,68476,68533,340.6473,92.04996,353.1541,76.55922 M,0,68533,68589,353.1541,76.55922,361.4522,58.46174 M,1,68589,68703,361.4522,58.46174,437,97 M,1,68703,68817,437,97,450,100 M,1,68817,68930,450,100,463,102 M,1,68930,69043,463,102,476,104 M,1,69043,69158,476,104,489,107 M,1,69158,69385,489,107,400,273 M,1,69385,69499,400,273 M,1,69499,69612,400,273 M,0,69612,69668,400,273,385.4307,286.4595 M,0,69668,69725,385.4307,286.4595,375.8091,303.7358 M,0,69725,69782,375.8091,303.7358,371.8256,323.0996 M,0,69782,69839,371.8256,323.0996,374.3888,342.8019 M,1,69839,69953,374.3888,342.8019,358,345 M,0,69953,70009,358,345,357.3671,364.8244 M,0,70009,70066,357.3671,364.8244,362.9071,383.8087 M,0,70066,70123,362.9071,383.8087,373.9379,400.2015 M,0,70123,70180,373.9379,400.2015,389.7208,412.2682 M,1,70180,70294,389.7208,412.2682,468,410 M,0,70294,70350,468,410,448.6388,415.0144 M,0,70350,70407,448.6388,415.0144,429.2776,420.0288 M,0,70407,70464,429.2776,420.0288,409.9164,425.0432 M,0,70464,70521,409.9164,425.0432,390.5552,430.0576 M,0,70521,70578,390.5552,430.0576,371.194,435.0721 M,0,70578,70634,371.194,435.0721,351.8329,440.0865 M,1,70634,70749,351.8329,440.0865,275,374 M,1,70749,70862,275,374 M,1,70862,70976,275,374 M,0,70976,71032,275,374,277.5868,354.168 M,0,71032,71089,277.5868,354.168,280.1736,334.336 M,0,71089,71146,280.1736,334.336,277.5868,354.168 M,0,71146,71203,277.5868,354.168,275,374 M,1,71203,71431,275,374,183,179 M,1,71431,71544,183,179 M,0,71544,71600,183,179,187.7688,198.2392 M,0,71600,71657,187.7688,198.2392,199.0676,214.5326 M,1,71657,71772,199.0676,214.5326,291,197 M,0,71772,71828,291,197,295.9539,177.7729 M,0,71828,71885,295.9539,177.7729,294.2277,157.9896 M,1,71885,72112,294.2277,157.9896,378,273 M,1,72112,72226,378,273 M,0,72226,72282,378,273,382.7688,253.7608 M,0,72282,72339,382.7688,253.7608,394.0676,237.4674 M,1,72339,72453,394.0676,237.4674,486,255 M,0,72453,72509,486,255,490.9974,274.1852 M,0,72509,72566,490.9974,274.1852,489.0163,293.9185 M,1,72566,72794,489.0163,293.9185,256,399 M,1,72794,72908,256,399 M,1,72908,73022,256,399 M,0,73022,73078,256,399,253.1716,379.201 M,0,73078,73135,253.1716,379.201,250.3431,359.402
//Storyboard Sound Samples

[TimingPoints]
522,454.545454545455,4,2,1,40,1,0
7794,-100,4,2,1,50,0,0
15067,-100,4,2,1,65,0,0
29612,-100,4,2,1,60,0,0
44158,-66.6666666666667,4,2,1,70,0,1
58703,-100,4,2,1,65,0,0
65976,-100,4,2,1,65,0,0
73249,-100,4,2,1,60,0,0
86431,-100,4,2,1,50,0,0
88703,454.545454545455,4,2,1,70,1,0
89157,-66.6666666666667,4,2,1,70,0,1
103248,-100,4,2,1,70,0,0
103249,-100,4,2,1,70,0,0
103286,-100,4,2,1,35,0,0
113703,-100,4,2,1,50,0,0
128703,-66.6666666666667,4,2,1,70,0,1
142339,-66.6666666666667,4,2,1,70,0,0
143248,-66.6666666666667,4,2,1,70,0,1
157793,-100,4,2,1,65,0,0
157794,-100,4,2,1,65,0,0
170521,-200,4,2,1,65,0,0

[Colours]
Combo1 : 164,170,200
Combo2 : 179,206,187
Combo3 : 196,197,165
Combo4 : 197,167,167

[HitObjects]
42,56,7794,6,0,P|72:81|87:127,1,80,4|0,3:2|0:0,0:0:0:0:
210,13,8249,2,0,P|196:49|206:96,1,80,0|2,3:0|0:0,0:0:0:0:
158,218,8703,6,0,L|-15:195,2,160,0|2|0,3:0|3:2|3:2,0:0:0:0:
116,4,10067,1,2,3:2:0:0:
317,109,10522,5,2,3:2:0:0:
314,122,10635,1,2,0:0:0:0:
312,135,10749,1,2,0:0:0:0:
310,148,10862,1,2,0:0:0:0:
309,161,10976,1,0,3:2:0:0:
371,266,11203,5,2,0:3:0:0:
371,266,11317,1,0,0:0:0:0:
371,266,11431,2,0,L|467:245,1,80,2|0,3:2|0:0,0:0:0:0:
475,337,11885,2,0,L|396:354,1,80,0|2,3:2|0:0,0:0:0:0:
277,285,12340,6,0,P|258:237|293:133,2,160,0|2|2,3:2|3:2|3:2,0:0:0:0:
212,359,13703,1,0,3:2:0:0:
212,359,13931,6,0,L|186:365,4,20,2|0|2|0|2,0:0|0:0|0:0|0:0|0:3,0:0:0:0:
239,216,14385,1,0,3:0:0:0:
239,216,14499,1,0,0:0:0:0:
239,216,14612,2,0,B|196:197|196:197|165:203|165:203|125:187,1,120,8|0,0:0|0:0,0:0:0:0:
84,7,15067,6,0,P|124:20|147:63,1,80,4|0,3:2|0:0,0:0:0:0:
161,47,15408,2,0,P|180:84|165:131,1,80,2|0,0:0|0:0,0:0:0:0:
58,231,15749,2,0,B|35:195|35:195|74:100,1,120,2|0,0:0|0:0,0:0:0:0:
9,60,16203,1,2,0:0:0:0:
9,60,16317,1,2,0:0:0:0:
9,60,16431,2,0,L|3:15,2,40,10|2|0,3:2|0:0|0:0,0:0:0:0:
143,210,16885,5,0,3:2:0:0:
143,210,16999,2,0,P|163:239|153:292,1,80,2|0,0:0|0:0,0:0:0:0:
78,324,17340,2,0,P|125:322|202:361,1,120,10|0,3:2|0:0,0:0:0:0:
245,284,17794,5,2,3:2:0:0:
258,281,17907,1,2,0:0:0:0:
271,279,18021,1,2,0:0:0:0:
284,277,18134,1,2,0:0:0:0:
297,274,18249,1,8,3:2:0:0:
356,185,18476,1,2,0:3:0:0:
356,185,18590,1,0,0:0:0:0:
356,185,18703,6,0,P|384:210|383:260,1,80,2|0,3:2|0:0,0:0:0:0:
400,261,19044,2,0,P|402:298|366:333,1,80,2|0,0:0|0:0,0:0:0:0:
302,138,19385,2,0,L|449:155,1,120,2|0,0:0|0:0,0:0:0:0:
485,96,19840,1,2,0:0:0:0:
485,96,19953,1,2,0:0:0:0:
485,96,20067,2,0,L|493:52,2,40,10|2|0,3:2|0:0|0:0,0:0:0:0:
297,274,20522,5,2,3:2:0:0:
297,274,20635,2,0,P|285:248|288:209,1,40,2|0,0:0|0:0,0:0:0:0:
390,261,20862,2,0,P|394:232|381:195,1,40,2|8,0:0|3:2,0:0:0:0:
330,166,21090,1,0,0:0:0:0:
189,40,21317,5,2,0:0:0:0:
189,40,21430,2,0,P|177:66|180:105,1,40,2|2,3:2|0:0,0:0:0:0:
282,53,21658,2,0,P|286:81|273:118,2,40,2|2|8,0:3|0:0|3:2,0:0:0:0:
159,190,22112,5,4,0:0:0:0:
159,190,22226,1,0,0:0:0:0:
159,190,22340,2,0,P|124:197|97:238,1,80,4|0,3:1|0:0,0:0:0:0:
84,229,22681,2,0,P|64:258|74:306,1,80,2|0,0:0|0:0,0:0:0:0:
146,331,23022,2,0,L|1:369,1,120,2|0,0:0|0:0,0:0:0:0:
230,273,23476,1,2,0:0:0:0:
230,273,23590,1,2,0:0:0:0:
230,273,23703,2,0,L|223:326,2,40,10|2|0,3:2|0:0|0:0,0:0:0:0:
252,61,24158,5,0,3:2:0:0:
252,61,24272,2,0,L|240:148,1,80,2|0,0:0|0:0,0:0:0:0:
230,153,24612,2,0,B|274:140|274:140|302:151|302:151|343:135,1,120,10|0,3:2|0:0,0:0:0:0:
408,73,25067,5,2,3:2:0:0:
421,76,25180,1,2,0:0:0:0:
434,78,25294,1,2,0:0:0:0:
447,80,25407,1,2,0:0:0:0:
460,83,25522,1,8,3:2:0:0:
418,183,25749,5,2,0:3:0:0:
418,183,25862,1,0,0:0:0:0:
418,183,25976,2,0,P|390:209|383:256,1,80,2|0,3:2|0:0,0:0:0:0:
360,248,26317,2,0,P|358:286|386:324,1,80,2|0,0:0|0:0,0:0:0:0:
454,341,26658,2,0,L|306:377,1,120,2|0,0:0|0:0,0:0:0:0:
269,308,27112,1,2,0:0:0:0:
269,308,27226,1,2,0:0:0:0:
269,308,27340,2,0,L|275:265,2,40,10|2|0,3:2|0:0|0:0,0:0:0:0:
240,102,27794,5,2,3:2:0:0:
240,102,27908,2,0,P|261:101|287:111,1,40,2|0,0:0|0:0,0:0:0:0:
290,192,28135,2,0,P|248:194|196:174,1,80,2|0,0:0|0:0,0:0:0:0:
84,231,28476,5,2,0:0:0:0:
84,231,28590,2,0,P|105:232|131:222,1,40,2|0,0:0|3:2,0:0:0:0:
134,141,28817,2,0,P|92:139|40:159,1,80,2|0,0:0|0:0,0:0:0:0:
40,145,29158,1,2,0:0:0:0:
205,20,29385,5,2,0:3:0:0:
205,20,29499,1,0,0:0:0:0:
205,20,29612,2,0,L|211:111,1,80,4|0,3:2|0:0,0:0:0:0:
272,166,29953,1,2,0:0:0:0:
272,166,30067,2,0,L|266:245,1,80,10|2,3:2|0:0,0:0:0:0:
400,288,30522,2,0,P|360:298|329:328,1,80,2|2,3:2|0:0,0:0:0:0:
137,244,30976,2,0,P|169:269|184:310,1,80,8|2,3:2|0:3,0:0:0:0:
272,166,31431,5,0,3:2:0:0:
289,67,31658,1,2,0:0:0:0:
255,266,31885,1,10,3:2:0:0:
361,181,32112,1,2,0:3:0:0:
157,153,32340,6,0,P|114:159|83:184,1,80,2|2,3:2|0:0,0:0:0:0:
86,195,32681,2,0,P|51:221|11:225,1,80,2|0,0:0|0:0,0:0:0:0:
4,215,33022,1,2,0:0:0:0:
127,63,33249,5,0,3:2:0:0:
208,216,33476,1,2,0:0:0:0:
227,218,33589,1,2,0:0:0:0:
247,220,33703,1,10,3:2:0:0:
266,223,33817,1,2,0:0:0:0:
285,225,33930,1,2,0:0:0:0:
305,227,34044,1,2,0:0:0:0:
328,229,34158,2,0,P|314:246|307:270,1,40,2|2,3:2|0:0,0:0:0:0:
324,282,34385,2,0,P|326:303|338:325,2,40,2|2|8,0:0|0:0|3:2,0:0:0:0:
361,142,34840,5,2,0:3:0:0:
361,142,35067,2,0,L|446:157,1,80,2|2,3:2|0:3,0:0:0:0:
451,72,35408,1,2,0:0:0:0:
451,72,35522,2,0,L|372:58,1,80,10|2,3:2|0:3,0:0:0:0:
203,199,35976,6,0,L|288:184,1,80,2|2,3:2|0:3,0:0:0:0:
293,269,36317,1,2,0:0:0:0:
293,269,36431,2,0,L|214:282,1,80,8|2,3:2|0:0,0:0:0:0:
120,125,36885,6,0,P|97:86|109:44,1,80,0|2,3:2|0:3,0:0:0:0:
220,29,37340,2,0,P|242:67|230:109,1,80,10|2,3:2|0:0,0:0:0:0:
230,115,37681,1,2,0:0:0:0:
224,126,37794,2,0,P|218:164|240:197,1,80,0|2,3:2|0:0,0:0:0:0:
197,307,38249,1,8,3:2:0:0:
216,309,38362,1,2,0:0:0:0:
236,311,38476,1,2,0:0:0:0:
255,314,38590,1,2,0:0:0:0:
277,316,38703,6,0,L|382:297,1,80,0|0,3:2|0:0,0:0:0:0:
412,244,39044,2,0,L|517:263,1,80,2|0,0:0|0:0,0:0:0:0:
502,269,39385,6,0,P|491:284|485:309,1,40,2|0,0:0|0:0,0:0:0:0:
365,313,39612,2,0,P|376:329|381:348,1,40,2|2,3:2|0:0,0:0:0:0:
414,237,39840,1,2,0:0:0:0:
384,136,40067,5,8,3:2:0:0:
357,36,40294,1,2,0:3:0:0:
255,159,40522,5,2,3:2:0:0:
240,130,40635,1,2,0:0:0:0:
262,107,40749,1,2,0:0:0:0:
291,122,40862,1,2,0:0:0:0:
286,153,40976,2,0,P|281:197|299:235,1,80,10|2,3:2|0:0,0:0:0:0:
310,245,41317,1,2,0:0:0:0:
327,252,41431,2,0,L|317:298,2,40,2|2|2,3:2|0:0|0:0,0:0:0:0:
442,285,41885,5,8,3:2:0:0:
260,336,42112,1,2,0:3:0:0:
253,331,42226,1,0,0:0:0:0:
108,88,43476,6,0,P|121:96|135:120,1,40,2|0,0:0|0:0,0:0:0:0:
231,57,43703,2,0,P|223:71|223:98,1,40,2|0,0:0|0:0,0:0:0:0:
196,169,43931,1,2,0:0:0:0:
196,169,44158,5,4,3:2:0:0:
211,180,44272,1,0,0:0:0:0:
225,210,44385,1,0,0:0:0:0:
211,243,44499,1,2,0:3:0:0:
178,264,44612,6,0,P|201:256|244:275,1,60.0000022888184,10|0,0:0|0:0,0:0:0:0:
379,239,44840,1,2,0:0:0:0:
379,239,44953,1,2,0:0:0:0:
379,239,45067,2,0,P|349:238|324:255,1,60.0000022888184,2|0,3:2|0:0,0:0:0:0:
192,383,45294,6,0,P|202:361|246:344,1,60.0000022888184,2|0,0:0|0:0,0:0:0:0:
390,359,45522,2,0,P|369:337|340:332,1,60.0000022888184,10|0,0:0|0:0,0:0:0:0:
272,195,45749,1,2,0:0:0:0:
272,195,45862,1,0,0:0:0:0:
272,195,45976,6,0,P|235:147|265:79,1,120.000004577637,0|2,3:0|0:0,0:0:0:0:
367,69,46317,2,0,P|403:116|373:184,1,120.000004577637,0|2,0:0|0:3,0:0:0:0:
300,34,46658,1,2,0:3:0:0:
216,264,46885,6,0,P|148:272|92:310,1,120.000004577637,2|0,3:2|0:0,0:0:0:0:
297,156,47226,1,2,0:0:0:0:
297,156,47340,2,0,L|291:224,2,60.0000022888184,8|2|2,0:0|0:0|0:3,0:0:0:0:
224,323,47794,6,0,L|214:255,1,60.0000022888184,2|0,3:2|0:0,0:0:0:0:
416,230,48022,2,0,L|424:170,1,60.0000022888184,2|0,0:0|0:0,0:0:0:0:
287,74,48249,2,0,B|217:86|266:126|180:144,1,120.000004577637,8|2,0:0|0:3,0:0:0:0:
115,51,48590,1,2,0:0:0:0:
115,51,48703,2,0,P|140:49|177:69,1,60.0000022888184,0|0,3:2|0:0,0:0:0:0:
136,195,48931,2,0,P|106:196|79:182,1,60.0000022888184,2|0,0:0|0:0,0:0:0:0:
193,141,49158,2,0,P|217:199|166:264,1,120.000004577637,8|2,0:0|0:3,0:0:0:0:
182,259,49499,1,2,0:0:0:0:
169,270,49612,6,0,P|151:295|145:341,1,60.0000022888184,0|0,3:2|0:0,0:0:0:0:
245,327,49840,2,0,P|249:357|278:394,1,60.0000022888184,8|0,0:0|0:0,0:0:0:0:
352,313,50067,6,0,P|377:331|423:337,1,60.0000022888184,8|0,0:0|0:0,0:0:0:0:
409,237,50294,1,0,0:0:0:0:
409,237,50408,2,0,P|439:232|476:203,2,60.0000022888184,8|4|8,0:3|0:3|0:3,0:0:0:0:
406,139,50749,6,0,P|424:114|430:68,1,60.0000022888184,4|0,0:3|3:0,0:0:0:0:
332,68,50976,2,0,P|327:37|298:0,2,60.0000022888184,8|0|8,3:2|0:0|0:3,0:0:0:0:
212,88,51431,5,4,3:2:0:0:
196,97,51544,1,0,0:0:0:0:
180,121,51658,1,0,0:0:0:0:
181,158,51772,1,2,0:3:0:0:
208,189,51885,6,0,P|178:175|121:187,1,60.0000022888184,10|0,0:0|0:0,0:0:0:0:
9,209,52112,1,2,0:0:0:0:
9,209,52226,1,2,0:0:0:0:
9,209,52340,2,0,P|32:190|61:183,1,60.0000022888184,2|0,3:2|0:0,0:0:0:0:
194,306,52567,6,0,P|182:274|133:243,1,60.0000022888184,2|0,0:0|0:0,0:0:0:0:
46,321,52794,2,0,P|49:291|65:266,1,60.0000022888184,10|0,0:0|0:0,0:0:0:0:
121,321,53022,6,0,L|127:384,1,60.0000022888184,2|0,0:0|0:0,0:0:0:0:
259,189,53249,1,0,3:0:0:0:
259,189,53362,1,0,0:0:0:0:
259,189,53476,2,0,B|187:200|241:246|123:264,1,120.000004577637,2|8,0:0|0:0,0:0:0:0:
68,91,53817,2,0,P|104:101|137:201,1,120.000004577637,2|0,0:3|0:0,0:0:0:0:
218,113,54158,6,0,P|224:84|249:60,1,60.0000022888184,2|0,3:2|0:0,0:0:0:0:
324,72,54385,2,0,P|340:96|339:131,1,60.0000022888184,0|2,0:0|0:0,0:0:0:0:
285,271,54612,1,8,0:0:0:0:
285,271,54726,1,2,0:0:0:0:
285,271,54840,2,0,L|345:260,1,60.0000022888184,2|2,0:3|0:3,0:0:0:0:
409,194,55067,5,2,3:2:0:0:
409,194,55181,1,2,0:2:0:0:
409,194,55295,2,0,L|469:205,1,60.0000022888184,2|0,0:0|0:0,0:0:0:0:
380,337,55522,2,0,L|232:362,1,120.000004577637,8|2,0:0|0:3,0:0:0:0:
206,300,55862,5,2,0:0:0:0:
206,300,55976,2,0,P|187:276|182:244,1,60.0000022888184,0|0,3:2|0:0,0:0:0:0:
260,218,56203,2,0,P|279:242|284:274,1,60.0000022888184,2|0,0:0|0:0,0:0:0:0:
196,168,56431,6,0,P|136:181|101:227,1,120.000004577637,8|2,0:0|0:3,0:0:0:0:
150,73,56772,1,2,0:0:0:0:
150,73,56885,2,0,L|215:86,1,60.0000022888184,0|0,3:2|0:0,0:0:0:0:
274,139,57112,2,0,L|339:126,1,60.0000022888184,8|2,0:0|0:3,0:0:0:0:
395,0,57340,6,0,P|377:21|371:55,2,60.0000022888184,8|2|2,0:0|0:3|0:3,0:0:0:0:
349,210,57681,1,8,0:0:0:0:
349,210,57794,2,0,L|290:221,1,60.0000022888184,4|8,0:3|0:3,0:0:0:0:
232,281,58022,2,0,L|173:269,1,60.0000022888184,4|0,3:3|3:0,0:0:0:0:
119,194,58249,5,8,3:2:0:0:
98,164,58362,1,8,0:3:0:0:
120,135,58476,1,4,0:3:0:0:
154,147,58590,1,4,0:3:0:0:
153,183,58703,1,4,3:2:0:0:
90,65,65749,5,4,0:0:0:0:
90,65,65862,1,0,0:0:0:0:
90,65,65976,2,0,P|117:78|131:128,1,80,4|0,3:1|0:0,0:0:0:0:
147,130,66317,2,0,P|156:158|131:203,1,80,2|0,0:0|0:0,0:0:0:0:
33,284,66658,2,0,B|59:264|59:264|170:301,1,120,2|0,0:0|0:0,0:0:0:0:
217,248,67112,1,2,0:0:0:0:
217,248,67226,1,2,0:0:0:0:
217,248,67340,2,0,L|262:236,2,40,10|2|0,3:2|0:0|0:0,0:0:0:0:
320,142,67794,5,0,3:2:0:0:
320,142,67908,2,0,P|315:106|279:73,1,80,2|0,0:0|0:0,0:0:0:0:
204,62,68249,2,0,P|254:53|302:-17,1,120,10|0,3:2|0:0,0:0:0:0:
373,41,68703,5,2,3:2:0:0:
386,44,68817,1,2,0:0:0:0:
399,46,68930,1,2,0:0:0:0:
412,48,69043,1,2,0:0:0:0:
425,51,69158,1,8,3:2:0:0:
336,217,69385,5,2,0:3:0:0:
336,217,69499,1,0,0:0:0:0:
336,217,69612,2,0,P|317:236|311:289,1,80,2|0,3:2|0:0,0:0:0:0:
294,289,69953,2,0,P|294:315|327:357,1,80,2|0,0:0|0:0,0:0:0:0:
404,354,70294,2,0,L|265:390,1,120,2|0,0:0|0:0,0:0:0:0:
211,318,70749,1,2,0:0:0:0:
211,318,70862,1,2,0:0:0:0:
211,318,70976,2,0,L|217:272,2,40,10|2|0,3:2|0:0|0:0,0:0:0:0:
119,123,71431,5,2,3:2:0:0:
119,123,71544,2,0,P|123:141|140:163,1,40,2|0,0:0|0:0,0:0:0:0:
227,141,71772,2,0,P|232:123|228:95,1,40,2|8,0:0|3:2,0:0:0:0:
314,217,72112,5,2,0:0:0:0:
314,217,72226,2,0,P|318:199|335:177,1,40,2|0,0:0|3:2,0:0:0:0:
422,199,72453,2,0,P|427:216|423:244,1,40,2|2,0:0|0:3,0:0:0:0:
192,343,72794,5,10,0:0:0:0:
192,343,72908,1,10,0:0:0:0:
192,343,73022,2,0,B|184:287,1,40,10|0,0:3|0:0,0:0:0:0:
186,211,73249,6,0,B|285:225|211:270|335:283,1,160,4|10,3:2|3:2,0:0:0:0:
396,141,73931,1,2,0:0:0:0:
396,141,74044,1,0,0:0:0:0:
396,141,74158,1,2,3:2:0:0:
322,194,74385,1,2,0:0:0:0:
394,339,74612,2,0,P|425:323|469:315,1,80,10|2,3:2|0:0,0:0:0:0:
322,281,75067,6,0,L|227:304,1,80,0|2,3:2|0:0,0:0:0:0:
179,246,75408,1,2,0:0:0:0:
179,246,75522,1,10,3:2:0:0:
179,246,75635,2,0,P|163:223|166:191,1,40,0|2,0:0|0:0,0:0:0:0:
225,59,75976,2,0,B|285:72|285:72|308:99|308:99|373:109,1,160,2|8,3:2|3:2,0:0:0:0:
246,182,76658,5,2,0:0:0:0:
246,182,76772,1,2,0:0:0:0:
246,182,76885,2,0,P|262:205|259:237,1,40,0|0,3:2|0:0,0:0:0:0:
338,224,77112,2,0,P|333:251|308:272,1,40,2|2,0:0|0:0,0:0:0:0:
348,339,77340,2,0,L|253:323,1,80,10|2,3:2|0:0,0:0:0:0:
323,142,77794,2,0,L|418:158,1,80,2|2,3:2|0:0,0:0:0:0:
461,71,78249,1,10,3:2:0:0:
392,3,78476,1,2,0:0:0:0:
448,237,78703,6,0,L|492:225,1,40,2|0,3:2|0:0,0:0:0:0:
512,332,78931,2,0,L|473:321,1,40,2|2,0:0|0:0,0:0:0:0:
333,246,79158,2,0,P|362:257|392:305,1,80,10|2,3:2|0:3,0:0:0:0:
327,363,79612,2,0,P|298:352|268:304,1,80,2|2,3:2|0:3,0:0:0:0:
288,134,80067,5,8,3:2:0:0:
288,134,80181,1,8,3:2:0:0:
288,134,80294,2,0,P|300:154|301:174,1,40,2|0,0:3|0:0,0:0:0:0:
256,235,80522,2,0,L|144:254,1,80,4|2,3:2|0:3,0:0:0:0:
87,137,80976,1,10,3:2:0:0:
71,115,81089,1,2,0:2:0:0:
68,89,81203,1,2,0:0:0:0:
77,65,81316,1,2,0:0:0:0:
94,49,81431,6,0,P|123:64|180:49,1,80,0|2,3:2|0:0,0:0:0:0:
181,46,81772,2,0,P|210:31|267:46,1,80,2|2,0:0|0:0,0:0:0:0:
264,56,82112,1,2,0:0:0:0:
362,131,82340,5,0,3:2:0:0:
362,131,82453,1,2,0:0:0:0:
362,131,82567,2,0,L|353:186,1,40,2|2,0:2|0:0,0:0:0:0:
314,244,82794,1,10,3:2:0:0:
314,244,82907,1,2,0:2:0:0:
314,244,83021,2,0,L|323:299,1,40,2|2,0:0|0:2,0:0:0:0:
386,337,83249,2,0,P|346:334|312:353,1,80,2|2,3:2|0:0,0:0:0:0:
298,367,83590,2,0,P|258:369|224:350,1,80,2|0,0:0|0:0,0:0:0:0:
221,337,83931,1,2,0:3:0:0:
254,151,84158,5,2,3:2:0:0:
254,151,84612,2,0,L|145:167,1,80,10|2,3:2|0:0,0:0:0:0:
108,87,85067,6,0,L|104:67,4,20,2|0|2|0|10,3:2|0:0|0:0|0:0|0:0,0:0:0:0:
56,166,85522,1,8,3:2:0:0:
87,176,85635,1,8,0:3:0:0:
87,208,85749,1,2,0:3:0:0:
56,218,85862,1,4,0:3:0:0:
38,192,85976,1,8,0:0:0:0:
25,64,88022,6,0,L|51:110,1,40,2|0,0:0|0:0,0:0:0:0:
127,31,88249,2,0,L|131:84,1,40,2|0,0:0|0:0,0:0:0:0:
202,120,88476,1,2,0:0:0:0:
202,120,88703,5,4,3:2:0:0:
187,131,88817,1,0,0:0:0:0:
173,161,88930,1,0,0:0:0:0:
187,194,89044,1,2,0:3:0:0:
220,215,89157,6,0,P|197:207|154:226,1,60.0000022888184,10|0,0:0|0:0,0:0:0:0:
29,252,89384,1,2,0:0:0:0:
29,252,89498,1,2,0:0:0:0:
29,252,89612,2,0,P|53:235|83:235,1,60.0000022888184,2|0,3:2|0:0,0:0:0:0:
201,94,89839,6,0,P|179:104|162:148,1,60.0000022888184,2|0,0:0|0:0,0:0:0:0:
17,128,90066,2,0,P|46:133|66:154,1,60.0000022888184,10|0,0:0|0:0,0:0:0:0:
139,298,90293,1,2,0:0:0:0:
139,298,90407,1,0,0:0:0:0:
139,298,90521,6,0,P|190:326|248:314,1,120.000004577637,0|2,3:0|0:0,0:0:0:0:
268,174,90862,2,0,P|216:145|158:157,1,120.000004577637,0|2,0:0|0:3,0:0:0:0:
302,249,91203,6,0,L|368:236,1,60.0000022888184,2|0,0:3|0:0,0:0:0:0:
395,111,91430,1,2,3:2:0:0:
395,111,91543,1,0,0:0:0:0:
395,111,91657,2,0,P|374:124|357:158,1,60.0000022888184,0|2,0:0|0:0,0:0:0:0:
450,250,91884,2,0,P|449:225|428:193,1,60.0000022888184,8|2,0:0|0:0,0:0:0:0:
305,258,92112,2,0,L|371:245,1,60.0000022888184,2|2,0:3|0:3,0:0:0:0:
404,318,92339,6,0,L|462:329,1,60.0000022888184,2|0,3:2|0:0,0:0:0:0:
357,154,92566,2,0,L|298:165,1,60.0000022888184,2|0,0:0|0:0,0:0:0:0:
186,267,92793,2,0,B|255:283|213:319|279:334,1,120.000004577637,8|2,0:0|0:3,0:0:0:0:
110,240,93134,1,2,0:0:0:0:
110,240,93248,2,0,P|72:240|50:251,1,60.0000022888184,0|0,3:2|0:0,0:0:0:0:
72,337,93475,2,0,P|110:337|132:326,1,60.0000022888184,2|0,0:0|0:0,0:0:0:0:
186,267,93703,2,0,L|194:137,1,120.000004577637,8|2,0:0|0:3,0:0:0:0:
194,132,94043,1,2,0:0:0:0:
196,117,94157,6,0,L|259:124,1,60.0000022888184,0|0,3:2|0:0,0:0:0:0:
266,37,94384,2,0,L|206:30,1,60.0000022888184,8|0,0:0|0:0,0:0:0:0:
338,91,94612,6,0,L|401:84,1,60.0000022888184,8|0,0:0|0:0,0:0:0:0:
408,171,94839,1,0,0:0:0:0:
408,171,94953,2,0,L|348:177,2,60.0000022888184,8|4|8,0:3|0:3|0:3,0:0:0:0:
180,293,95293,6,0,L|243:300,1,60.0000022888184,4|0,0:3|3:0,0:0:0:0:
250,213,95520,2,0,L|190:206,2,60.0000022888184,8|0|8,3:2|0:0|0:3,0:0:0:0:
73,225,95975,5,4,3:2:0:0:
57,216,96088,1,0,0:0:0:0:
41,192,96202,1,0,0:0:0:0:
42,155,96316,1,2,0:3:0:0:
69,124,96429,6,0,P|39:138|-18:126,1,60.0000022888184,10|0,0:0|0:0,0:0:0:0:
147,84,96657,1,2,0:0:0:0:
147,84,96771,1,2,0:0:0:0:
147,84,96884,2,0,P|177:70|234:82,1,60.0000022888184,2|0,3:2|0:0,0:0:0:0:
64,44,97112,6,0,P|32:32|1:-16,1,60.0000022888184,2|0,0:0|0:0,0:0:0:0:
144,168,97339,2,0,P|175:179|206:228,1,60.0000022888184,10|0,0:0|0:0,0:0:0:0:
283,109,97566,2,0,L|293:47,1,60.0000022888184,2|0,0:0|0:0,0:0:0:0:
391,163,97793,5,0,3:0:0:0:
391,163,97907,1,0,0:0:0:0:
391,163,98021,2,0,B|316:186|375:214|286:248,1,120.000004577637,2|8,0:0|0:0,0:0:0:0:
452,107,98362,2,0,P|425:65|445:-10,1,120.000004577637,2|0,0:3|0:0,0:0:0:0:
472,188,98703,6,0,P|491:201|509:235,1,60.0000022888184,2|0,3:2|0:0,0:0:0:0:
427,288,98930,2,0,P|403:269|390:243,1,60.0000022888184,0|2,0:0|0:0,0:0:0:0:
279,175,99157,1,8,0:0:0:0:
279,175,99271,1,2,0:0:0:0:
279,175,99384,2,0,L|211:186,1,60.0000022888184,2|2,0:3|0:3,0:0:0:0:
150,244,99612,6,0,L|82:233,1,60.0000022888184,2|0,3:2|0:0,0:0:0:0:
201,101,99839,2,0,L|260:91,1,60.0000022888184,2|0,0:0|0:0,0:0:0:0:
326,236,100066,2,0,P|303:256|300:348,1,120.000004577637,8|2,0:0|0:3,0:0:0:0:
381,303,100407,6,0,L|503:278,1,120.000004577637,2|0,0:0|0:0,0:0:0:0:
454,162,100748,2,0,P|438:171|422:213,1,60.0000022888184,2|0,0:0|0:0,0:0:0:0:
350,154,100975,6,0,L|326:-3,1,120.000004577637,8|2,0:0|0:3,0:0:0:0:
433,4,101316,1,2,0:0:0:0:
433,4,101430,2,0,L|420:77,1,60.0000022888184,0|0,3:2|0:0,0:0:0:0:
267,161,101657,2,0,L|277:220,1,60.0000022888184,8|8,0:0|0:3,0:0:0:0:
359,272,101884,5,8,0:0:0:0:
359,272,101998,1,0,0:0:0:0:
359,272,102112,2,0,L|348:331,1,60.0000022888184,0|8,0:0|0:0,0:0:0:0:
196,235,102339,2,0,L|185:175,1,60.0000022888184,4|0,0:3|0:0,0:0:0:0:
442,288,102566,2,0,L|431:347,1,60.0000022888184,4|0,3:3|3:0,0:0:0:0:
396,202,102793,5,8,0:2:0:0:
361,190,102907,1,8,0:3:0:0:
361,154,103021,1,4,0:3:0:0:
396,143,103134,1,4,0:3:0:0:
417,172,103248,1,4,3:2:0:0:
66,55,108703,5,4,3:2:0:0:
149,68,109157,1,0,3:2:0:0:
259,85,109612,5,0,3:2:0:0:
342,98,110066,1,0,3:2:0:0:
329,209,110521,5,0,3:2:0:0:
246,196,110975,1,0,3:2:0:0:
136,179,111430,5,0,3:2:0:0:
53,166,111884,1,0,3:2:0:0:
178,286,112339,5,2,3:2:0:0:
149,68,112793,1,2,3:2:0:0:
321,295,113248,1,2,3:2:0:0:
350,77,113702,1,8,0:0:0:0:
354,69,113816,1,8,0:0:0:0:
360,59,113930,1,8,0:0:0:0:
364,51,114044,1,8,0:0:0:0:
369,43,114157,6,0,P|411:85|363:184,1,160,4|8,3:2|0:0,0:0:0:0:
435,294,114839,1,2,0:3:0:0:
435,294,114953,1,8,0:0:0:0:
435,294,115066,2,0,P|403:308|381:358,1,80,0|2,3:0|0:3,0:0:0:0:
277,170,115521,2,0,P|259:205|223:222,1,80,8|2,0:0|0:3,0:0:0:0:
264,330,115975,5,0,3:2:0:0:
387,172,116203,1,2,0:3:0:0:
223,69,116430,2,0,B|165:49|165:49|128:67|128:67|65:48,1,160,8|0,0:0|3:0,0:0:0:0:
64,60,116998,2,0,L|21:48,1,40,8|2,0:0|0:3,0:0:0:0:
53,157,117339,2,0,L|138:178,1,80,8|2,0:0|0:3,0:0:0:0:
278,141,117793,5,0,3:2:0:0:
258,146,117906,1,0,0:0:0:0:
242,157,118020,1,2,0:3:0:0:
230,173,118133,1,0,0:0:0:0:
224,191,118248,2,0,B|306:215|238:262|357:287,1,160,8|0,0:0|3:0,0:0:0:0:
355,298,118816,2,0,P|377:291|398:288,1,40,8|2,0:0|0:3,0:0:0:0:
461,187,119157,1,8,0:0:0:0:
401,86,119384,1,2,0:3:0:0:
244,192,119612,5,0,3:2:0:0:
264,187,119725,1,0,0:0:0:0:
280,176,119839,1,2,0:3:0:0:
292,160,119952,1,0,0:0:0:0:
298,142,120067,2,0,B|198:115|284:71|165:46,1,160,8|0,0:0|3:0,0:0:0:0:
167,35,120634,2,0,P|145:42|124:45,1,40,8|2,0:0|0:3,0:0:0:0:
61,100,120862,1,2,0:3:0:0:
61,100,120975,2,0,P|39:93|18:90,1,40,8|0,0:0|0:0,0:0:0:0:
150,169,121203,2,0,P|128:176|107:179,1,40,8|8,0:0|0:0,0:0:0:0:
32,243,121430,6,0,P|21:316|86:373,1,160,4|8,3:2|0:0,0:0:0:0:
198,262,122112,1,2,0:3:0:0:
198,262,122225,1,8,0:0:0:0:
198,262,122339,2,0,P|167:272|136:328,1,80,0|2,3:0|0:3,0:0:0:0:
251,183,122793,2,0,P|257:151|224:96,1,80,8|2,0:0|0:3,0:0:0:0:
300,269,123248,5,0,3:2:0:0:
418,301,123475,1,2,0:3:0:0:
238,108,123703,2,0,P|163:130|146:212,1,160,8|0,0:0|3:0,0:0:0:0:
147,220,124271,2,0,L|98:235,1,40,8|2,0:0|0:3,0:0:0:0:
118,341,124612,2,0,L|195:317,1,80,8|2,0:0|0:3,0:0:0:0:
278,195,125066,5,0,3:2:0:0:
258,200,125179,1,0,0:0:0:0:
242,211,125293,1,2,0:3:0:0:
230,227,125406,1,0,0:0:0:0:
224,245,125521,2,0,B|306:269|238:316|357:341,1,160,8|0,0:0|3:0,0:0:0:0:
355,352,126089,2,0,P|377:345|398:342,1,40,8|2,0:0|0:3,0:0:0:0:
478,269,126430,1,8,0:0:0:0:
478,269,126543,1,0,0:0:0:0:
478,269,126657,2,0,P|498:279|515:292,1,40,2|2,0:3|0:3,0:0:0:0:
391,325,126884,6,0,P|371:328|352:334,2,40,8|0|12,3:2|3:0|0:3,0:0:0:0:
344,238,127225,1,0,3:0:0:0:
344,238,127339,2,0,P|327:226|309:217,1,40,8|0,0:2|3:0,0:0:0:0:
426,180,127566,2,0,P|422:160|416:141,1,40,8|0,3:0|3:0,0:0:0:0:
313,113,127793,5,10,0:0:0:0:
313,113,128703,5,4,3:2:0:0:
328,102,128817,1,0,0:0:0:0:
342,72,128930,1,0,0:0:0:0:
328,39,129044,1,2,0:3:0:0:
295,18,129157,6,0,P|318:26|361:7,1,60.0000022888184,10|0,0:0|0:0,0:0:0:0:
485,57,129384,1,2,0:0:0:0:
485,57,129498,1,2,0:0:0:0:
485,57,129612,2,0,P|455:53|433:34,1,60.0000022888184,2|0,3:2|0:0,0:0:0:0:
289,142,129839,6,0,P|310:131|327:87,1,60.0000022888184,2|0,0:0|0:0,0:0:0:0:
433,172,130066,2,0,P|414:149|412:119,1,60.0000022888184,10|0,0:0|0:0,0:0:0:0:
346,226,130293,1,2,0:0:0:0:
346,226,130407,1,0,0:0:0:0:
346,226,130521,6,0,B|268:243|351:291|226:314,1,120.000004577637,0|2,3:0|0:0,0:0:0:0:
111,190,130862,2,0,P|172:200|190:291,1,120.000004577637,0|2,0:0|0:3,0:0:0:0:
182,333,131203,1,2,0:3:0:0:
350,91,131430,6,0,P|292:98|261:147,1,120.000004577637,2|0,3:2|0:0,0:0:0:0:
444,48,131771,1,2,0:0:0:0:
444,48,131884,2,0,L|435:119,2,60.0000022888184,8|2|2,0:0|0:0|0:3,0:0:0:0:
253,223,132339,6,0,P|224:230|191:256,1,60.0000022888184,2|0,3:2|0:0,0:0:0:0:
253,368,132566,2,0,P|224:361|191:335,1,60.0000022888184,2|0,0:0|0:0,0:0:0:0:
315,164,132793,2,0,P|334:187|319:278,1,120.000004577637,8|2,0:0|0:3,0:0:0:0:
392,330,133134,1,2,0:0:0:0:
392,330,133248,2,0,P|420:316|457:309,1,60.0000022888184,0|0,3:2|0:0,0:0:0:0:
428,109,133475,2,0,P|398:102|372:88,1,60.0000022888184,2|0,0:0|0:0,0:0:0:0:
264,223,133703,2,0,L|418:197,1,120.000004577637,8|2,0:0|0:3,0:0:0:0:
398,201,134043,1,2,0:0:0:0:
413,198,134157,6,0,L|482:187,1,60.0000022888184,0|0,3:2|0:0,0:0:0:0:
484,280,134384,2,0,L|424:289,1,60.0000022888184,8|0,0:0|0:0,0:0:0:0:
271,334,134612,6,0,L|340:345,1,60.0000022888184,8|0,0:0|0:0,0:0:0:0:
342,252,134839,1,0,0:0:0:0:
342,252,134953,2,0,L|282:242,2,60.0000022888184,8|4|8,0:3|0:3|0:3,0:0:0:0:
121,190,135293,6,0,L|190:179,1,60.0000022888184,4|0,0:3|3:0,0:0:0:0:
192,272,135521,2,0,L|132:281,2,60.0000022888184,8|0|8,3:2|0:0|0:3,0:0:0:0:
310,24,135975,5,4,3:2:0:0:
326,33,136088,1,0,0:0:0:0:
342,57,136202,1,0,0:0:0:0:
341,94,136316,1,2,0:3:0:0:
314,125,136429,6,0,P|344:111|401:123,1,60.0000022888184,10|0,0:0|0:0,0:0:0:0:
236,165,136657,1,2,0:0:0:0:
236,165,136771,1,2,0:0:0:0:
236,165,136884,2,0,P|206:179|149:167,1,60.0000022888184,2|0,3:2|0:0,0:0:0:0:
319,205,137112,6,0,P|351:217|382:265,1,60.0000022888184,2|0,0:0|0:0,0:0:0:0:
239,81,137339,2,0,P|208:70|177:21,1,60.0000022888184,10|0,0:0|0:0,0:0:0:0:
115,112,137566,2,0,L|47:125,1,60.0000022888184,2|0,0:0|0:0,0:0:0:0:
12,203,137793,5,0,3:0:0:0:
12,203,137907,1,0,0:0:0:0:
12,203,138021,2,0,P|54:242|43:307,1,120.000004577637,2|8,0:0|0:0,0:0:0:0:
115,112,138362,2,0,B|195:107|136:161|250:149,1,120.000004577637,2|0,0:3|0:0,0:0:0:0:
198,245,138703,6,0,P|168:254|145:275,1,60.0000022888184,2|0,3:2|0:0,0:0:0:0:
216,325,138930,2,0,P|201:352|199:383,1,60.0000022888184,0|2,0:0|0:0,0:0:0:0:
285,274,139157,1,8,0:0:0:0:
285,274,139271,1,2,0:0:0:0:
285,274,139384,2,0,L|355:262,1,60.0000022888184,2|0,0:3|0:0,0:0:0:0:
397,192,139612,5,2,3:2:0:0:
397,192,139725,1,2,0:0:0:0:
397,192,139839,2,0,L|467:204,1,60.0000022888184,2|0,0:0|0:0,0:0:0:0:
362,28,140066,2,0,P|329:54|330:127,1,120.000004577637,10|0,0:0|0:0,0:0:0:0:
260,172,140407,1,2,0:0:0:0:
260,172,140521,2,0,P|275:195|276:230,1,60.0000022888184,2|0,3:2|0:0,0:0:0:0:
186,247,140748,2,0,P|171:224|170:189,1,60.0000022888184,2|0,0:0|0:0,0:0:0:0:
88,318,140975,6,0,P|151:318|187:384,1,120.000004577637,8|2,0:0|0:3,0:0:0:0:
78,227,141316,1,0,0:0:0:0:
78,227,141430,2,0,L|17:243,1,60.0000022888184,0|0,3:0|0:0,0:0:0:0:
0,164,141657,2,0,L|58:148,1,60.0000022888184,10|0,0:0|0:0,0:0:0:0:
161,112,141884,6,0,B|106:84|106:84|135:25,1,120.000004577637,6|0,3:2|0:0,0:0:0:0:
228,3,142225,1,0,0:0:0:0:
228,3,142339,2,0,B|282:30|282:30|253:89,1,120.000004577637,10|0,3:2|0:0,0:0:0:0:
231,158,142680,5,2,0:0:0:0:
231,158,142793,1,8,0:0:0:0:
208,190,142906,1,8,0:0:0:0:
205,229,143020,1,8,0:0:0:0:
223,264,143133,1,8,0:0:0:0:
261,284,143248,6,0,P|282:262|322:249,1,60.0000022888184,4|0,3:2|0:0,0:0:0:0:
365,189,143475,2,0,P|395:188|432:207,1,60.0000022888184,0|2,0:0|0:3,0:0:0:0:
485,268,143703,6,0,L|473:335,1,60.0000022888184,10|0,0:0|0:0,0:0:0:0:
384,313,143930,1,2,0:0:0:0:
384,313,144043,1,2,0:0:0:0:
384,313,144157,2,0,L|396:380,1,60.0000022888184,2|0,3:2|0:0,0:0:0:0:
427,153,144384,6,0,L|415:220,1,60.0000022888184,2|0,0:0|0:0,0:0:0:0:
298,191,144612,2,0,L|310:258,1,60.0000022888184,10|0,0:0|0:0,0:0:0:0:
241,313,144839,1,2,0:0:0:0:
241,313,144953,1,0,0:0:0:0:
241,313,145066,6,0,P|194:350|134:338,1,120.000004577637,2|2,3:2|0:0,0:0:0:0:
114,247,145407,2,0,P|160:209|220:221,1,120.000004577637,0|2,0:0|0:3,0:0:0:0:
295,154,145748,2,0,P|277:125|276:89,1,60.0000022888184,2|0,0:3|0:0,0:0:0:0:
397,52,145975,1,2,3:2:0:0:
397,52,146089,1,0,0:0:0:0:
397,52,146203,2,0,P|380:82|350:100,1,60.0000022888184,0|2,0:0|0:0,0:0:0:0:
257,15,146430,2,0,P|291:13|322:31,1,60.0000022888184,8|2,0:0|0:0,0:0:0:0:
274,99,146657,2,0,L|205:112,1,60.0000022888184,2|2,0:3|0:3,0:0:0:0:
146,164,146884,6,0,L|77:151,1,60.0000022888184,2|0,3:2|0:0,0:0:0:0:
282,231,147112,2,0,L|213:244,1,60.0000022888184,2|0,0:0|0:0,0:0:0:0:
110,315,147339,2,0,B|182:321|139:357|228:361,1,120.000004577637,8|2,0:0|0:3,0:0:0:0:
299,314,147680,1,2,0:0:0:0:
299,314,147793,2,0,P|296:348|311:373,1,60.0000022888184,0|0,3:2|0:0,0:0:0:0:
398,353,148021,2,0,P|401:319|386:294,1,60.0000022888184,2|0,0:0|0:0,0:0:0:0:
328,234,148248,2,0,P|307:189|357:106,1,120.000004577637,8|2,0:0|0:3,0:0:0:0:
428,35,148589,1,2,0:0:0:0:
428,35,148703,6,0,P|408:67|383:77,1,60.0000022888184,0|0,3:2|0:0,0:0:0:0:
462,159,148930,2,0,P|425:167|400:156,1,60.0000022888184,8|0,0:0|0:0,0:0:0:0:
409,282,149157,6,0,P|377:262|367:237,1,60.0000022888184,8|0,0:0|0:0,0:0:0:0:
280,315,149384,1,0,0:0:0:0:
280,315,149498,2,0,P|271:278|282:253,2,60.0000022888184,8|4|8,0:3|0:3|0:3,0:0:0:0:
158,264,149839,6,0,P|178:231|203:221,1,60.0000022888184,4|0,0:3|3:0,0:0:0:0:
133,137,150066,2,0,P|169:128|194:139,1,60.0000022888184,8|0,3:2|0:0,0:0:0:0:
266,82,150293,1,8,0:3:0:0:
266,82,150407,1,0,0:0:0:0:
266,82,150521,6,0,L|256:12,1,60.0000022888184,4|0,3:2|0:0,0:0:0:0:
384,121,150748,2,0,L|394:51,1,60.0000022888184,0|2,0:0|0:3,0:0:0:0:
198,195,150975,6,0,L|188:125,1,60.0000022888184,10|0,0:0|0:0,0:0:0:0:
363,260,151203,1,2,0:0:0:0:
363,260,151316,1,2,0:0:0:0:
363,260,151430,2,0,L|373:190,1,60.0000022888184,2|0,3:2|0:0,0:0:0:0:
267,288,151657,6,0,P|285:314|286:353,1,60.0000022888184,2|0,0:0|0:0,0:0:0:0:
443,312,151884,2,0,P|418:332|407:369,1,60.0000022888184,10|0,0:0|0:0,0:0:0:0:
278,203,152112,2,0,L|216:216,1,60.0000022888184,2|0,0:0|0:0,0:0:0:0:
146,151,152339,5,2,3:2:0:0:
146,151,152453,1,0,0:0:0:0:
146,151,152566,2,0,P|113:122|109:48,1,120.000004577637,2|8,0:0|0:0,0:0:0:0:
198,19,152907,2,0,P|230:47|234:121,1,120.000004577637,2|0,0:3|0:0,0:0:0:0:
122,262,153248,2,0,P|115:238|81:211,1,60.0000022888184,2|0,3:2|0:0,0:0:0:0:
209,300,153475,2,0,P|216:276|250:249,1,60.0000022888184,0|2,0:0|0:0,0:0:0:0:
307,189,153703,2,0,L|378:208,1,60.0000022888184,8|2,0:0|0:0,0:0:0:0:
432,147,153930,1,2,0:3:0:0:
432,147,154043,1,0,0:0:0:0:
432,147,154157,6,0,P|446:122|446:88,1,60.0000022888184,2|0,3:2|0:0,0:0:0:0:
462,239,154384,2,0,P|448:264|448:298,1,60.0000022888184,2|0,0:0|0:0,0:0:0:0:
307,189,154612,2,0,B|259:203|259:203|250:225|250:225|192:244,1,120.000004577637,8|2,0:0|0:3,0:0:0:0:
120,199,154953,1,2,0:0:0:0:
120,199,155066,2,0,P|104:174|99:142,1,60.0000022888184,0|0,3:2|0:0,0:0:0:0:
159,86,155293,2,0,P|165:57|184:30,1,60.0000022888184,2|0,0:0|0:0,0:0:0:0:
361,108,155521,6,0,L|220:90,1,120.000004577637,8|2,0:0|0:3,0:0:0:0:
315,203,155862,1,2,0:0:0:0:
315,203,155975,2,0,P|334:227|343:259,1,60.0000022888184,0|0,3:2|0:0,0:0:0:0:
410,312,156203,2,0,P|406:342|390:371,1,60.0000022888184,8|0,0:0|0:0,0:0:0:0:
185,319,156430,6,0,L|304:334,1,120.000004577637,4|0,3:2|0:0,0:0:0:0:
112,275,156771,1,8,0:0:0:0:
112,275,156884,2,0,P|97:305|114:351,1,60.0000022888184,4|0,0:3|0:0,0:0:0:0:
188,234,157112,2,0,P|169:206|121:197,1,60.0000022888184,4|0,3:3|0:0,0:0:0:0:
34,163,157339,5,8,0:2:0:0:
65,173,157452,1,8,0:3:0:0:
65,205,157566,1,4,0:3:0:0:
34,215,157679,1,4,0:3:0:0:
16,189,157793,1,4,3:2:0:0:
256,192,157907,12,0,159612,3:2:0:0:
160,135,160066,5,10,3:2:0:0:
246,118,160293,1,2,0:3:0:0:
134,222,160521,1,2,3:2:0:0:
121,219,160634,1,2,0:0:0:0:
108,217,160748,1,2,0:0:0:0:
95,215,160861,1,2,0:0:0:0:
82,214,160975,1,8,3:2:0:0:
34,296,161203,5,2,0:3:0:0:
34,296,161316,1,0,0:0:0:0:
34,296,161430,2,0,P|57:302|80:353,1,80,2|0,3:2|0:0,0:0:0:0:
81,359,161771,2,0,P|97:342|153:347,1,80,2|0,0:0|0:0,0:0:0:0:
163,358,162112,2,0,L|293:342,1,120,2|0,0:0|0:0,0:0:0:0:
332,271,162566,1,2,0:0:0:0:
332,271,162680,1,2,0:0:0:0:
332,271,162793,2,0,L|377:280,2,40,10|2|0,3:2|0:0|0:0,0:0:0:0:
241,175,163248,5,2,3:2:0:0:
241,175,163362,2,0,P|225:158|219:136,1,40,2|0,0:0|0:0,0:0:0:0:
333,155,163589,2,0,P|340:132|336:110,1,40,2|8,0:0|3:2,0:0:0:0:
266,68,163816,1,2,0:0:0:0:
52,146,164043,5,2,0:0:0:0:
52,146,164157,2,0,P|36:163|30:185,1,40,2|2,3:2|0:0,0:0:0:0:
144,166,164384,2,0,P|151:188|147:210,1,40,2|2,0:3|0:0,0:0:0:0:
77,253,164611,1,8,3:2:0:0:
161,338,164839,5,4,0:0:0:0:
161,338,164953,1,0,0:0:0:0:
161,338,165066,2,0,P|191:318|237:331,1,80,4|0,3:1|0:0,0:0:0:0:
251,342,165407,2,0,P|281:362|327:349,1,80,2|0,0:0|0:0,0:0:0:0:
365,235,165748,2,0,P|336:264|348:342,1,120,2|0,0:0|0:0,0:0:0:0:
430,372,166203,1,2,0:0:0:0:
430,372,166316,1,2,0:0:0:0:
430,372,166430,2,0,L|477:365,2,40,10|2|0,3:2|0:0|0:0,0:0:0:0:
363,236,166884,5,0,3:2:0:0:
363,236,166998,2,0,L|265:248,1,80,2|0,0:0|0:0,0:0:0:0:
272,255,167339,2,0,B|243:225|243:225|264:164,1,80,10|2,3:2|0:3,0:0:0:0:
194,84,167793,1,2,3:2:0:0:
181,87,167906,1,2,0:0:0:0:
168,89,168020,1,2,0:0:0:0:
155,91,168133,1,2,0:0:0:0:
142,92,168247,1,8,3:2:0:0:
71,188,168475,5,2,0:3:0:0:
71,188,168589,1,0,0:0:0:0:
71,188,168703,2,0,P|95:197|114:249,1,80,2|0,3:2|0:0,0:0:0:0:
130,252,169043,2,0,P|140:275|117:325,1,80,2|0,0:0|0:0,0:0:0:0:
32,349,169384,2,0,P|77:342|156:381,1,120,2|0,0:0|0:0,0:0:0:0:
225,302,169839,1,2,0:0:0:0:
237,272,169953,1,2,0:0:0:0:
269,275,170066,1,8,3:2:0:0:
276,306,170180,1,8,0:2:0:0:
249,322,170293,2,0,P|241:344|251:371,1,40,8|8,0:2|0:2,0:0:0:0:
259,378,170521,6,0,L|336:366,1,66.6666666666667,2|2,0:0|0:0,0:0:0:0:
426,266,171203,2,0,L|503:278,1,66.6666666666667,2|2,0:0|0:0,0:0:0:0:
