osu file format v14

[General]
AudioFilename: audio.mp3
AudioLeadIn: 0
PreviewTime: 152206
Countdown: 0
SampleSet: Soft
StackLeniency: 1
Mode: 0
LetterboxInBreaks: 0
EpilepsyWarning: 1
WidescreenStoryboard: 1

[Editor]
Bookmarks: 60582,75240,89908,122876,137519
DistanceSpacing: 0.6
BeatDivisor: 6
GridSize: 8
TimelineZoom: 2.599999

[Metadata]
Title:Benikurage
TitleUnicode:ベニクラゲ
Artist:POLKADOT STINGRAY
ArtistUnicode:ポルカドットスティングレイ
Creator:Bazz B
Version:Mayu's Hard
Source:
Tags:grandweek -Mikan Mikan Kyumo moph Flake Shikibe Mayu Shizuku- Kazato Asa Nelliel 大正義 Dai-seigi daiseigi justice immortal jellyfish japanese jazz rock jrock Turritopisis spp.
BeatmapID:2892792
BeatmapSetID:1345187

[Difficulty]
HPDrainRate:3.5
CircleSize:4
OverallDifficulty:5
ApproachRate:7
SliderMultiplier:1.6
SliderTickRate:1

[Events]
//Background and Video events
0,0,"ab3bcf1dbe37266c23fbb441aef0ba8bb9c63dbc_s2_n1.jpg",0,0
//Break Periods
2,152405,164141
//Storyboard Layer 0 (Background)
//Storyboard Layer 1 (Fail)
//Storyboard Layer 2 (Pass)
//Storyboard Layer 3 (Foreground)
//Storyboard Layer 4 (Overlay)
//Storyboard Sound Samples

[TimingPoints]
26536,400,4,2,1,44,1,0
26739,545.454545454546,4,2,1,44,1,0
27148,461.538461538462,4,2,1,44,1,0
27455,-100,4,2,1,27,0,0
27611,461.538461538462,4,2,1,44,1,0
29457,457.142857142857,4,2,1,44,1,0
31285,458.015267175573,4,2,1,44,1,0
33117,457.142857142857,4,2,1,44,1,0
34945,460.652591170825,4,2,1,44,1,0
36787,457.142857142857,4,2,1,44,1,0
42195,-100,4,2,1,5,0,0
42272,458.015267175573,4,2,1,44,1,0
45859,-100,4,2,1,5,0,0
45936,458.891013384321,4,2,1,44,1,0
47771,458.015267175573,4,2,1,44,1,0
49603,454.545454545455,4,2,1,44,1,0
50512,461.538461538462,4,2,1,44,1,0
51435,458.015267175573,4,2,1,44,1,0
53267,456.273764258555,4,2,1,44,1,0
55092,458.891013384321,4,2,1,44,1,0
56850,-100,4,2,1,5,0,0
56927,461.538461538462,4,2,1,44,1,0
58773,497.92531120332,4,2,1,44,1,0
59104,442.80442804428,4,2,1,58,1,0
59399,519.480519480519,4,2,1,58,1,0
59659,472.44094488189,4,2,1,44,1,0
59659,-142.857142857143,4,2,1,44,0,0
60120,-100,4,2,1,5,0,0
60603,458.015267175573,4,2,1,44,1,0
61045,-100,4,2,1,63,0,0
62435,437.956204379562,4,2,1,63,1,0
62435,-100,4,2,1,63,0,0
63310,468.75,4,2,1,63,1,0
63310,-100,4,2,1,63,0,0
64247,458.015267175573,4,2,1,63,1,0
64247,-100,4,2,1,63,0,0
65926,-100.603621730382,4,2,1,63,0,0
66079,460.652591170825,4,2,1,63,1,0
66079,-100,4,2,1,63,0,0
67000,-125,4,2,1,63,0,0
68689,-100,4,2,1,63,0,0
70685,451.127819548872,4,2,1,63,1,0
70685,-100,4,2,1,63,0,0
71587,457.142857142857,4,2,1,63,1,0
71587,-100,4,2,1,63,0,0
73415,465.116279069767,4,2,1,63,1,0
73415,-100,4,2,1,63,0,0
74345,447.761194029851,4,2,1,63,1,0
74345,-100,4,2,1,63,0,0
75240,462.42774566474,4,2,1,44,1,0
77089,452.830188679245,4,2,1,44,1,0
78900,460.652591170825,4,2,1,44,1,0
80742,451.127819548872,4,2,1,44,1,0
81644,457.142857142857,4,2,1,44,1,0
83472,468.75,4,2,1,44,1,0
84409,459.770114942529,4,2,1,44,1,0
85328,458.015267175573,4,2,1,44,1,0
86244,458.015267175573,4,2,1,44,1,0
89831,-100,4,2,1,37,0,0
89908,459.770114942529,4,2,1,37,1,0
89908,-125,4,2,1,37,0,0
90827,-125,4,2,1,41,0,0
91287,-125,4,2,1,44,0,0
91671,-100,4,2,1,5,0,0
91747,455.407969639469,4,2,1,44,1,0
93568,460.652591170825,4,2,1,44,1,0
94407,-100,4,2,1,5,0,0
94484,-100,4,2,1,44,0,0
94865,-100,4,2,1,5,0,0
94942,-100,4,2,1,44,0,0
96331,451.127819548872,4,2,1,44,1,0
97233,458.015267175573,4,2,1,44,1,0
100896,463.320463320463,4,2,1,44,1,0
100896,-125,4,2,1,44,0,0
101822,446.096654275093,4,2,1,44,1,0
102714,455.407969639469,4,2,1,44,1,0
104535,464.2166344294,4,2,1,44,1,0
106391,461.538461538462,4,2,1,44,1,0
106391,-125,4,2,1,44,0,0
107314,452.830188679245,4,2,1,44,1,0
107766,-125,4,2,1,44,0,0
108219,461.538461538462,4,2,1,44,1,0
109142,455.407969639469,4,2,1,44,1,0
110052,462.42774566474,4,2,1,44,1,0
110976,458.015267175573,4,2,1,44,1,0
111892,457.142857142857,4,2,1,44,1,0
113720,461.538461538462,4,2,1,44,1,0
114643,456.273764258555,4,2,1,44,1,0
115555,461.538461538462,4,2,1,44,1,0
116478,451.127819548872,4,2,1,44,1,0
117381,462.42774566474,4,2,1,44,1,0
118305,453.686200378072,4,2,1,44,1,0
119134,-100,4,2,1,5,0,0
119212,463.320463320464,4,2,1,44,1,0
121065,452.830188679245,4,2,1,58,1,0
121960,-100,4,2,1,58,0,0
122876,468.750000000001,4,2,1,69,1,0
123815,456.273764258556,4,2,1,44,1,0
124727,459.770114942529,4,2,1,44,1,0
127485,447.761194029851,4,2,1,44,1,0
128380,459.770114942529,4,2,1,44,1,0
128533,-100,4,2,1,5,0,0
128609,-100,4,2,1,44,0,0
128763,-100,4,2,1,5,0,0
128839,-100,4,2,1,44,0,0
129299,457.142857142858,4,2,1,44,1,0
129299,-125,4,2,1,44,0,0
130213,463.320463320464,4,2,1,44,1,0
131139,458.891013384322,4,2,1,44,1,0
132974,456.273764258556,4,2,1,44,1,0
133886,451.977401129944,4,2,1,44,1,0
134789,458.891013384322,4,2,1,44,1,0
134789,-100,4,2,1,44,0,0
135706,470.588235294118,4,2,1,44,1,0
135706,-100,4,2,1,44,0,0
136568,-100,4,2,1,5,0,0
136647,436.363636363637,4,2,1,44,1,0
136647,-100,4,2,1,44,0,0
137519,473.372781065089,4,2,1,44,1,0
137519,-100,4,2,1,44,0,0
138465,458.891013384322,4,2,1,44,1,0
138465,-100,4,2,1,44,0,0
139382,-100,4,2,1,44,0,0
140300,452.830188679246,4,2,1,44,1,0
140300,-100,4,2,1,44,0,0
141205,459.770114942529,4,2,1,44,1,0
142124,452.830188679246,4,2,1,44,1,0
143935,460.652591170826,4,2,1,44,1,0
144856,465.116279069768,4,2,1,44,1,0
144856,-100,4,2,1,44,0,0
145786,461.538461538462,4,2,1,44,1,0
145786,-100,4,2,1,44,0,0
146709,457.142857142858,4,2,1,44,1,0
146709,-100,4,2,1,44,0,0
147623,-100,4,2,1,44,0,0
148537,454.545454545455,4,2,1,44,1,0
149446,460.652591170826,4,2,1,44,1,0
150367,459.770114942529,4,2,1,44,1,0
151669,-100,4,2,1,5,0,0
151746,-100,4,2,1,39,0,0
152129,-100,4,2,1,5,0,0
152206,458.015267175573,4,2,1,33,1,0
164954,-100,4,2,1,72,0,0
165041,454.545454545455,4,2,1,72,1,0
165041,-71.4285714285714,4,2,1,72,0,0
165877,-100,4,2,1,5,0,0
165950,433.996383363472,4,2,1,72,1,0
166383,-100,4,2,1,66,0,0
166817,475.247524752476,4,2,1,84,1,0
167450,-100,4,2,1,5,0,0
167529,-100,4,2,1,93,0,0
167767,457.142857142858,4,2,1,93,1,1
167767,-66.6666666666667,4,2,1,93,0,1
168224,-76.9230769230769,4,2,1,84,0,1
169595,458.015267175573,4,2,1,84,1,1
169595,-100,4,2,1,84,0,1
171427,456.273764258556,4,2,1,84,1,1
173252,458.015267175573,4,2,1,84,1,1
174855,-100,4,2,1,93,0,1
175084,463.320463320464,4,2,1,93,1,1
175084,-66.6666666666667,4,2,1,93,0,1
175547,-76.9230769230769,4,2,1,84,0,1
176473,-100,4,2,1,84,0,1
176937,457.142857142858,4,2,1,84,1,1
176937,-100,4,2,1,84,0,1
177851,459.770114942529,4,2,1,84,1,1
177851,-100,4,2,1,84,0,1
178770,454.545454545455,4,2,1,84,1,1
181497,462.42774566474,4,2,1,77,1,0
183346,458.891013384322,4,2,1,77,1,0
186099,451.127819548873,4,2,1,77,1,0
187001,456.273764258556,4,2,1,77,1,0
187913,460.652591170826,4,2,1,77,1,0
188834,465.116279069768,4,2,1,77,1,0
189764,447.761194029851,4,2,1,77,1,0
190659,463.320463320464,4,2,1,77,1,0
192512,447.761194029851,4,2,1,77,1,0
193407,465.116279069768,4,2,1,77,1,0
193872,454.545454545455,4,2,1,77,1,0
194326,461.538461538462,4,2,1,77,1,0
196172,444.444444444445,4,2,1,51,1,0
197060,469.667318982388,4,2,1,63,1,0
197529,-125,4,2,1,63,0,0
197999,461.538461538462,4,2,1,72,1,0
197999,-111.111111111111,4,2,1,72,0,0
198922,451.127819548873,4,2,1,72,1,0
199824,461.538461538462,4,2,1,72,1,0
199824,-111.111111111111,4,2,1,72,0,0
200747,458.015267175573,4,2,1,72,1,0
201663,460.652591170826,4,2,1,72,1,0
201663,-111.111111111111,4,2,1,72,0,0
202584,454.545454545455,4,2,1,72,1,0
203493,461.538461538462,4,2,1,72,1,0
205339,458.891013384322,4,2,1,72,1,0
206180,-100,4,2,1,5,0,0
206256,-100,4,2,1,72,0,0
207174,456.273764258556,4,2,1,72,1,0
208086,452.830188679246,4,2,1,72,1,0
208991,460.652591170826,4,2,1,72,1,0
209912,462.42774566474,4,2,1,83,1,0
210374,-100,4,2,1,88,0,0
210528,-100,4,2,1,99,0,0
210836,-100,4,2,1,27,0,0
213611,-100,4,2,1,5,0,0

[Colours]
Combo1 : 128,128,128
Combo2 : 204,204,255
Combo3 : 141,141,199
Combo4 : 253,172,206
Combo5 : 106,106,183
Combo6 : 252,109,170
Combo7 : 162,162,255
Combo8 : 192,192,192

[HitObjects]
444,144,26536,6,0,L|448:170,2,26.6666666666667,0|0|0,1:0|1:0|1:0,1:0:0:0:
440,134,26739,2,0,P|401:139|363:126,1,80,0|0,1:0|1:0,0:0:0:0:
328,56,27148,2,0,B|319:128|319:128|313:131|313:131|303:211,1,160,4|6,0:0|3:1,0:0:0:0:
390,375,28072,5,2,0:0:0:0:
443,269,28534,2,0,B|395:250|350:273|380:291|331:314|296:304,1,160,2|2,1:0|0:0,0:0:0:0:
199,365,29303,1,2,0:0:0:0:
188,361,29457,2,0,P|141:300|159:225,1,160,2|0,3:1|0:0,0:0:0:0:
22,152,30218,1,2,0:0:0:0:
29,156,30371,2,0,L|134:139,1,106.666666666667,2|2,1:0|0:0,0:0:0:0:
178,57,30828,2,0,B|216:82|221:125|221:125|247:92|287:93,1,160,2|2,0:0|3:1,0:0:0:0:
424,144,31590,5,2,0:0:0:0:
417,137,31743,2,0,P|385:177|391:228,1,106.666666666667,2|2,0:0|0:0,0:0:0:0:
484,279,32201,2,0,B|440:260|401:281|428:304|376:336|341:314,1,160,2|2,1:0|0:0,0:0:0:0:
239,369,32964,1,2,0:0:0:0:
229,360,33117,2,0,L|261:95,1,266.666666666667,2|2,3:1|0:0,0:0:0:0:
326,39,34031,2,0,P|275:45|231:16,1,106.666666666667,2|2,1:0|0:0,0:0:0:0:
159,71,34488,2,0,P|108:65|64:94,1,106.666666666667,2|2,0:0|0:0,0:0:0:0:
64,94,34945,1,2,3:1:0:0:
21,216,35252,85,2,0:0:0:0:
29,223,35405,2,0,L|136:208,1,106.666666666667,2|0,0:0|0:0,0:0:0:0:
214,250,35866,1,2,1:0:0:0:
251,104,36173,1,2,0:0:0:0:
241,95,36326,2,0,L|346:80,1,106.666666666667,2|2,0:0|0:0,0:0:0:0:
440,104,36787,2,0,B|413:62|413:62|349:57|311:114|320:184|384:208,1,266.666666666667,2|2,3:1|0:0,0:0:0:0:
459,249,37701,2,0,B|426:269|420:311|420:311|385:282|341:288,1,160,2|2,1:0|0:0,0:0:0:0:
199,365,38615,6,0,B|138:357|138:357|115:330|115:330|52:320,1,160,2|2,3:1|0:0,0:0:0:0:
4,216,39377,1,2,0:0:0:0:
11,224,39529,2,0,L|116:237,1,106.666666666667,2|2,1:0|0:0,0:0:0:0:
188,279,39987,2,0,P|198:227|176:179,1,106.666666666667,2|2,0:0|3:2,0:0:0:0:
176,180,40444,1,2,3:1:0:0:
291,238,40748,1,2,1:2:0:0:
299,245,40901,2,0,B|405:233,1,106.666666666667,6|2,0:0|3:2,0:0:0:0:
405,232,41358,1,2,1:0:0:0:
504,301,41663,1,2,1:2:0:0:
510,292,41815,2,0,B|514:260|495:220|472:237|448:195|463:147,1,160,4|6,3:0|3:1,0:0:0:0:
511,40,42577,5,2,0:0:0:0:
508,46,42730,2,0,L|402:59,1,106.666666666667,2|2,0:0|0:0,0:0:0:0:
332,14,43188,1,2,1:0:0:0:
245,106,43493,85,2,0:0:0:0:
241,117,43646,2,0,B|235:155|235:155|245:180|245:180|238:220,1,106.666666666667,2|2,0:0|0:0,0:0:0:0:
336,272,44104,6,0,B|275:234|177:280|270:308|161:365|100:331,1,266.666666666667,2|2,3:1|0:0,0:0:0:0:
101,332,45020,1,2,1:0:0:0:
48,248,45325,1,2,0:0:0:0:
54,244,45478,2,0,P|131:238|191:288,1,160,2|2,0:0|3:1,0:0:0:0:
304,240,46241,5,2,0:0:0:0:
296,224,46394,2,0,L|313:118,1,106.666666666667,2|0,0:0|0:0,0:0:0:0:
379,66,46853,2,0,P|327:68|287:35,1,106.666666666667,2|2,1:0|0:0,0:0:0:0:
287,35,47312,1,2,0:0:0:0:
83,1,47618,1,2,0:0:0:0:
80,12,47771,2,0,B|88:78|88:78|84:83|84:83|95:169,1,160,2|2,3:1|0:0,0:0:0:0:
16,312,48687,2,0,P|68:315|109:347,1,106.666666666667,2|2,1:0|0:0,0:0:0:0:
181,304,49145,2,0,P|190:325|193:356,2,53.3333333333333,2|0|0,3:0|1:0|1:0,0:0:0:0:
123,247,49603,1,2,3:1:0:0:
144,112,49906,85,2,0:0:0:0:
154,110,50057,2,0,L|259:95,1,106.666666666667,2|2,0:0|0:0,0:0:0:0:
313,35,50512,1,2,1:0:0:0:
396,108,50819,1,2,0:0:0:0:
402,100,50973,2,0,B|462:78|492:128|492:128|468:143|463:174,1,160,2|2,0:0|3:1,0:0:0:0:
512,336,52198,1,2,0:0:0:0:
506,329,52351,2,0,L|400:314,1,106.666666666667,2|2,1:0|0:0,0:0:0:0:
343,255,52809,2,0,P|292:262|260:303,1,106.666666666667,2|2,0:0|0:0,0:0:0:0:
220,384,53267,6,0,B|210:317|210:317|205:313|205:313|194:227,1,160,2|2,3:1|0:0,0:0:0:0:
244,122,54027,1,2,0:0:0:0:
234,129,54179,2,0,P|183:135|158:92,1,106.666666666667,2|2,1:0|0:0,0:0:0:0:
96,32,54635,2,0,P|45:26|20:69,1,106.666666666667,2|2,0:0|3:2,0:0:0:0:
20,69,55092,1,2,3:1:0:0:
0,201,55397,1,2,1:2:0:0:
8,205,55550,2,0,L|112:185,1,106.666666666667,6|2,0:0|3:2,0:0:0:0:
176,128,56009,2,0,B|221:137|221:137|231:155|231:155|270:164,1,106.666666666667,2|0,1:0|1:0,0:0:0:0:
320,232,56468,2,0,B|299:190|331:154|340:165|367:130|341:83,1,160,4|4,3:0|3:1,0:0:0:0:
341,84,57850,5,4,0:0:0:0:
472,296,58773,85,2,1:2:0:0:
400,384,59104,1,8,3:0:0:0:
292,328,59399,1,4,3:0:0:0:
292,328,59659,2,0,L|307:205,1,111.999996582031,2|0,1:0|0:0,0:0:0:0:
312,224,60603,6,0,B|265:233|239:204|257:191|215:160|169:177,1,160,6|2,3:1|3:0,0:0:0:0:
51,245,61366,1,2,0:1:0:0:
40,237,61519,2,2,L|54:131,1,106.666666666667,2|2,1:3|0:0,0:1:0:0:
6,66,61977,2,0,P|36:27|85:40,1,106.666666666667,2|2,0:3|0:0,0:0:0:0:
85,40,62435,1,2,0:3:0:0:
200,8,62726,1,2,0:1:0:0:
220,29,62872,2,0,L|201:139,1,106.666666666667,2|2,3:0|0:1,0:0:0:0:
151,196,63310,2,0,B|201:211|230:188|216:172|252:143|297:162,1,160,2|2,1:3|0:3,0:0:0:0:
384,112,64091,1,2,0:0:0:0:
384,112,64247,1,2,3:0:0:0:
464,184,64552,5,2,0:0:0:0:
462,193,64705,2,2,L|444:298,1,106.666666666667,2|2,3:0|0:0,0:1:0:0:
495,383,65163,2,0,P|434:336|356:343,1,160,2|2,1:3|0:3,0:0:0:0:
162,262,65926,2,0,P|94:258|114:323,1,160,2|2,0:1|0:0,0:0:0:0:
122,332,66539,2,0,L|228:314,1,106.666666666667,2|2,3:0|0:1,0:0:0:0:
288,384,67000,2,2,B|259:343|282:289|323:304|342:238|289:204|289:204|305:231|304:253,1,256,4|6,1:0|3:1,0:1:0:0:
303,253,68382,85,2,3:0:0:0:
393,314,68689,2,0,P|454:269|442:193,1,160,2|2,0:1|0:0,0:0:0:0:
511,145,69303,2,0,P|459:141|411:118,1,106.666666666667,2|2,0:3|0:0,0:0:0:0:
411,118,69764,1,2,0:3:0:0:
256,23,70071,1,2,0:1:0:0:
244,49,70224,2,0,L|261:154,1,106.666666666667,2|2,3:0|0:1,0:0:0:0:
331,203,70685,1,2,1:3:0:0:
271,344,70985,1,2,0:1:0:0:
257,327,71136,2,2,L|151:344,1,106.666666666667,2|2,0:3|0:0,0:1:0:0:
135,367,71587,1,2,3:0:0:0:
0,254,71891,5,0,1:0:0:0:
69,203,72044,2,2,L|190:218,1,106.666666666667,2|2,0:3|3:2,0:1:0:0:
255,247,72501,2,0,P|229:202|234:150,1,106.666666666667,2|2,1:3|3:1,0:0:0:0:
234,149,72958,1,6,1:0:0:0:
183,58,73263,5,2,0:0:0:0:
263,30,73415,2,2,L|368:47,1,106.666666666667,2|2,3:0|1:2,0:1:0:0:
440,0,73880,2,2,B|451:48|451:48|447:53|447:53|456:103,1,106.666666666667,6|2,3:1|0:0,0:1:0:0:
461,189,74345,86,0,P|477:209|483:235,2,53.3333333333333,4|0|0,3:0|3:0|1:0,0:0:0:0:
383,152,74792,2,0,P|356:155|331:148,2,53.3333333333333,8|4|4,3:0|3:0|3:0,0:0:0:0:
389,244,75240,6,0,P|312:259|267:323,1,160,4|2,3:1|3:0,0:0:0:0:
267,323,76164,2,2,P|189:327|129:277,1,160,0|2,1:0|0:3,0:1:0:0:
16,232,76935,1,2,0:0:0:0:
7,221,77089,2,0,L|22:115,1,106.666666666667,2|0,0:0|3:0,0:0:0:0:
112,96,77541,2,0,L|96:201,1,106.666666666667,4|0,3:2|3:0,0:0:0:0:
129,277,77994,2,2,B|181:293|208:263|199:249|222:220|272:236,1,160,0|2,1:0|0:3,0:1:0:0:
409,377,78749,5,2,0:0:0:0:
480,344,78900,2,0,B|496:300|466:264|453:284|423:245|439:200,2,160,0|2|0,3:0|3:0|1:0,0:0:0:0:
267,323,80281,2,0,B|244:320|218:337|218:337|206:305|186:293,1,106.666666666667,2|2,0:3|0:0,0:0:0:0:
186,293,80742,2,0,B|264:280|264:280|267:284|267:284|342:270,1,160,2|4,0:0|3:2,0:0:0:0:
464,104,81644,86,2,P|427:67|375:68,1,106.666666666667,0|2,1:0|0:0,0:1:0:0:
303,31,82101,2,2,P|330:77|324:129,1,106.666666666667,2|2,0:3|0:0,0:1:0:0:
256,192,82558,6,0,B|236:237|265:276|282:252|315:285|297:332,1,160,2|2,3:2|3:0,0:0:0:0:
297,332,83472,2,2,L|138:355,1,160,0|2,1:0|0:3,0:1:0:0:
20,298,84253,1,2,0:0:0:0:
14,289,84409,2,0,P|8:237|39:195,1,106.666666666667,2|0,0:0|3:0,0:0:0:0:
16,118,84868,2,0,P|57:149|110:153,1,106.666666666667,4|0,3:2|3:0,0:0:0:0:
168,215,85328,2,2,P|238:181|267:108,1,160,0|2,1:0|0:3,0:1:0:0:
267,108,86244,6,0,L|372:93,1,106.666666666667,2|2,3:2|0:0,0:0:0:0:
456,72,86702,2,0,P|421:111|422:163,1,106.666666666667,2|2,3:0|0:0,0:0:0:0:
495,200,87160,2,2,B|452:183|421:209|432:228|402:257|352:240,1,160,0|2,1:0|3:0,0:1:0:0:
208,328,87923,1,4,0:3:0:0:
190,319,88076,2,2,B|168:258|200:280|177:214,1,106.666666666667,2|2,3:2|3:2,0:1:0:0:
237,166,88534,2,2,L|131:151,1,106.666666666667,2|0,1:3|3:0,0:1:0:0:
48,142,88992,1,4,3:2:0:0:
48,142,89908,86,0,B|92:119|101:71|101:71|156:0|247:38,1,256,2|2,0:0|1:2,0:0:0:0:
286,180,91134,1,0,1:0:0:0:
283,191,91287,2,0,L|271:275,1,85.3333333333333,4|0,3:0|0:0,0:0:0:0:
192,304,91747,6,0,B|256:264|348:306|263:346|360:393|429:358,1,266.666666666667,6|2,3:1|0:0,0:0:0:0:
426,359,92657,1,2,1:0:0:0:
469,242,92961,1,2,0:0:0:0:
460,245,93113,2,0,B|401:258|401:258|382:291|382:291|321:303,1,160,2|2,0:0|3:1,0:0:0:0:
144,232,94028,6,0,P|121:186|127:133,1,106.666666666667,2|0,0:0|0:0,0:0:0:0:
208,117,94489,2,0,P|231:163|225:216,1,106.666666666667,2|0,1:0|0:0,0:0:0:0:
184,289,94949,2,0,B|130:281|130:281|126:284|126:284|79:276,1,106.666666666667,2|0,0:0|0:0,0:0:0:0:
40,360,95410,2,0,L|10:202,1,160,2|2,3:1|0:0,0:0:0:0:
114,0,96331,2,0,B|147:44|147:44|133:93,1,106.666666666667,2|0,1:0|0:0,0:0:0:0:
52,125,96782,2,0,L|0:115,2,53.3333333333333,2|0|0,0:3|1:0|1:0,0:0:0:0:
117,180,97233,86,0,L|275:159,1,160,2|2,3:1|0:0,0:0:0:0:
275,158,98148,2,0,B|226:186|226:186|207:139,1,106.666666666667,2|2,1:0|0:0,0:0:0:0:
259,79,98606,2,0,B|307:62|344:94|320:104|360:136|402:121,1,160,2|2,0:0|3:1,0:0:0:0:
488,200,99369,1,2,0:0:0:0:
494,189,99522,2,0,P|503:163|501:137,2,53.3333333333333,2|0|2,0:0|0:0|0:0,0:0:0:0:
485,287,99980,2,0,B|443:271|410:301|426:312|394:349|343:325,1,160,2|2,1:0|0:0,0:0:0:0:
128,192,100896,6,0,B|70:202|70:202|67:206|67:206|3:215,2,128,2|2|2,3:1|0:0|1:0,0:0:0:0:
237,85,102268,6,0,P|241:58|228:35,2,53.3333333333333,2|0|0,0:3|1:0|1:0,0:0:0:0:
163,102,102714,2,0,P|150:79|154:53,2,53.3333333333333,2|0|0,3:1|1:0|1:0,0:0:0:0:
215,167,103169,86,0,B|264:158|264:158|309:192,1,106.666666666667,0|8,1:0|3:0,0:0:0:0:
384,144,103624,2,0,L|399:249,1,106.666666666667,2|0,1:0|1:0,0:0:0:0:
464,312,104080,1,4,3:2:0:0:
438,336,104231,1,0,1:0:0:0:
404,345,104383,1,0,1:0:0:0:
371,337,104535,1,6,3:1:0:0:
256,216,104999,6,0,L|271:110,1,106.666666666667,2|0,3:0|0:0,0:0:0:0:
224,32,105463,2,0,P|173:26|148:70,1,106.666666666667,2|2,1:0|0:0,0:0:0:0:
156,82,105927,1,2,0:3:0:0:
48,208,106237,1,2,0:0:0:0:
15,133,106391,2,0,B|69:110|133:149|98:175|142:216|201:194,1,213.333333333333,2|2,3:1|0:0,0:0:0:0:
216,200,107314,1,2,1:0:0:0:
256,64,107615,5,2,0:0:0:0:
280,72,107766,2,0,B|327:60|327:60|341:38|341:38|392:24,1,128,2|2,0:3|3:1,0:0:0:0:
464,160,108680,86,0,B|467:187|487:207|487:207|461:211|439:236,1,106.666666666667,2|2,3:0|0:0,0:0:0:0:
506,285,109142,2,0,L|400:303,1,106.666666666667,2|2,1:0|0:0,0:0:0:0:
400,303,109597,1,2,0:3:0:0:
231,355,109901,1,2,0:0:0:0:
231,355,110052,2,0,B|131:331|134:213|202:174|257:231|240:272,1,266.666666666667,2|2,3:1|0:0,0:0:0:0:
143,312,110976,2,0,B|111:309|89:324|89:324|39:313,1,106.666666666667,2|2,1:0|0:0,0:0:0:0:
4,237,111434,2,0,B|-14:197|10:162|30:176|50:135|28:89,1,160,6|2,0:0|3:1,0:0:0:0:
175,26,112196,5,2,0:0:0:0:
185,32,112349,2,0,B|215:60|215:60|201:124,1,106.666666666667,2|2,3:0|0:0,0:0:0:0:
144,184,112806,2,0,B|155:238|155:238|152:242|152:242|161:287,1,106.666666666667,2|2,1:0|0:0,0:0:0:0:
156,309,113263,1,2,0:3:0:0:
285,375,113568,5,2,1:2:0:0:
367,355,113720,2,0,B|343:284|275:275|304:311|223:284|202:238|238:194|275:188|298:208,1,266.666666666667,2|2,3:1|0:0,0:0:0:0:
297,207,114643,86,0,P|244:209|200:180,1,106.666666666667,2|2,1:0|0:0,0:0:0:0:
224,96,115099,2,0,P|276:94|320:123,1,106.666666666667,2|2,0:3|1:2,0:0:0:0:
384,176,115555,2,0,B|357:135|382:84|436:85|459:137,1,160,2|2,3:1|3:0,0:0:0:0:
490,288,116324,1,2,0:0:0:0:
480,295,116478,2,0,L|374:277,1,106.666666666667,2|2,1:0|0:0,0:0:0:0:
309,329,116929,2,0,P|273:293|277:241,1,106.666666666667,2|2,0:3|3:2,0:0:0:0:
277,241,117381,1,2,3:1:0:0:
336,152,117689,5,2,1:2:0:0:
317,142,117843,2,0,L|211:156,1,106.666666666667,6|2,3:2|3:2,0:0:0:0:
192,146,118305,1,2,1:0:0:0:
121,73,118607,5,2,1:2:0:0:
131,78,118758,2,0,B|168:53|165:12|165:12|179:52|226:58,1,160,4|4,3:0|3:1,0:0:0:0:
226,58,120138,1,6,0:0:0:0:
72,344,121065,85,2,1:2:0:0:
40,248,121366,1,8,3:0:0:0:
139,268,121668,1,4,3:0:0:0:
192,146,121970,6,0,L|183:94,2,53.3333333333333,0|0|0,1:0|3:0|1:0,0:0:0:0:
276,102,122423,5,0,1:0:0:0:
321,124,122574,1,0,1:0:0:0:
367,112,122725,1,0,1:0:0:0:
396,68,122876,1,6,3:1:0:0:
496,234,123344,86,2,P|446:247|415:289,1,106.666666666667,2|2,3:0|0:0,0:1:0:0:
460,360,123815,1,2,1:3:0:0:
304,352,124119,5,2,0:0:0:0:
295,347,124271,2,0,L|188:365,1,106.666666666667,2|2,0:3|0:0,0:0:0:0:
180,359,124727,1,2,0:3:0:0:
232,264,125033,5,2,0:1:0:0:
236,257,125186,2,0,B|249:215|205:183|212:202|163:173|185:119,1,160,2|4,3:0|1:2,0:0:0:0:
152,8,125953,85,2,0:1:0:0:
128,24,126106,2,2,B|28:8|28:8|62:55,1,160,2|2,0:3|3:0,0:1:0:0:
8,176,126872,5,2,0:0:0:0:
32,192,127025,2,2,B|78:184|78:184|90:187|90:187|137:177,1,106.666666666667,2|2,3:0|0:0,0:1:0:0:
208,216,127485,1,2,1:3:0:0:
239,127,127783,1,2,0:0:0:0:
235,109,127932,1,2,0:3:0:0:
269,14,128231,5,2,0:0:0:0:
285,18,128380,2,0,L|363:32,1,80,2|2,0:3|0:0,0:0:0:0:
461,102,128839,2,0,B|442:130|398:131|398:131|408:117|411:99,1,106.666666666667,2|2,3:0|0:1,0:0:0:0:
364,33,129299,86,2,L|398:286,1,256,6|6,1:0|3:1,0:1:0:0:
240,361,130676,6,2,B|200:326|200:326|147:336,1,106.666666666667,2|2,3:0|0:1,0:1:0:0:
84,383,131139,6,2,L|99:277,1,106.666666666667,2|2,1:3|0:0,0:1:0:0:
100,269,131597,1,2,0:3:0:0:
16,104,131903,85,2,0:0:0:0:
87,58,132056,2,0,P|141:73|165:125,1,106.666666666667,2|2,0:3|0:1,0:0:0:0:
119,182,132515,2,0,L|224:165,1,106.666666666667,2|2,3:0|0:1,0:0:0:0:
296,216,132974,1,4,1:2:0:0:
449,170,133278,5,2,0:1:0:0:
455,164,133430,2,2,P|480:119|468:62,1,106.666666666667,2|2,0:3|0:0,0:1:0:0:
403,27,133886,1,2,3:0:0:0:
276,96,134187,5,0,1:0:0:0:
278,110,134337,2,2,L|295:215,1,106.666666666667,2|2,0:3|3:1,0:1:0:0:
376,243,134789,1,2,1:3:0:0:
282,366,135094,1,2,3:1:0:0:
256,360,135247,1,4,1:2:0:0:
118,231,135553,85,0,3:0:0:0:
112,223,135706,2,2,B|49:233|49:233|36:273,1,106.666666666667,2|2,3:0|1:2,0:1:0:0:
96,352,136176,2,2,B|159:342|159:342|171:301,1,106.666666666667,4|0,3:1|0:0,0:1:0:0:
224,236,136647,6,0,P|250:239|273:251,2,53.3333333333333,4|0|0,3:0|3:0|1:0,0:0:0:0:
187,158,137083,2,0,P|203:136|225:122,2,53.3333333333333,8|4|4,3:0|3:0|3:0,0:0:0:0:
95,135,137519,6,0,P|103:58|162:6,1,160,6|2,3:1|3:0,0:0:0:0:
360,123,138465,1,2,1:3:0:0:
456,96,138770,1,2,0:1:0:0:
456,96,138923,1,2,0:3:0:0:
440,192,139229,1,2,0:1:0:0:
440,192,139382,2,0,B|395:171|350:199|388:209|340:240|295:223,1,160,2|2,0:3|3:0,0:0:0:0:
168,96,140300,86,2,P|156:44|116:10,1,106.666666666667,2|2,1:0|0:0,0:1:0:0:
39,64,140752,2,2,P|50:115|90:149,1,106.666666666667,2|2,0:3|0:1,0:1:0:0:
167,186,141205,2,2,P|89:186|37:244,1,160,2|2,3:0|3:0,0:1:0:0:
160,368,142124,5,2,1:3:0:0:
264,328,142425,1,2,0:1:0:0:
264,328,142576,1,8,3:0:0:0:
192,256,142878,1,2,3:1:0:0:
192,256,143029,2,0,L|139:266,2,53.3333333333333,2|0|0,0:0|0:0|1:0,0:0:0:0:
266,186,143482,2,0,L|318:196,2,53.3333333333333,0|0|4,1:0|1:0|0:0,0:0:0:0:
182,160,143935,6,2,P|168:109|190:61,1,106.666666666667,2|0,3:1|1:0,0:1:0:0:
296,8,144395,1,2,1:0:0:0:
336,40,144548,1,0,1:0:0:0:
392,48,144702,1,4,3:0:0:0:
448,40,144856,86,0,B|416:141|463:100|434:197,1,160,6|2,3:1|3:0,0:0:0:0:
288,368,145786,5,2,1:3:0:0:
224,280,146093,1,2,0:1:0:0:
224,280,146247,1,2,0:3:0:0:
136,336,146555,1,2,0:1:0:0:
136,336,146709,2,0,B|97:328|65:344|65:344|65:296|24:270,1,160,2|2,0:3|3:0,0:0:0:0:
30,141,147623,6,2,P|71:172|124:171,1,106.666666666667,2|2,1:0|0:0,0:1:0:0:
187,218,148080,2,2,L|169:112,1,106.666666666667,2|2,3:0|0:0,0:1:0:0:
152,40,148537,1,2,3:0:0:0:
272,0,148840,85,0,1:0:0:0:
266,9,148991,2,0,P|308:40|308:92,1,106.666666666667,2|0,0:3|3:3,0:0:0:0:
256,152,149446,1,2,1:3:0:0:
338,255,149753,1,2,3:1:0:0:
347,254,149906,2,0,L|452:236,1,106.666666666667,4|2,1:0|1:0,0:0:0:0:
512,346,150367,6,0,L|406:328,1,106.666666666667,4|0,3:1|1:0,0:0:0:0:
344,376,150826,1,4,3:1:0:0:
256,288,151133,1,2,0:0:0:0:
256,288,151286,6,0,B|217:300|217:300|190:291|190:291|153:299,1,106.666666666667,2|0,1:0|0:0,0:0:0:0:
52,288,151746,2,0,P|123:288|121:217,1,160,8|4,3:0|3:1,0:0:0:0:
8,100,165041,54,2,B|56:106|114:177|11:208|78:401|230:267|153:90|103:158,1,373.333321940105,4|0,0:0|0:0,0:1:0:0:
103,157,165950,6,0,P|76:157|50:152,2,53.3333333333333,8|4|0,3:0|3:0|1:0,0:0:0:0:
141,68,166383,2,0,P|132:42|118:20,2,53.3333333333333,8|4|4,3:0|3:0|3:0,0:0:0:0:
224,128,166817,86,0,B|320:104|276:148|381:120,1,160,6|2,3:1|3:0,0:0:0:0:
416,8,167529,1,2,0:1:0:0:
396,128,167767,86,2,B|424:134|424:134|427:132|427:132|432:135|432:135|455:110|463:147|463:147|511:148|473:198,1,160.000006103516,4|0,1:0|0:0,0:1:0:0:
506,281,168224,2,2,B|493:289|493:289|492:316|463:331|463:331|449:289|416:284,1,138.666660319011,2|2,0:3|0:1,0:1:0:0:
364,344,168681,1,2,0:3:0:0:
252,300,168986,5,2,0:1:0:0:
252,300,169138,2,2,B|239:260|269:240|269:240|304:216|291:179,1,138.666660319011,2|2,3:0|0:1,0:1:0:0:
352,128,169595,1,4,1:2:0:0:
288,16,169900,1,2,0:1:0:0:
288,16,170053,2,2,B|268:34|268:34|224:28|190:45,1,106.666666666667,2|2,0:3|3:1,0:1:0:0:
172,56,170511,1,2,3:0:0:0:
44,8,170816,5,2,0:1:0:0:
4,84,170969,2,2,L|22:189,1,106.666666666667,2|2,3:0|0:1,0:1:0:0:
0,268,171427,2,0,P|34:305|82:290,1,106.666666666667,4|2,1:2|0:1,0:0:0:0:
82,290,171883,1,2,0:3:0:0:
214,339,172187,86,0,B|184:300|207:269|207:269|208:264|208:264|235:233|209:190,1,160,2|0,0:1|1:0,0:0:0:0:
165,129,172795,2,0,L|270:145,1,106.666666666667,4|2,3:1|0:1,0:0:0:0:
320,80,173252,6,0,B|347:54|347:54|380:78|388:48|428:73|428:73|441:107,1,160,4|2,1:2|0:3,0:0:0:0:
491,266,174015,5,2,1:0:0:0:
508,344,174168,2,0,B|481:347|460:367|460:367|454:340|433:322,1,106.666666666667,6|0,3:1|0:0,0:0:0:0:
433,322,174626,1,2,3:0:0:0:
308,364,174931,85,2,0:1:0:0:
302,366,175084,2,2,B|277:352|287:295|294:308|294:308|306:277|286:244|257:237,1,160.000006103516,6|2,1:0|0:1,0:1:0:0:
244,252,175547,1,2,0:3:0:0:
208,144,175856,6,0,B|192:136|184:112|184:112|149:130|136:162|136:162|84:184|45:149,1,207.999990478516,2|2,0:1|0:1,0:0:0:0:
32,63,176473,2,2,P|63:23|115:23,1,106.666666666667,2|2,3:0|0:1,0:1:0:0:
124,32,176937,1,4,1:2:0:0:
256,0,177241,5,2,0:1:0:0:
312,64,177394,2,2,L|296:169,1,106.666666666667,2|2,0:3|0:1,0:1:0:0:
296,169,177851,1,2,3:0:0:0:
228,316,178157,85,2,1:0:0:0:
296,364,178310,2,2,L|401:348,1,106.666666666667,2|2,0:3|3:1,0:1:0:0:
479,372,178770,6,0,P|505:326|495:275,1,106.666666666667,4|2,1:2|3:1,0:0:0:0:
495,275,179224,1,6,1:0:0:0:
412,225,179527,6,0,B|335:244|335:244|283:216|316:180,1,160,2|0,0:1|1:0,0:0:0:0:
353,104,180133,2,0,P|380:107|402:121,2,53.3333333333333,2|0|0,1:0|1:0|1:0,0:0:0:0:
315,180,180588,85,2,1:0:0:0:
261,202,180739,1,0,1:0:0:0:
206,186,180891,1,0,1:0:0:0:
175,139,181042,1,2,1:0:0:0:
144,91,181193,1,2,1:0:0:0:
89,75,181345,1,2,1:0:0:0:
35,98,181497,70,2,L|49:203,1,106.666666666667,6|2,3:1|3:1,0:1:0:0:
32,312,181959,2,2,L|24:364,2,53.3333333333333,4|2|0,1:2|3:1|1:0,0:1:0:0:
23,301,182421,2,2,B|68:294|68:294|77:296|77:296|128:287,1,106.666666666667,4|0,0:0|3:0,0:1:0:0:
200,320,182884,1,4,1:2:0:0:
240,228,183192,5,2,0:1:0:0:
243,219,183346,2,2,P|215:174|221:122,1,106.666666666667,4|0,3:2|3:0,0:1:0:0:
306,62,183804,2,0,L|296:7,2,53.3333333333333,4|2|2,1:2|0:1|1:0,0:0:0:0:
233,114,184263,2,2,B|269:89|323:119|291:132|337:160|378:145,1,160,4|4,0:0|1:2,0:1:0:0:
496,97,185028,5,0,0:0:0:0:
494,110,185181,2,2,L|476:215,1,106.666666666667,4|2,3:2|3:1,0:1:0:0:
508,288,185640,1,4,1:2:0:0:
420,384,185946,1,2,1:0:0:0:
412,376,186099,2,2,P|371:342|319:344,1,106.666666666667,4|2,0:0|3:1,0:1:0:0:
252,296,186550,2,2,P|304:297|344:264,1,106.666666666667,4|2,1:2|1:0,0:1:0:0:
424,223,187001,86,2,P|417:146|355:99,1,160,4|4,3:2|1:0,0:1:0:0:
232,64,187761,1,2,1:0:0:0:
224,56,187913,2,0,L|231:3,2,53.3333333333333,2|0|2,3:0|1:0|3:0,0:0:0:0:
148,100,188373,1,0,1:0:0:0:
112,84,188527,1,2,3:0:0:0:
72,92,188680,1,0,1:0:0:0:
48,128,188834,6,2,L|64:233,1,106.666666666667,6|2,3:1|3:1,0:1:0:0:
20,312,189299,2,2,L|72:321,1,53.3333333333333,4|2,1:2|0:1,0:1:0:0:
148,360,189609,1,2,1:0:0:0:
152,352,189764,2,2,B|176:304|176:304|160:253,1,106.666666666667,4|2,0:2|3:1,0:1:0:0:
135,182,190211,1,4,1:2:0:0:
188,100,190510,5,0,3:0:0:0:
192,92,190659,2,0,L|182:39,2,53.3333333333333,4|2|2,3:2|0:1|3:1,0:0:0:0:
276,132,191122,2,0,L|266:185,2,53.3333333333333,4|2|2,1:2|0:1|1:0,0:0:0:0:
336,48,191585,1,4,0:2:0:0:
384,33,191740,1,2,0:1:0:0:
432,48,191894,1,2,3:1:0:0:
460,96,192048,2,0,L|512:84,2,53.3333333333333,4|2|2,1:2|0:1|3:1,0:0:0:0:
451,149,192512,85,6,3:1:0:0:
440,296,192810,1,2,1:0:0:0:
444,308,192959,2,0,L|454:360,2,53.3333333333333,8|2|4,3:0|3:1|3:0,0:0:0:0:
500,224,193407,5,6,1:0:0:0:
364,252,193717,1,2,1:0:0:0:
356,263,193872,2,0,P|304:263|269:224,1,106.666666666667,4|0,3:0|1:0,0:0:0:0:
312,152,194326,2,2,L|364:161,2,53.3333333333333,8|4|0,3:0|3:0|3:0,0:1:0:0:
260,88,194787,6,2,B|204:97|224:118|161:129,1,106.666666666667,6|2,1:0|1:0,0:1:0:0:
100,80,195249,2,2,P|51:69|32:115,1,106.666666666667,4|2,3:1|1:0,0:1:0:0:
72,192,195710,1,0,1:0:0:0:
65,219,195863,1,0,1:0:0:0:
59,247,196017,1,0,1:0:0:0:
52,274,196171,1,2,0:1:0:0:
252,368,197060,86,0,L|237:262,1,106.666666666667,8|2,3:0|0:1,0:0:0:0:
237,262,197529,2,0,B|276:284|276:284|324:271,1,85.3333333333333,2|2,3:1|0:1,0:0:0:0:
384,332,197999,6,2,B|345:305|338:230|399:185|407:239|466:199|467:132|422:94,1,287.999991210938,6|4,3:1|1:2,0:1:0:0:
423,95,199373,5,2,0:3:0:0:
256,20,199673,1,2,0:1:0:0:
256,20,199824,2,2,L|160:33,1,95.9999970703126,4|0,3:2|0:0,0:1:0:0:
76,8,200285,2,2,P|49:45|58:91,1,95.9999970703126,2|0,3:0|0:0,0:1:0:0:
0,164,200747,85,4,1:2:0:0:
144,136,201052,1,6,3:1:0:0:
272,207,201357,1,6,3:1:0:0:
324,343,201663,6,2,B|364:344|396:363|396:363|411:330|441:313,1,143.999995605469,6|2,3:1|3:0,0:1:0:0:
372,192,202584,6,0,B|377:143|377:143|381:140|381:140|389:88,1,106.666666666667,4|0,1:2|0:0,0:0:0:0:
348,24,203038,2,0,P|365:4|389:10,2,53.3333333333333,2|0|0,0:3|0:0|1:0,0:0:0:0:
256,104,203493,85,6,3:1:0:0:
229,99,203646,1,2,0:1:0:0:
203,94,203800,1,2,0:1:0:0:
177,89,203954,2,0,L|71:107,1,106.666666666667,2|2,3:0|0:1,0:0:0:0:
0,184,204416,6,0,B|80:214|128:154|128:154|70:205|87:280,1,280,2|2,1:0|0:1,0:0:0:0:
86,277,205339,2,2,P|112:281|134:297,1,53.3333333333333,2|2,0:3|0:1,0:1:0:0:
188,364,205644,1,0,1:0:0:0:
199,358,205797,6,2,P|231:316|240:264,1,106.666666666667,2|0,3:0|0:0,0:1:0:0:
182,203,206256,2,0,B|335:263|284:140|436:196,1,266.666666666667,4|2,1:2|0:0,0:0:0:0:
435,195,207174,86,2,L|425:139,2,53.3333333333333,2|0|0,3:1|0:0|1:0,0:1:0:0:
488,268,207630,1,8,3:0:0:0:
480,304,207782,1,4,3:0:0:0:
448,328,207934,1,2,3:1:0:0:
404,320,208086,2,2,L|298:335,1,106.666666666667,6|0,1:0|1:0,0:1:0:0:
288,352,208538,1,4,3:2:0:0:
192,264,208840,6,0,P|195:237|200:211,1,53.3333333333333,2|8,1:0|3:0,0:0:0:0:
140,152,209144,2,2,P|88:160|40:132,2,106.666666666667,4|4|0,3:0|1:2|1:0,0:1:0:0:
200,211,209912,2,2,L|305:194,1,106.666666666667,6|2,3:1|1:0,0:1:0:0:
376,228,210374,1,0,1:0:0:0:
388,200,210528,1,2,1:0:0:0:
384,176,210682,1,2,1:0:0:0:
256,192,210836,12,0,213611,0:0:0:0:
