osu file format v14

[General]
AudioFilename: audio.mp3
AudioLeadIn: 0
PreviewTime: 90653
Countdown: 0
SampleSet: Soft
StackLeniency: 0.7
Mode: 0
LetterboxInBreaks: 0
WidescreenStoryboard: 0

[Editor]
Bookmarks: 3381,15848,28316,34549,53251,65718,75897,78186,90653,96887,115588,128056,131173
DistanceSpacing: 1
BeatDivisor: 4
GridSize: 32
TimelineZoom: 2.799999

[Metadata]
Title:Nao sou obrigada
TitleUnicode:Não sou obrigada
Artist:POCAH
ArtistUnicode:POCAH
Creator:jamesjan3
Version:Funk
Source:
Tags:brazilian funk brasileiro português portuguese
BeatmapID:3542719
BeatmapSetID:1733246

[Difficulty]
HPDrainRate:5
CircleSize:3.6
OverallDifficulty:8
ApproachRate:9.6
SliderMultiplier:2
SliderTickRate:1

[Events]
//Background and Video events
0,0,"daniel-monteiro-WgXWmVEDmM4-unsplash.jpg",0,0
//Break Periods
2,53376,55330
2,78442,80265
2,115715,117668
2,128214,129161
//Storyboard Layer 0 (Background)
//Storyboard Layer 1 (Fail)
//Storyboard Layer 2 (Pass)
//Storyboard Layer 3 (Foreground)
//Storyboard Layer 4 (Overlay)
//Storyboard Sound Samples

[TimingPoints]
320,389.61038961039,4,2,0,60,1,0
3437,-30.7692307692308,4,2,0,60,0,0
4605,-400,4,2,0,60,0,0
6553,-50,4,2,0,60,0,0
9670,-50,4,2,0,60,0,0
10839,-400,4,2,0,60,0,0
12787,-100,4,2,0,70,0,0
14346,-66.6666666666667,4,2,0,70,0,0
15515,-25,4,2,0,70,0,0
16683,-133.333333333333,4,2,0,70,0,0
18242,-100,4,2,0,70,0,0
19800,-133.333333333333,4,2,0,70,0,0
21359,-100,4,2,0,70,0,0
21748,-57.1428571428571,4,2,0,70,0,0
22917,-133.333333333333,4,2,0,70,0,0
24476,-100,4,2,0,70,0,0
25255,-66.6666666666667,4,2,0,70,0,0
26813,-25,4,2,0,100,0,0
27982,-33.3333333333333,4,2,0,100,0,0
28437,-33.3333333333333,4,2,0,70,0,0
31489,-121.212121212121,4,2,0,70,0,0
32657,-50,4,2,0,70,0,0
33047,-57.1428571428571,4,2,0,70,0,0
34216,-33.3333333333333,4,2,0,100,0,0
34410,-66.6666666666667,4,2,0,100,0,0
34605,-33.3333333333333,4,2,0,100,0,1
34800,-50,4,2,0,100,0,1
35385,-33.3333333333333,4,2,0,100,0,1
35579,-50,4,2,0,100,0,1
35774,-100,4,2,0,100,0,1
35969,-33.3333333333333,4,2,0,100,0,1
36164,-100,4,2,0,100,0,1
36748,-200,4,2,0,100,0,1
37138,-50,4,2,0,100,0,1
37722,-44.4444444444445,4,2,0,100,0,1
38696,-57.1428571428571,4,2,0,100,0,1
39281,-44.4444444444445,4,2,0,100,0,1
40450,-66.6666666666667,4,2,0,100,0,1
40839,-30.7692307692308,4,2,0,100,0,1
41034,-50,4,2,0,100,0,1
41618,-40,4,2,0,100,0,1
41813,-66.6666666666667,4,2,0,100,0,1
42008,-66.6666666666667,4,2,0,100,0,1
42398,-33.3333333333333,4,2,0,100,0,1
42592,-100,4,2,0,100,0,1
42787,-200,4,2,0,100,0,1
42982,-33.3333333333333,4,2,0,100,0,1
43372,-50,4,2,0,100,0,1
44930,-100,4,2,0,100,0,1
45515,-50,4,2,0,100,0,1
46683,-66.6666666666667,4,2,0,100,0,1
47073,-33.3333333333333,4,2,0,100,0,1
47463,-50,4,2,0,100,0,1
47852,-33.3333333333333,4,2,0,100,0,1
48047,-50,4,2,0,100,0,1
48242,-100,4,2,0,100,0,1
48437,-33.3333333333333,4,2,0,100,0,1
48826,-100,4,2,0,100,0,1
49216,-200,4,2,0,100,0,1
49605,-50,4,2,0,100,0,1
50190,-44.4444444444445,4,2,0,100,0,1
50969,-40,4,2,0,100,0,1
51164,-57.1428571428571,4,2,0,100,0,1
51748,-40,4,2,0,100,0,1
52138,-50,4,2,0,100,0,1
52528,-66.6666666666667,4,2,0,100,0,1
52917,-66.6666666666667,4,2,0,100,0,0
53307,-66.6666666666667,4,2,0,70,0,0
58956,-50,4,2,0,70,0,0
59541,-66.6666666666667,4,2,0,70,0,0
62268,-50,4,2,0,70,0,0
62657,-200,4,2,0,70,0,0
63826,-54.054054054054,4,2,0,70,0,0
65385,-50,4,2,0,70,0,0
65774,-66.6666666666667,4,2,0,90,0,0
65969,-66.6666666666667,4,2,0,90,0,0
66553,-44.4444444444445,4,2,0,90,0,0
66748,-66.6666666666667,4,2,0,90,0,0
68112,-44.4444444444445,4,2,0,90,0,0
69086,-66.6666666666667,4,2,0,90,0,0
69670,-44.4444444444445,4,2,0,90,0,0
69865,-66.6666666666667,4,2,0,90,0,0
71618,-57.1428571428571,4,2,0,90,0,0
72008,-33.3333333333333,4,2,0,90,0,0
72203,-57.1428571428571,4,2,0,90,0,0
72982,-50,4,2,0,90,0,0
73566,-33.3333333333333,4,2,0,90,0,0
73761,-57.1428571428571,4,2,0,90,0,0
75904,-33.3333333333333,4,2,0,90,0,0
76099,-50,4,2,0,90,0,0
76683,-33.3333333333333,4,2,0,90,0,0
77852,-36.3636363636364,4,2,0,90,0,0
78242,-36.3636363636364,4,2,0,60,0,0
80774,-50,4,2,0,60,0,0
81651,-100,4,2,0,60,0,0
87592,-50,4,2,0,60,0,0
89151,-57.1428571428571,4,2,0,60,0,0
90320,-44.4444444444445,4,2,0,60,0,0
90709,-44.4444444444445,4,2,0,70,0,0
93826,-121.212121212121,4,2,0,70,0,0
94994,-50,4,2,0,70,0,0
96553,-33.3333333333333,4,2,0,100,0,0
96748,-66.6666666666667,4,2,0,100,0,0
96943,-33.3333333333333,4,2,0,100,0,1
97137,-50,4,2,0,100,0,1
97722,-33.3333333333333,4,2,0,100,0,1
97916,-50,4,2,0,100,0,1
98111,-100,4,2,0,100,0,1
98306,-33.3333333333333,4,2,0,100,0,1
98501,-100,4,2,0,100,0,1
99085,-200,4,2,0,100,0,1
99475,-50,4,2,0,100,0,1
100059,-44.4444444444445,4,2,0,100,0,1
101033,-57.1428571428571,4,2,0,100,0,1
101618,-44.4444444444445,4,2,0,100,0,1
102787,-66.6666666666667,4,2,0,100,0,1
103176,-30.7692307692308,4,2,0,100,0,1
103371,-50,4,2,0,100,0,1
103955,-40,4,2,0,100,0,1
104150,-66.6666666666667,4,2,0,100,0,1
104345,-66.6666666666667,4,2,0,100,0,1
104735,-33.3333333333333,4,2,0,100,0,1
104929,-100,4,2,0,100,0,1
105124,-100,4,2,0,100,0,1
105319,-50,4,2,0,100,0,1
107267,-100,4,2,0,100,0,1
108144,-50,4,2,0,100,0,1
108826,-50,4,2,0,100,0,1
109021,-66.6666666666667,4,2,0,100,0,1
109411,-33.3333333333333,4,2,0,100,0,1
109799,-50,4,2,0,100,0,1
110189,-33.3333333333333,4,2,0,100,0,1
110384,-50,4,2,0,100,0,1
110579,-100,4,2,0,100,0,1
110774,-33.3333333333333,4,2,0,100,0,1
111163,-100,4,2,0,100,0,1
111553,-66.6666666666667,4,2,0,100,0,1
111748,-66.6666666666667,4,2,0,100,0,1
112138,-66.6666666666667,4,2,0,100,0,1
112203,-50,4,2,0,100,0,1
112528,-50,4,2,0,100,0,1
113307,-40,4,2,0,100,0,1
113502,-57.1428571428571,4,2,0,100,0,1
114086,-50,4,2,0,100,0,1
114476,-66.6666666666667,4,2,0,100,0,1
114865,-40,4,2,0,100,0,1
115255,-40,4,2,0,70,0,0
118177,-66.6666666666667,4,2,0,70,0,0
121294,-50,4,2,0,70,0,0
122170,-100,4,2,0,70,0,0
123047,-66.6666666666667,4,2,0,70,0,0
124216,-50,4,2,0,70,0,0
125385,-66.6666666666667,4,2,0,70,0,0
125774,-50,4,2,0,70,0,0
125969,-66.6666666666667,4,2,0,70,0,0
126553,-50,4,2,0,70,0,0
126943,-57.1428571428571,4,2,0,70,0,0
127308,-50,4,2,0,70,0,0
127674,-400,4,2,0,70,0,0
128111,-400,4,2,0,90,0,0
129670,-50,4,2,0,90,0,0
129963,-500,4,2,0,90,0,0
130839,-20,4,2,0,90,0,0
131424,-66.6666666666667,4,2,0,90,0,0
132008,-50,4,2,0,90,0,0
132203,-66.6666666666667,4,2,0,90,0,0
133566,-50,4,2,0,90,0,0
134541,-66.6666666666667,4,2,0,90,0,0
135125,-50,4,2,0,90,0,0
135320,-66.6666666666667,4,2,0,90,0,0
137073,-57.1428571428571,4,2,0,90,0,0
137463,-33.3333333333333,4,2,0,90,0,0
137657,-50,4,2,0,90,0,0
139021,-33.3333333333333,4,2,0,90,0,0
139216,-57.1428571428571,4,2,0,90,0,0
142528,-66.6666666666667,4,2,0,90,0,0
143307,-100,4,2,0,90,0,0

[Colours]
Combo1 : 255,128,64
Combo2 : 21,234,85
Combo3 : 218,37,91
Combo4 : 255,128,192

[HitObjects]
442,109,1878,6,2,B|463:180|408:170|439:240|439:240|408:170|376:216|333:155|333:155|379:279|259:389|67:279|145:112|247:137|262:176|259:204,1,700,0|0,0:0|0:0,0:0:0:0:
260,199,3437,6,0,L|243:374,1,162.500004649162,2|0,0:3|0:0,0:0:0:0:
7,76,4021,5,2,0:0:0:0:
81,45,4216,1,2,0:0:0:0:
84,48,4411,1,0,0:0:0:0:
158,18,4605,2,0,L|171:12,2,12.5,2|0|0,0:0|0:0|0:0,0:0:0:0:
158,18,5579,5,2,0:0:0:0:
84,48,5774,1,2,0:0:0:0:
81,45,5969,1,0,0:0:0:0:
7,76,6163,2,0,L|-10:82,2,12.5,2|0|0,0:0|0:0|0:0,0:0:0:0:
100,276,6553,6,0,L|76:388,1,100,2|0,0:3|0:0,0:0:0:0:
442,15,7138,5,2,0:0:0:0:
438,18,7333,1,2,0:0:0:0:
506,62,7528,1,2,0:0:0:0:
442,15,7722,1,2,0:0:0:0:
438,18,7820,1,2,0:0:0:0:
435,13,7917,1,2,0:0:0:0:
435,13,8696,5,2,0:0:0:0:
438,18,8891,1,2,0:0:0:0:
506,62,9086,1,2,0:0:0:0:
435,13,9280,1,2,0:0:0:0:
438,18,9377,1,2,0:0:0:0:
442,15,9475,1,2,0:0:0:0:
106,33,9670,6,0,L|-3:1,1,100,2|0,0:3|0:0,0:0:0:0:
447,378,10255,5,2,0:0:0:0:
502,318,10450,1,2,0:0:0:0:
445,376,10644,1,0,0:0:0:0:
503,315,10839,2,0,L|516:296,2,12.5,2|0|0,0:0|0:0|0:0,0:0:0:0:
447,378,11813,5,2,0:0:0:0:
445,376,12008,1,2,0:0:0:0:
498,315,12203,1,0,0:0:0:0:
503,315,12398,2,0,L|517:296,2,12.5,2|0|0,0:0|0:0|0:0,0:0:0:0:
277,364,12787,6,0,B|218:383|153:286|214:171|279:221|427:172|447:71|300:-111|187:-87|97:92|183:181|264:196,1,700,2|0,0:3|0:0,0:0:0:0:
240,190,14346,6,0,B|404:157|404:157|441:74|441:74|496:63,2,300.000011444092
243,193,15515,6,0,B|259:175|259:175|286:181|286:181|268:201|268:201|243:193,1,100,2|0,0:2|0:0,0:0:0:0:
0,94,15904,5,2,0:3:0:0:
199,0,16099,1,0,0:0:0:0:
4,97,16294,1,2,0:2:0:0:
199,5,16489,1,0,0:0:0:0:
158,247,16683,6,0,P|166:206|155:152,1,75.0000028610231,2|0,0:2|0:0,0:0:0:0:
318,336,17073,1,2,0:2:0:0:
72,206,17268,1,0,0:0:0:0:
234,294,17463,6,0,P|259:261|308:234,1,75.0000028610231,2|0,0:2|0:0,0:0:0:0:
75,209,17852,1,2,0:2:0:0:
315,339,18047,1,0,0:0:0:0:
289,245,18242,2,0,B|235:221|193:276|207:276|155:326|109:302,1,200,2|0,0:2|0:0,0:0:0:0:
479,6,19021,5,2,0:3:0:0:
307,81,19216,1,0,0:0:0:0:
311,85,19411,1,2,0:2:0:0:
477,2,19605,1,0,0:0:0:0:
479,167,19800,6,0,P|444:139|425:97,1,75.0000028610231,2|0,0:2|0:0,0:0:0:0:
208,184,20190,1,2,0:2:0:0:
385,196,20385,1,0,0:0:0:0:
279,239,20579,6,0,P|298:198|298:152,1,75.0000028610231,2|0,0:2|0:0,0:0:0:0:
512,83,20969,1,2,0:2:0:0:
389,200,21164,1,0,0:0:0:0:
304,172,21359,2,0,P|329:178|372:294,1,150.000005722046,2|0,0:2|0:0,0:0:0:0:
471,318,21748,6,0,B|386:332|386:332|389:337|389:337|296:353,1,175.00000166893,8|0,0:3|0:0,0:0:0:0:
0,384,22138,5,2,0:3:0:0:
138,283,22333,1,0,0:0:0:0:
135,280,22528,1,2,0:2:0:0:
279,172,22722,1,0,0:0:0:0:
80,351,22917,6,0,P|40:299|40:273,1,75.0000028610231,2|0,0:2|0:0,0:0:0:0:
82,55,23307,1,2,0:2:0:0:
66,210,23502,1,0,0:0:0:0:
221,275,23696,6,0,P|218:238|197:207,1,75.0000028610231,2|0,0:2|0:0,0:0:0:0:
0,79,24086,1,2,0:2:0:0:
111,194,24281,1,0,0:0:0:0:
201,210,24476,2,0,P|225:160|323:129,1,150,2|0,0:2|0:0,0:0:0:0:
396,199,24865,6,0,B|388:236|363:244|363:244|374:221|370:196,1,100,2|0,0:2|0:0,0:0:0:0:
499,345,25255,6,0,B|477:361|458:354|458:354|476:346|485:330,1,75.0000028610231,2|0,0:3|0:0,0:0:0:0:
256,192,25450,12,0,26618,0:0:0:0:
256,374,26813,6,0,B|245:301|167:309|188:321|112:319|109:258,1,200,8|0,3:0|0:0,0:0:0:0:
255,376,27203,6,0,B|272:197|272:197|257:227,1,200,8|0,3:0|0:0,0:0:0:0:
255,378,27592,6,0,B|289:296|361:312|361:312|367:349|417:359,1,200,8|0,3:0|0:0,0:0:0:0:
258,375,27982,6,0,P|255:203|253:56,1,300.000011444092,8|0,3:0|0:0,0:0:0:0:
228,0,28274,1,0,0:0:0:0:
490,181,28372,5,4,3:0:0:0:
16,192,28761,5,2,0:0:0:0:
487,185,29151,5,2,0:3:0:0:
20,188,29541,5,2,0:0:0:0:
481,188,29930,5,2,0:3:0:0:
25,185,30320,5,2,0:0:0:0:
477,193,30709,5,2,0:3:0:0:
30,182,31099,5,2,0:0:0:0:
271,11,31489,6,2,B|319:11|318:116|241:149|237:104|171:102|141:177|166:257|226:229,1,330.000003147125,2|0,0:3|0:0,0:0:0:0:
271,11,32657,6,2,B|225:6|181:107|269:135|277:98|354:108|369:161|339:238|289:198,1,300,2|0,0:3|0:0,0:0:0:0:
225,228,33047,1,2,3:0:0:0:
30,355,33437,5,0,0:0:0:0:
33,358,33826,1,0,0:0:0:0:
36,361,34216,2,0,P|45:307|73:273,1,75.0000028610231,8|0,1:3|0:0,0:0:0:0:
85,25,34410,2,0,P|92:45|97:69,1,37.5000014305115,0|0,3:0|0:0,0:0:0:0:
176,84,34508,2,0,P|166:105|147:122,1,37.5000014305115,0|0,3:0|0:0,0:0:0:0:
0,177,34605,5,4,3:0:0:0:
311,208,34800,2,0,B|360:201|360:201|320:232,1,100,2|0,0:2|3:0,0:0:0:0:
182,362,34995,2,0,P|146:319|254:263,1,200,2|2,0:2|0:2,0:0:0:0:
323,242,35287,1,0,3:0:0:0:
271,373,35385,5,4,3:0:0:0:
198,83,35579,2,0,L|279:25,1,100,2|0,0:2|3:0,0:0:0:0:
512,67,35774,2,0,L|491:21,1,50,8|0,3:0|0:0,0:0:0:0:
358,113,35969,2,0,L|389:44,1,75.0000028610231,2|0,0:2|0:0,0:0:0:0:
463,324,36164,5,4,3:0:0:0:
459,322,36359,2,0,L|451:295,2,25,2|0|0,0:2|0:0|3:0,0:0:0:0:
40,307,36553,5,2,0:2:0:0:
45,304,36748,2,0,L|52:279,1,25,2|0,0:2|3:0,0:0:0:0:
259,0,36943,5,4,3:0:0:0:
389,215,37138,6,0,P|336:224|297:274,1,100,8|0,0:3|3:0,0:0:0:0:
174,153,37333,2,0,P|210:185|221:233,1,100,8|0,0:3|0:0,0:0:0:0:
381,304,37528,6,0,P|361:320|337:325,1,50,8|0,0:3|0:0,0:0:0:0:
137,235,37625,2,0,P|137:260|150:282,1,50,8|0,0:3|0:0,0:0:0:0:
240,358,37722,6,0,P|254:262|306:124,1,225.000008583069,4|0,3:0|0:0,0:0:0:0:
511,29,38015,1,0,3:0:0:0:
501,161,38112,2,2,P|475:47|373:54,1,225.000008583069,2|2,3:2|3:0,3:0:0:0:
307,153,38372,5,2,3:0:0:0:
307,153,38437,1,2,3:0:0:0:
307,153,38502,2,0,B|299:174|299:174|452:109,1,168.750006437302,6|0,3:0|0:0,0:0:0:0:
505,166,38696,6,0,P|456:217|452:241,1,87.500000834465,0|0,3:0|3:0,0:0:0:0:
266,252,38891,2,0,P|217:201|213:177,1,87.500000834465,2|0,0:2|0:0,0:0:0:0:
53,245,39086,2,0,P|4:296|0:320,1,87.500000834465,0|0,3:0|3:0,0:0:0:0:
89,332,39281,6,0,P|75:226|24:90,1,225.000008583069,4|0,3:0|0:0,0:0:0:0:
36,20,39573,1,0,3:0:0:0:
206,256,39670,6,0,P|156:192|33:109,1,225.000008583069,4|0,3:0|3:0,0:0:0:0:
33,18,39963,1,0,3:0:0:0:
256,138,40060,6,0,P|215:122|17:111,1,225.000008583069,4|0,3:0|3:0,0:0:0:0:
28,19,40352,1,0,3:0:0:0:
68,193,40450,2,0,B|127:197|154:133|154:133|157:202|209:225,1,225.000008583069,8|0,3:0|0:0,0:0:0:0:
207,224,40839,6,0,B|83:282|83:282|67:322,1,162.500004649162,4|0,3:0|0:0,0:0:0:0:
46,378,41034,2,0,P|104:380|143:335,1,100,2|0,0:2|3:0,0:0:0:0:
256,138,41229,1,2,0:2:0:0:
419,277,41424,1,2,0:2:0:0:
347,236,41521,1,0,3:0:0:0:
512,189,41618,5,4,3:0:0:0:
241,334,41813,2,0,P|201:326|183:290,1,75.0000028610231,2|0,0:2|3:0,0:0:0:0:
4,167,42008,6,0,P|42:103|14:172,1,225.000008583069,8|0,3:0|0:0,0:0:0:0:
4,167,42398,6,0,L|37:-3,1,150.000005722046,4|0,3:0|0:0,0:0:0:0:
118,26,42592,2,0,L|108:-10,2,25,2|0|0,0:2|0:0|3:0,0:0:0:0:
385,89,42787,6,0,L|378:113,1,25,2|0,0:2|0:0,0:0:0:0:
454,18,42982,2,0,L|482:165,1,150.000005722046,2|0,0:2|3:0,0:0:0:0:
254,381,43177,5,4,3:0:0:0:
124,200,43372,6,0,P|171:185|201:146,1,100,8|0,0:3|3:0,0:0:0:0:
346,228,43567,2,0,P|304:201|286:155,1,100,8|0,0:3|0:0,0:0:0:0:
160,74,43762,6,0,P|136:82|112:80,1,50,8|0,0:3|0:0,0:0:0:0:
351,98,43859,2,0,P|368:115|392:122,1,50,8|0,0:3|0:0,0:0:0:0:
258,10,43956,5,4,3:0:0:0:
174,328,44248,1,0,3:0:0:0:
241,268,44346,2,0,B|179:246|129:308|171:324|130:370|68:352,1,200,2|2,0:2|3:0,0:0:0:0:
8,333,44605,1,2,3:0:0:0:
8,333,44670,1,2,3:0:0:0:
8,333,44735,1,6,3:0:0:0:
69,103,44930,6,0,P|57:74|43:56,1,50,0|0,3:0|0:0,0:0:0:0:
243,171,45125,2,0,P|251:140|261:117,1,50,2|0,0:2|0:0,0:0:0:0:
434,94,45320,2,0,P|424:65|401:40,1,50,0|0,3:0|3:0,0:0:0:0:
260,363,45515,5,4,3:0:0:0:
125,180,45807,1,0,3:0:0:0:
262,358,45904,5,4,3:0:0:0:
441,230,46100,1,0,3:0:0:0:
350,154,46196,1,0,3:0:0:0:
258,353,46294,5,4,3:0:0:0:
333,295,46489,6,0,P|314:277|290:270,1,50,0|0,3:0|0:0,0:0:0:0:
157,284,46586,2,0,P|182:285|203:298,1,50,0|0,3:0|0:0,0:0:0:0:
255,357,46683,6,0,P|237:288|156:145,1,225.000008583069,8|0,3:0|0:0,0:0:0:0:
29,167,47073,6,0,B|34:182|34:182|177:155,1,150.000005722046,4|0,3:0|0:0,0:0:0:0:
449,102,47268,1,2,0:2:0:0:
338,182,47463,2,0,P|360:91|449:102,1,200,2|2,0:2|0:2,0:0:0:0:
512,161,47755,1,0,3:0:0:0:
256,1,47852,5,4,3:0:0:0:
498,16,48047,6,0,L|449:109,1,100,2|0,0:2|3:0,0:0:0:0:
139,73,48242,2,0,L|91:88,1,50,8|0,3:3|0:0,0:0:0:0:
299,93,48437,2,0,L|246:147,1,75.0000028610231,2|0,0:2|0:0,0:0:0:0:
28,289,48631,5,4,3:0:0:0:
24,285,48826,2,0,L|30:259,2,25,2|0|0,0:2|0:0|3:0,0:0:0:0:
466,249,49021,5,2,0:2:0:0:
470,247,49216,2,0,L|464:221,1,25,2|0,0:2|3:0,0:0:0:0:
257,11,49411,5,4,3:0:0:0:
204,264,49605,6,0,P|168:229|110:219,1,100,8|0,0:3|3:0,0:0:0:0:
352,165,49800,2,0,P|316:201|301:249,1,100,8|0,0:3|0:0,0:0:0:0:
174,341,49995,6,0,P|151:331|135:312,1,50,8|0,0:3|0:0,0:0:0:0:
382,281,50092,2,0,P|371:303|352:318,1,50,8|0,0:3|0:0,0:0:0:0:
266,365,50190,6,0,P|257:282|206:110,1,225.000008583069,4|0,3:0|0:0,0:0:0:0:
67,28,50482,1,0,3:0:0:0:
193,14,50579,2,0,P|178:115|75:113,1,225.000008583069,2|2,0:2|3:0,0:0:0:0:
2,83,50839,5,2,3:0:0:0:
2,83,50904,1,2,3:0:0:0:
2,83,50969,2,0,B|24:60|24:60|89:205,1,187.5,6|0,3:0|0:0,0:0:0:0:
113,279,51164,6,0,P|157:248|166:177,1,87.500000834465,0|0,3:0|3:0,0:0:0:0:
331,223,51359,2,0,P|383:232|422:293,1,87.500000834465,2|0,0:2|0:0,0:0:0:0:
450,112,51553,2,0,P|467:63|461:26,1,87.500000834465,0|0,3:0|3:0,0:0:0:0:
382,0,51748,6,0,P|305:15|276:177,1,250,4|0,3:0|0:0,0:0:0:0:
259,334,52041,1,0,3:0:0:0:
102,165,52138,6,0,P|159:150|232:253,1,200,4|0,3:0|3:0,0:0:0:0:
264,337,52430,1,0,3:0:0:0:
346,254,52528,6,0,P|300:254|267:342,1,150.000005722046,4|0,3:0|3:0,0:0:0:0:
195,380,52820,1,0,3:0:0:0:
116,353,52917,6,0,B|82:318|82:318|109:322|109:322|117:350,2,100.000003814697,0|0|0,1:0|1:0|1:0,0:0:0:0:
142,276,55839,6,0,P|123:244|133:209,1,75.0000028610231,0|0,1:0|0:0,0:0:0:0:
225,294,56034,2,0,P|270:234|253:141,1,150.000005722046,0|0,1:0|0:0,0:0:0:0:
265,162,56326,1,4,3:0:0:0:
336,114,56424,5,4,3:0:0:0:
40,185,56618,2,0,L|30:100,1,75.0000028610231,2|0,0:0|1:0,0:0:0:0:
97,53,56813,5,2,0:0:0:0:
225,294,57008,1,0,1:0:0:0:
147,255,57203,5,2,0:0:0:0:
143,259,57398,1,4,3:0:0:0:
97,53,57592,5,0,1:0:0:0:
225,294,57787,1,2,0:0:0:0:
470,162,57982,1,4,3:0:0:0:
407,366,58274,6,0,L|326:331,1,75.0000028610231,0|0,1:0|0:0,0:0:0:0:
410,363,58566,2,0,L|381:285,1,75.0000028610231,0|0,1:0|0:0,0:0:0:0:
485,313,58761,5,2,0:0:0:0:
248,188,58956,2,0,P|251:154|292:125,1,50,4|0,3:0|0:0,0:0:0:0:
333,104,59151,5,0,1:0:0:0:
282,273,59281,1,0,1:0:0:0:
159,152,59411,1,0,1:0:0:0:
250,190,59541,2,0,P|194:235|113:217,1,150.000005722046,4|2,3:0|0:0,0:0:0:0:
75,151,59833,1,0,1:0:0:0:
54,72,59930,5,0,0:0:0:0:
206,317,60125,1,0,1:0:0:0:
282,273,60320,5,2,0:0:0:0:
285,270,60515,1,4,3:0:0:0:
356,330,60709,5,4,3:0:0:0:
495,106,60904,1,2,0:0:0:0:
242,0,61099,1,4,3:0:0:0:
303,58,61294,6,0,P|249:89|225:106,1,75.0000028610231,2|0,0:0|1:0,0:0:0:0:
113,128,61489,5,2,0:0:0:0:
395,160,61683,1,0,1:0:0:0:
112,130,61878,6,0,P|57:97|-2:18,1,150.000005722046,2|8,0:0|3:0,0:0:0:0:
397,164,62268,2,0,P|452:197|498:258,1,100,8|0,3:0|0:0,0:0:0:0:
476,222,62560,5,8,3:0:0:0:
249,367,62657,6,2,B|217:314|227:260|291:202|355:229|370:279|351:324|307:318,1,275,4|0,3:0|0:0,0:0:0:0:
249,367,63826,6,2,B|272:310|255:258|183:210|124:245|116:296|141:339|184:326,1,277.499998941422,2|0,0:3|0:0,0:0:0:0:
246,238,64216,2,0,P|256:190|271:173,1,46.2499998235703,2|0,0:0|0:0,0:0:0:0:
254,193,65385,6,0,B|217:186|227:136|193:129|193:129|201:152|201:152|239:146|239:146|233:177|254:190,1,200,2|0,1:1|0:0,0:0:0:0:
450,337,65774,5,4,3:0:0:0:
397,124,65969,2,0,B|444:119|453:79|453:79|444:120|481:153,1,150.000005722046,2|0,0:3|0:0,0:0:0:0:
377,372,66359,1,2,0:3:0:0:
377,372,66456,1,0,0:0:0:0:
450,337,66553,6,0,P|373:323|285:365,1,168.750006437302,4|0,3:0|0:0,0:0:0:0:
287,358,66748,2,0,P|254:340|247:294,1,75.0000028610231,2|0,0:3|0:0,0:0:0:0:
511,275,66943,2,0,P|520:207|472:145,1,150.000005722046,2|0,0:3|0:0,0:0:0:0:
397,124,67235,1,2,0:3:0:0:
450,337,67333,5,4,3:0:0:0:
397,124,67528,2,0,B|444:119|453:79|453:79|444:120|481:153,1,150.000005722046,2|0,0:3|0:0,0:0:0:0:
377,372,67917,1,2,0:3:0:0:
377,372,68015,1,0,0:0:0:0:
450,337,68112,6,0,P|391:332|394:273,1,112.500004291535,4|0,3:0|0:0,0:0:0:0:
299,162,68307,2,0,P|351:162|365:213,1,112.500004291535,2|0,0:3|0:0,0:0:0:0:
230,202,68502,2,0,P|177:203|163:152,1,112.500004291535,2|0,0:3|0:0,0:0:0:0:
182,76,68696,2,0,P|168:25|115:26,1,112.500004291535,2|0,0:3|0:0,0:0:0:0:
33,43,68891,5,4,3:0:0:0:
0,252,69086,2,0,B|13:294|57:296|57:296|27:276|31:230,1,150.000005722046,2|0,0:3|0:0,0:0:0:0:
121,30,69476,1,2,0:3:0:0:
121,30,69573,1,0,0:0:0:0:
33,43,69670,6,0,P|48:135|133:149,1,168.750006437302,4|0,3:0|0:0,0:0:0:0:
116,159,69865,2,0,P|149:133|159:96,1,75.0000028610231,2|0,0:3|0:0,0:0:0:0:
234,211,70060,2,0,P|241:137|288:80,1,150.000005722046,2|0,0:3|0:0,0:0:0:0:
235,0,70352,1,2,0:3:0:0:
33,43,70450,5,4,3:0:0:0:
154,237,70644,1,2,0:3:0:0:
154,237,70742,1,2,0:3:0:0:
91,303,70839,5,4,3:0:0:0:
330,154,71034,1,2,0:3:0:0:
330,154,71131,1,2,0:3:0:0:
296,66,71229,5,4,3:0:0:0:
446,244,71424,1,2,0:3:0:0:
446,244,71521,1,2,0:3:0:0:
512,193,71618,6,0,B|430:172|394:270|410:264|398:342|316:325,1,262.500002503395,8|0,3:0|0:0,0:0:0:0:
316,325,72008,6,0,B|351:303|351:303|455:345,1,150.000005722046,6|0,3:1|0:0,0:0:0:0:
240,379,72203,2,0,L|223:274,1,87.500000834465,2|0,0:1|0:0,0:0:0:0:
203,152,72398,1,0,0:0:0:0:
381,89,72592,6,0,P|361:82|340:83,1,43.7500004172325,2|0,0:1|0:0,0:0:0:0:
282,45,72690,2,0,P|302:55|316:72,1,43.7500004172325
297,152,72787,1,4,3:0:0:0:
35,133,72982,6,0,P|19:179|37:226,1,100,2|0,0:1|0:0,0:0:0:0:
206,155,73177,2,0,P|125:100|116:4,1,200,2|0,0:1|0:0,0:0:0:0:
279,42,73469,1,2,0:1:0:0:
189,52,73566,6,0,B|199:176|199:176|213:144,1,150.000005722046,4|0,3:0|0:0,0:0:0:0:
337,233,73761,2,0,L|226:268,1,87.500000834465,2|0,0:1|0:0,0:0:0:0:
94,303,73956,1,0,0:0:0:0:
94,303,74151,2,0,L|109:231,1,43.7500004172325,2|0,0:1|0:0,0:0:0:0:
446,367,74346,6,0,P|423:317|369:283,1,87.500000834465,4|0,3:0|0:0,0:0:0:0:
231,159,74541,2,0,P|194:103|199:73,1,87.500000834465,2|0,0:1|0:0,0:0:0:0:
242,78,74735,2,0,P|222:116|230:158,1,87.500000834465,2|0,0:1|0:0,0:0:0:0:
370,332,74930,2,0,P|419:365|450:365,1,87.500000834465,2|0,0:1|0:0,0:0:0:0:
512,306,75125,5,4,3:0:0:0:
162,379,75320,2,0,L|117:303,1,87.500000834465,2|0,0:1|0:0,0:0:0:0:
165,376,75709,6,0,L|183:283,1,87.500000834465,2|0,0:1|0:0,0:0:0:0:
94,121,75904,2,0,B|63:99|63:99|75:139,1,75.0000028610231,4|0,3:0|0:0,0:0:0:0:
82,214,76099,6,0,P|141:198|166:145,1,100,2|0,0:1|0:0,0:0:0:0:
326,277,76294,2,0,P|273:243|269:109,1,200,2|0,0:1|0:0,0:0:0:0:
334,0,76586,1,2,0:1:0:0:
249,27,76683,6,0,B|319:63|325:-17|395:28,1,150.000005722046,4|0,3:0|0:0,0:0:0:0:
247,28,77073,6,0,B|229:136|229:136|252:146|257:168,1,150.000005722046,4|0,3:0|0:0,0:0:0:0:
245,26,77463,6,0,B|202:6|169:30|169:30|154:66|111:67,1,150.000005722046,4|0,3:0|0:0,0:0:0:0:
247,24,77852,6,0,P|257:108|251:189,1,137.500001311302,4|0,3:0|0:0,0:0:0:0:
256,384,78242,5,4,3:0:0:0:
206,54,80774,6,0,B|227:40|227:40|216:9,1,50,0|0,1:0|0:0,0:0:0:0:
199,52,80969,2,0,B|190:28|190:28|211:14,1,50,0|0,1:0|0:0,0:0:0:0:
484,305,81359,5,4,3:0:0:0:
488,301,81651,6,0,L|470:247,1,50,2|0,0:3|0:0,0:0:0:0:
416,325,81943,2,0,L|398:271,1,50,2|0,0:3|0:0,0:0:0:0:
413,328,82528,2,0,L|381:285,1,50,2|0,0:3|0:0,0:0:0:0:
410,331,83209,2,0,L|368:301,1,50,2|0,0:3|0:0,0:0:0:0:
342,380,83502,2,0,L|297:349,1,50,2|0,0:3|0:0,0:0:0:0:
340,382,84086,2,0,L|285:363,1,50,2|0,0:3|0:0,0:0:0:0:
230,318,84281,1,0,0:0:0:0:
55,67,84476,5,4,0:3:0:0:
55,67,84670,2,0,P|61:36|76:18,1,50,2|2,0:3|0:3,0:0:0:0:
180,127,84865,2,0,P|210:90|221:35,1,100,2|0,0:0|0:0,0:0:0:0:
0,151,85255,5,2,0:0:0:0:
121,276,85449,1,0,0:0:0:0:
38,337,85644,2,0,L|17:230,1,100,2|0,0:3|0:0,0:0:0:0:
195,212,86034,5,2,0:0:0:0:
17,241,86229,1,2,0:0:0:0:
41,336,86423,2,0,L|137:262,1,100,2|2,0:0|0:3,0:0:0:0:
263,55,86813,6,0,P|261:86|225:156,1,100,2|0,0:0|0:0,0:0:0:0:
337,9,87203,2,0,P|372:37|374:49,1,50,2|0,0:3|0:0,0:0:0:0:
168,75,87397,1,2,0:0:0:0:
512,267,87592,6,0,B|506:290|506:290|422:321,1,100,4|0,3:0|0:0,0:0:0:0:
254,368,87982,5,2,0:0:0:0:
254,368,88372,1,2,0:0:0:0:
254,368,88761,1,2,0:0:0:0:
155,38,89151,6,0,B|211:18|211:18|329:209|329:209|393:190,2,350.00000333786,4|0|0,0:0|0:0|0:0,0:0:0:0:
149,36,90320,6,0,B|136:24|136:24|138:4|138:4|152:15|152:15|149:36,1,75.000002861023,8|0,3:3|0:0,0:0:0:0:
122,110,90450,2,0,B|118:127|118:127|99:135|99:135|102:117|102:117|122:110,1,75.000002861023,8|0,3:3|0:0,0:0:0:0:
200,102,90579,2,0,B|216:96|216:96|233:108|233:108|216:115|216:115|200:102,1,75.000002861023,8|0,3:3|0:0,0:0:0:0:
6,17,90709,5,4,3:0:0:0:
265,384,91099,5,2,0:0:0:0:
118,60,91489,5,2,0:3:0:0:
262,380,91878,5,2,0:0:0:0:
256,42,92268,5,2,0:3:0:0:
257,380,92657,5,2,0:0:0:0:
397,64,93047,5,2,0:3:0:0:
253,383,93437,5,2,0:0:0:0:
507,113,93826,6,2,B|564:37|386:-91|287:129|400:141,1,330.000003147125,2|0,0:3|0:0,0:0:0:0:
504,116,94995,6,2,B|534:196|348:263|317:47|418:64,1,300,2|0,0:3|0:0,0:0:0:0:
461,1,95385,2,0,P|481:14|488:37,1,50,0|0,3:0|0:0,0:0:0:0:
482,357,95774,5,0,0:0:0:0:
485,360,96164,1,0,0:0:0:0:
489,362,96553,2,0,P|468:299|451:280,1,75.0000028610231,8|0,1:3|0:0,0:0:0:0:
202,183,96748,2,0,P|234:205|244:223,1,37.5000014305115,0|0,3:0|0:0,0:0:0:0:
321,126,96846,2,0,P|281:148|280:162,1,37.5000014305115,0|0,3:0|0:0,0:0:0:0:
247,384,96943,5,4,3:0:0:0:
0,177,97138,2,0,B|42:111|42:111|65:150,1,100,2|0,0:2|3:0,0:0:0:0:
182,279,97333,2,0,P|111:304|102:193,1,200,2|2,0:2|0:2,0:0:0:0:
122,76,97625,1,0,3:0:0:0:
17,263,97722,5,4,3:0:0:0:
381,118,97917,2,0,L|434:4,1,100,2|0,0:2|3:0,0:0:0:0:
226,181,98112,2,0,L|172:193,1,50,8|0,3:0|0:0,0:0:0:0:
317,267,98307,2,0,L|420:329,1,100.000003814697,2|0,0:2|0:0,0:0:0:0:
93,177,98502,5,4,3:0:0:0:
89,179,98696,2,0,L|82:208,2,25,2|0|0,0:2|0:0|3:0,0:0:0:0:
393,286,98891,5,2,0:2:0:0:
397,288,99085,2,0,L|404:317,1,25,2|0,0:2|3:0,0:0:0:0:
252,384,99281,5,4,3:0:0:0:
376,14,99476,6,0,P|322:66|278:74,1,100,8|0,0:3|3:0,0:0:0:0:
126,21,99670,2,0,P|179:35|207:75,1,100,8|0,0:3|0:0,0:0:0:0:
338,178,99865,6,0,P|314:168|298:150,1,50,8|0,0:3|0:0,0:0:0:0:
158,146,99963,2,0,P|183:145|205:157,1,50,8|0,0:3|0:0,0:0:0:0:
257,2,100060,6,0,P|251:72|256:239,1,225.000008583069,4|0,3:0|0:0,0:0:0:0:
210,332,100352,1,0,3:0:0:0:
68,341,100450,2,0,P|70:239|156:278,1,225.000008583069,2|2,0:2|3:0,0:0:0:0:
220,344,100709,5,2,3:0:0:0:
220,344,100774,1,2,3:0:0:0:
220,344,100839,2,0,B|199:372|199:372|66:341,1,168.750006437302,6|0,3:0|0:0,0:0:0:0:
52,144,101034,6,0,P|69:98|135:66,1,87.500000834465,0|0,3:0|3:0,0:0:0:0:
265,168,101229,2,0,P|256:213|236:255,1,87.500000834465,2|0,0:2|0:0,0:0:0:0:
510,219,101424,2,0,P|515:169|492:123,1,87.500000834465,0|0,3:0|3:0,0:0:0:0:
509,18,101618,6,0,P|459:54|398:221,1,225.000008583069,4|0,3:0|0:0,0:0:0:0:
325,237,101911,1,0,3:0:0:0:
44,162,102008,6,0,P|105:163|249:268,1,225.000008583069,4|0,3:0|3:0,0:0:0:0:
327,241,102300,1,0,3:0:0:0:
512,22,102398,6,0,P|460:55|395:221,1,225.000008583069,4|0,3:0|3:0,0:0:0:0:
329,245,102690,1,0,3:0:0:0:
151,273,102787,6,0,B|218:232|273:287|252:307|304:349|362:321,1,225.000008583069,8|0,3:0|0:0,0:0:0:0:
351,325,103177,6,0,B|330:308|330:308|203:359,1,162.500004649162,4|0,3:0|0:0,0:0:0:0:
15,367,103372,2,0,P|80:375|113:342,1,100,2|0,0:2|3:0,0:0:0:0:
287,125,103566,1,2,0:2:0:0:
90,110,103761,1,2,0:2:0:0:
157,170,103859,1,0,3:0:0:0:
0,197,103956,5,4,3:0:0:0:
174,256,104151,2,0,P|216:235|242:198,1,75.0000028610231,2|0,0:2|3:0,0:0:0:0:
462,11,104346,6,0,B|490:15|510:31|510:31|515:60|484:83|484:83|459:86|434:62|434:62|438:28|460:10,1,225.000008583069,8|0,3:0|0:0,0:0:0:0:
462,11,104735,6,0,L|441:160,1,150.000005722046,4|0,3:0|0:0,0:0:0:0:
347,140,104930,2,0,L|338:101,2,25,2|0|0,0:2|0:0|3:0,0:0:0:0:
415,322,105125,6,0,P|469:277|467:229,1,100,2|0,0:2|0:0,0:0:0:0:
472,252,105417,2,0,P|371:226|353:130,1,200,2|0,3:2|0:0,0:0:0:0:
415,81,105709,6,0,P|451:122|439:168,1,100,8|0,0:3|3:0,0:0:0:0:
187,83,105904,2,0,P|205:38|252:25,1,100,8|0,0:3|0:0,0:0:0:0:
351,145,106099,6,0,P|335:164|325:186,1,50,8|0,0:3|0:0,0:0:0:0:
242,199,106196,2,0,P|227:180|207:165,1,50,8|0,0:3|0:0,0:0:0:0:
251,24,106294,5,4,3:0:0:0:
316,379,106586,1,0,3:0:0:0:
359,292,106683,2,0,B|299:262|241:311|241:311|227:368|179:366,1,200,2|2,0:2|3:0,0:0:0:0:
122,354,106943,1,2,3:0:0:0:
122,354,107008,1,2,3:0:0:0:
122,354,107073,1,6,3:0:0:0:
47,199,107268,6,0,P|76:218|94:246,1,50,0|0,3:0|0:0,0:0:0:0:
234,194,107463,2,0,P|256:166|262:143,1,50,2|0,0:2|0:0,0:0:0:0:
424,140,107657,2,0,P|441:114|471:104,1,50,0|0,3:0|3:0,0:0:0:0:
250,0,107852,5,4,3:0:0:0:
384,256,108144,1,0,3:0:0:0:
253,4,108242,5,4,3:0:0:0:
100,189,108437,1,0,3:0:0:0:
49,117,108534,1,0,3:0:0:0:
253,9,108631,5,4,3:0:0:0:
192,116,108826,6,0,P|224:108|233:96,1,50,0|0,3:0|0:0,0:0:0:0:
336,113,108924,2,0,P|337:88|322:68,1,50,0|0,3:0|0:0,0:0:0:0:
251,4,109021,6,0,P|266:59|278:237,1,225.000008583069,8|0,3:0|0:0,0:0:0:0:
248,308,109411,2,0,B|204:246|204:246|304:221,1,150.000005722046,4|0,3:0|0:0,0:0:0:0:
409,364,109605,1,2,0:2:0:0:
501,337,109800,6,0,P|449:280|329:309,1,200,2|2,0:2|0:2,0:0:0:0:
271,226,110092,1,0,3:0:0:0:
261,384,110190,5,4,3:0:0:0:
63,259,110385,6,0,L|107:142,1,100,2|0,0:2|3:0,0:0:0:0:
67,45,110579,2,0,L|6:15,1,50,8|0,3:0|0:0,0:0:0:0:
194,247,110774,2,0,L|267:233,1,75.0000028610231,2|0,0:2|0:0,0:0:0:0:
503,197,110969,5,4,3:0:0:0:
500,195,111164,2,0,L|488:164,2,25,2|0|0,0:2|0:0|3:0,0:0:0:0:
101,168,111359,5,2,0:2:0:0:
104,164,111553,2,0,L|125:86,1,75.0000028610231,2|0,0:2|3:0,0:0:0:0:
130,0,111748,6,0,P|210:7|225:87,1,150.000005722046,4|0,3:0|0:3,0:0:0:0:
385,109,112041,1,0,3:0:0:0:
367,33,112138,2,0,P|334:45|315:79,1,75.0000028610231,8|0,0:3|0:0,0:0:0:0:
168,233,112333,6,0,P|197:253|206:276,1,50,8|0,0:3|0:0,0:0:0:0:
304,213,112430,2,0,P|284:232|279:256,1,50,8|0,0:3|0:0,0:0:0:0:
262,363,112528,6,0,P|343:359|393:245,1,200,4|0,3:0|0:0,0:0:0:0:
505,151,112820,1,0,3:0:0:0:
488,263,112917,2,0,P|457:156|433:48,1,200,2|2,0:2|3:0,0:0:0:0:
477,0,113177,5,2,3:0:0:0:
477,0,113242,1,2,3:0:0:0:
477,0,113307,2,0,B|496:18|496:18|317:74,1,187.5,6|0,3:0|0:0,0:0:0:0:
258,86,113502,6,0,P|254:59|285:5,1,87.500000834465,0|0,3:0|3:0,0:0:0:0:
167,259,113696,2,0,P|145:275|83:276,1,87.500000834465,2|0,0:2|0:0,0:0:0:0:
104,116,113891,2,0,P|137:123|177:177,1,87.500000834465,0|0,3:0|3:0,0:0:0:0:
258,374,114086,6,0,P|277:298|346:188,1,200,4|0,3:0|0:0,0:0:0:0:
418,179,114378,1,0,3:0:0:0:
258,374,114476,6,0,P|233:317|152:244,1,150.000005722046,4|0,3:0|3:0,0:0:0:0:
135,186,114768,1,0,3:0:0:0:
255,378,114865,6,0,P|257:323|242:114,1,250,4|0,3:0|3:0,0:0:0:0:
258,51,115157,1,0,3:0:0:0:
421,183,115255,5,0,1:0:0:0:
132,189,115385,5,0,1:0:0:0:
259,47,115515,5,0,1:0:0:0:
152,312,118177,6,0,P|109:293|86:248,1,75.0000028610231,0|0,1:0|0:0,0:0:0:0:
135,202,118372,2,0,P|161:189|196:80,1,150.000005722046,0|0,1:0|0:0,0:0:0:0:
135,202,118664,1,4,3:0:0:0:
59,153,118761,5,4,3:0:0:0:
275,223,118956,1,2,0:0:0:0:
283,169,119053,1,0,1:0:0:0:
333,167,119151,5,2,0:0:0:0:
311,83,119346,1,0,1:0:0:0:
381,18,119541,5,2,0:0:0:0:
360,255,119735,1,4,3:0:0:0:
420,174,119930,5,0,1:0:0:0:
464,101,120125,1,2,0:0:0:0:
487,384,120320,1,4,3:0:0:0:
55,290,120612,6,0,L|130:285,1,75.0000028610231,0|0,1:0|0:0,0:0:0:0:
59,296,120904,2,0,L|131:242,1,75.0000028610231,0|0,1:0|0:0,0:0:0:0:
294,203,121099,5,2,0:0:0:0:
97,97,121294,2,0,P|86:82|89:35,1,50,4|0,3:0|0:0,0:0:0:0:
143,0,121489,5,0,1:0:0:0:
193,164,121618,1,0,1:0:0:0:
19,146,121748,1,0,1:0:0:0:
100,101,121878,6,0,P|156:156|217:323,1,200,4|2,3:0|0:0,0:0:0:0:
364,334,122170,1,0,1:0:0:0:
280,335,122268,6,0,P|282:305|310:282,1,50
439,375,122463,2,0,P|451:348|438:313,1,50,0|0,1:0|0:0,0:0:0:0:
419,120,122657,5,2,0:0:0:0:
416,123,122852,1,4,3:0:0:0:
351,227,123047,6,0,P|327:200|323:163,1,75.0000028610231,4|0,3:0|0:0,0:0:0:0:
432,248,123242,2,0,P|464:230|481:191,1,75.0000028610231,2|0,0:0|0:0,0:0:0:0:
446,16,123437,5,4,3:0:0:0:
373,315,123631,1,2,0:0:0:0:
327,166,123826,6,0,P|351:193|355:230,1,75.0000028610231,2|0,0:0|0:0,0:0:0:0:
435,251,124021,2,0,P|450:217|483:200,1,75.0000028610231,0|0,1:0|0:0,0:0:0:0:
376,318,124216,2,0,P|268:322|266:246,1,200,2|8,0:0|3:0,0:0:0:0:
211,183,124508,1,0,0:0:0:0:
130,281,124605,6,0,L|172:255,1,50,0|0,1:0|0:0,0:0:0:0:
181,266,124898,1,8,3:0:0:0:
37,234,124995,6,0,B|24:161|110:120|109:165|189:139|182:52,1,250,4|0,3:0|0:0,0:0:0:0:
168,59,125287,2,0,P|138:53|122:44,1,50,0|0,1:0|0:0,0:0:0:0:
250,10,125385,6,0,P|321:40|296:121,1,150.000005722046,2|2,0:0|3:0,0:0:0:0:
247,145,125644,1,2,3:0:0:0:
247,145,125709,1,2,3:0:0:0:
247,145,125774,2,0,P|312:158|396:212,1,150,2|0,3:0|0:0,0:0:0:0:
455,155,125969,6,0,P|467:190|471:227,1,75.0000028610231,4|0,3:0|0:0,0:0:0:0:
271,269,126164,2,0,P|292:299|324:319,1,75.0000028610231,0|0,1:0|0:0,0:0:0:0:
437,356,126359,2,0,P|425:320|404:289,1,75.0000028610231,4|0,3:0|0:0,0:0:0:0:
434,357,126553,6,0,B|417:284|322:280|340:321|256:328|229:246,1,250,2|0,0:0|0:0,0:0:0:0:
216,245,126846,2,0,P|224:198|222:180,1,50,0|0,1:0|0:0,0:0:0:0:
99,361,126943,6,0,P|29:352|46:260,1,175.00000166893,2|0,0:0|1:0,0:0:0:0:
150,123,127235,1,0,0:0:0:0:
136,277,127333,2,0,P|119:231|47:155,1,150.000005722046,2|0,0:1|0:0,0:0:0:0:
51,157,127528,1,4,3:0:0:0:
447,351,127722,6,0,B|460:337|460:337|442:345,1,37.5,10|0,0:3|0:0,0:0:0:0:
330,217,129670,6,0,B|328:148|328:148|345:184,1,100
360,292,129865,5,2,0:3:0:0:
175,266,130060,6,0,L|183:247,1,20,2|0,0:0|0:0,0:0:0:0:
512,203,130449,2,0,L|500:187,1,20,2|0,0:0|0:0,0:0:0:0:
500,187,130839,6,0,L|472:334,1,125,2|0,1:0|0:0,0:0:0:0:
0,240,131229,5,4,3:0:0:0:
202,345,131424,2,0,B|245:340|242:288|242:288|195:286|185:319,1,150.000005722046,2|0,0:3|0:0,0:0:0:0:
0,328,131813,1,2,0:3:0:0:
84,352,131911,1,0,0:0:0:0:
0,240,132008,6,0,P|28:178|121:142,1,150,4|0,3:0|0:0,0:0:0:0:
102,138,132203,2,0,P|115:172|165:192,1,75.0000028610231,2|0,0:3|0:0,0:0:0:0:
236,206,132398,2,0,P|250:134|217:69,1,150.000005722046,2|0,0:3|0:0,0:0:0:0:
236,206,132690,1,2,0:3:0:0:
0,240,132787,5,4,3:0:0:0:
202,345,132982,2,0,B|245:340|242:288|242:288|195:286|185:319,1,150.000005722046,2|0,0:3|0:0,0:0:0:0:
0,328,133372,1,2,0:3:0:0:
84,352,133470,1,0,0:0:0:0:
0,240,133566,6,0,P|30:197|90:213,1,100,4|0,3:0|0:0,0:0:0:0:
359,133,133761,2,0,P|334:174|286:176,1,100,2|0,0:3|0:0,0:0:0:0:
149,169,133956,2,0,P|173:129|221:127,1,100,2|0,0:3|0:0,0:0:0:0:
435,105,134151,2,0,P|482:104|508:63,1,100,2|0,0:3|0:0,0:0:0:0:
458,0,134346,5,4,3:0:0:0:
414,219,134541,2,0,B|430:263|471:266|471:266|442:238|449:197,1,150.000005722046,2|0,0:3|0:0,0:0:0:0:
372,2,134930,1,2,0:3:0:0:
295,30,135028,1,0,0:0:0:0:
458,0,135125,6,0,P|476:50|402:88,1,150.000005722046,4|0,3:0|0:0,0:0:0:0:
399,92,135320,2,0,P|351:112|341:152,1,75.0000028610231,2|0,0:3|0:0,0:0:0:0:
285,189,135515,2,0,P|212:147|227:65,1,150.000005722046,2|0,0:3|0:0,0:0:0:0:
285,189,135807,1,2,0:3:0:0:
458,0,135904,5,4,3:0:0:0:
365,239,136099,1,2,0:3:0:0:
398,166,136196,1,2,0:3:0:0:
430,293,136294,5,4,3:0:0:0:
198,102,136489,1,2,0:3:0:0:
226,183,136586,1,2,0:3:0:0:
271,68,136683,5,4,3:0:0:0:
17,260,136878,1,2,0:3:0:0:
77,148,136976,1,2,0:3:0:0:
0,184,137073,6,0,B|82:163|118:261|102:255|114:333|196:316,1,262.500002503395,4|0,3:0|0:0,0:0:0:0:
195,316,137463,6,0,B|191:298|191:298|43:356,1,150.000005722046,6|0,3:1|0:0,0:0:0:0:
268,263,137657,2,0,L|383:305,1,100,2|0,0:1|0:0,0:0:0:0:
500,346,137852,1,0,0:0:0:0:
350,166,138047,6,0,P|359:138|389:127,1,50,2|0,0:1|0:0,0:0:0:0:
443,63,138144,2,0,P|449:99|468:116,1,50
478,182,138242,1,4,3:0:0:0:
295,24,138437,6,0,P|273:45|272:117,1,100,2|0,0:1|0:0,0:0:0:0:
186,140,138631,2,0,P|142:76|29:95,1,200,2|0,0:1|0:0,0:0:0:0:
0,12,138924,1,2,0:1:0:0:
0,177,139021,6,0,B|17:204|17:204|98:178|98:178|103:138,1,150.000005722046,4|0,3:0|0:0,0:0:0:0:
189,142,139216,2,0,L|171:251,1,87.500000834465,2|0,0:1|0:0,0:0:0:0:
145,375,139411,1,0,0:0:0:0:
145,375,139605,2,0,L|104:347,1,43.7500004172325,2|0,0:1|0:0,0:0:0:0:
12,307,139800,6,0,P|49:274|106:289,1,87.500000834465,4|0,3:0|0:0,0:0:0:0:
315,248,139995,2,0,P|352:215|409:230,1,87.500000834465,2|0,0:1|0:0,0:0:0:0:
435,362,140190,2,0,P|415:316|357:305,1,87.500000834465,2|0,0:1|0:0,0:0:0:0:
142,214,140385,2,0,P|122:168|64:157,1,87.500000834465,2|0,0:1|0:0,0:0:0:0:
17,101,140579,5,4,3:0:0:0:
10,185,140872,5,0,3:0:0:0:
242,98,140969,2,0,P|209:29|100:49,1,175.00000166893,2|0,0:3|3:0,0:0:0:0:
242,98,141261,1,0,3:0:0:0:
435,23,141359,5,4,3:0:0:0:
312,146,141553,1,0,3:0:0:0:
389,126,141650,1,0,3:0:0:0:
419,199,141748,1,2,0:3:0:0:
325,54,141943,1,0,3:0:0:0:
325,54,142041,1,0,3:0:0:0:
480,127,142138,5,4,3:0:0:0:
242,384,142430,5,0,3:0:0:0:
284,309,142528,2,0,P|256:240|249:166,1,150.000005722046,4|0,3:0|3:0,0:0:0:0:
185,110,142820,1,0,3:0:0:0:
173,334,142917,2,0,P|167:259|139:190,1,150.000005722046,4|0,3:0|3:0,0:0:0:0:
188,113,143209,1,0,3:0:0:0:
304,252,143307,6,0,B|206:283|210:213|109:255,1,200,8|4,3:0|3:0,0:0:0:0:
