osu file format v14

[General]
AudioFilename: audio.mp3
AudioLeadIn: 0
PreviewTime: 67804
Countdown: 0
SampleSet: Soft
StackLeniency: 0.4
Mode: 1
LetterboxInBreaks: 0
WidescreenStoryboard: 1

[Editor]
DistanceSpacing: 1.8
BeatDivisor: 4
GridSize: 8
TimelineZoom: 1

[Metadata]
Title:Tahia PNL
TitleUnicode:Tahia PNL
Artist:PNL
ArtistUnicode:PNL
Creator:Mimir
Version:Tahia Djazair
Source:
Tags:pnl tahia snowin mimir
BeatmapID:2106624
BeatmapSetID:1006599

[Difficulty]
HPDrainRate:4
CircleSize:3.8
OverallDifficulty:7
ApproachRate:9.2
SliderMultiplier:1.6
SliderTickRate:1

[Events]
//Background and Video events
0,0,"BG.png",0,0
//Break Periods
//Storyboard Layer 0 (Background)
//Storyboard Layer 1 (Fail)
//Storyboard Layer 2 (Pass)
//Storyboard Layer 3 (Foreground)
//Storyboard Sound Samples

[TimingPoints]
40,352.941176470588,4,2,1,100,1,0
40,-100,4,2,1,60,0,0
22628,-83.3333333333333,4,2,1,80,0,0
44863,-100,4,2,1,80,0,0
45569,-133.333333333333,4,2,1,50,0,0
56157,-100,4,2,1,50,0,0
56510,-83.3333333333333,4,2,1,80,0,0
67451,-66.6666666666667,4,2,1,80,0,0
67804,-83.3333333333333,4,2,1,80,0,1
89687,-100,4,2,1,80,0,1
90392,-100,4,2,1,60,0,0
103098,-66.6666666666667,4,2,1,60,0,0
104510,-100,4,2,1,60,0,0
105922,-66.6666666666667,4,2,1,60,0,0
107334,-100,4,2,1,60,0,0
124275,-133.333333333333,4,2,1,40,0,0
129922,-200,4,2,1,40,0,0
133451,-133.333333333333,4,2,1,40,0,0
135569,-83.3333333333333,4,2,1,60,0,1

[HitObjects]
255,191,40,5,0,0:0:0:0:
255,191,481,1,0,0:0:0:0:
255,191,922,1,0,0:0:0:0:
255,191,1098,1,8,0:0:0:0:
255,192,1451,1,0,0:0:0:0:
255,191,1804,1,0,0:0:0:0:
255,191,1981,1,8,0:0:0:0:
255,192,2334,1,0,0:0:0:0:
255,191,2510,1,8,0:0:0:0:
255,192,2863,1,0,0:0:0:0:
255,192,3392,1,0,0:0:0:0:
255,192,3745,1,0,0:0:0:0:
255,192,3922,1,8,0:0:0:0:
255,192,4275,1,0,0:0:0:0:
255,192,4628,1,0,0:0:0:0:
255,192,4804,1,8,0:0:0:0:
255,192,5157,1,0,0:0:0:0:
255,192,5334,1,8,0:0:0:0:
255,192,5687,1,0,0:0:0:0:
255,192,6128,1,0,0:0:0:0:
255,192,6569,1,0,0:0:0:0:
255,192,6745,1,8,0:0:0:0:
255,192,7098,1,0,0:0:0:0:
255,192,7451,1,0,0:0:0:0:
255,192,7628,1,8,0:0:0:0:
255,192,7981,1,0,0:0:0:0:
255,192,8157,1,8,0:0:0:0:
255,192,8510,1,0,0:0:0:0:
255,192,9039,1,0,0:0:0:0:
255,192,9392,1,0,0:0:0:0:
255,192,9569,1,8,0:0:0:0:
255,192,9922,1,0,0:0:0:0:
255,192,10098,1,8,0:0:0:0:
255,192,10451,1,0,0:0:0:0:
255,192,10804,1,0,0:0:0:0:
255,192,10981,1,8,0:0:0:0:
255,192,11334,1,0,0:0:0:0:
255,192,11863,1,0,0:0:0:0:
255,192,12216,1,0,0:0:0:0:
255,192,12392,1,8,0:0:0:0:
255,192,12745,1,0,0:0:0:0:
255,192,12922,1,8,0:0:0:0:
255,192,13275,1,0,0:0:0:0:
255,192,13628,1,0,0:0:0:0:
255,192,13804,1,8,0:0:0:0:
255,192,14157,1,0,0:0:0:0:
255,192,14687,1,0,0:0:0:0:
255,192,15039,1,0,0:0:0:0:
255,192,15216,1,8,0:0:0:0:
255,192,15569,1,0,0:0:0:0:
255,192,15834,1,8,0:0:0:0:
255,192,16098,1,0,0:0:0:0:
255,192,16451,1,0,0:0:0:0:
255,192,16628,1,8,0:0:0:0:
255,192,16981,1,0,0:0:0:0:
255,192,17510,1,0,0:0:0:0:
255,192,17863,1,0,0:0:0:0:
255,192,18039,1,8,0:0:0:0:
255,192,18392,1,8,0:0:0:0:
255,192,18657,1,0,0:0:0:0:
255,192,18922,1,8,0:0:0:0:
255,192,19275,1,0,0:0:0:0:
255,192,19451,1,8,0:0:0:0:
255,192,19804,1,0,0:0:0:0:
255,192,20334,1,0,0:0:0:0:
255,192,20687,1,0,0:0:0:0:
255,192,20863,1,8,0:0:0:0:
255,192,21216,1,0,0:0:0:0:
255,192,21304,1,0,0:0:0:0:
255,192,21392,1,8,0:0:0:0:
255,192,21569,1,0,0:0:0:0:
255,192,21745,1,0,0:0:0:0:
255,192,21922,1,0,0:0:0:0:
255,192,22098,1,0,0:0:0:0:
255,192,22187,1,0,0:0:0:0:
255,192,22275,1,8,0:0:0:0:
255,192,22628,1,0,0:0:0:0:
255,192,22981,1,0,0:0:0:0:
255,192,23334,1,8,0:0:0:0:
255,192,23510,1,8,0:0:0:0:
255,192,23687,1,0,0:0:0:0:
255,192,23863,1,0,0:0:0:0:
255,192,24039,1,8,0:0:0:0:
255,192,24216,1,8,0:0:0:0:
255,192,24392,1,0,0:0:0:0:
255,192,24569,1,0,0:0:0:0:
255,192,24745,1,8,0:0:0:0:
255,192,24922,1,0,0:0:0:0:
255,192,25098,1,8,0:0:0:0:
255,192,25275,1,0,0:0:0:0:
255,192,25451,1,8,0:0:0:0:
255,192,25804,1,8,0:0:0:0:
255,192,25980,1,8,0:0:0:0:
255,192,26157,1,0,0:0:0:0:
255,192,26333,1,0,0:0:0:0:
255,192,26509,1,8,0:0:0:0:
255,192,26686,1,8,0:0:0:0:
255,192,26862,1,0,0:0:0:0:
255,192,27039,1,0,0:0:0:0:
255,192,27215,1,8,0:0:0:0:
255,192,27392,1,8,0:0:0:0:
255,192,27568,1,8,0:0:0:0:
255,192,27745,1,0,0:0:0:0:
255,192,27921,1,8,0:0:0:0:
255,192,28098,1,0,0:0:0:0:
255,192,28275,1,8,0:0:0:0:
255,192,28628,1,0,0:0:0:0:
255,192,28804,1,0,0:0:0:0:
255,192,28981,1,0,0:0:0:0:
255,192,29157,1,8,0:0:0:0:
255,192,29334,1,8,0:0:0:0:
255,192,29510,1,0,0:0:0:0:
255,192,29687,1,8,0:0:0:0:
255,192,30039,1,0,0:0:0:0:
255,192,30216,1,8,0:0:0:0:
255,192,30392,1,8,0:0:0:0:
255,192,30569,1,0,0:0:0:0:
255,192,30745,1,8,0:0:0:0:
255,192,30922,1,0,0:0:0:0:
255,192,31098,1,8,0:0:0:0:
255,192,31451,1,8,0:0:0:0:
255,192,31628,1,8,0:0:0:0:
255,192,31804,1,0,0:0:0:0:
255,192,32157,1,0,0:0:0:0:
255,192,32334,1,0,0:0:0:0:
255,192,32510,1,8,0:0:0:0:
255,192,32687,1,8,0:0:0:0:
255,192,32863,1,8,0:0:0:0:
255,192,33039,1,8,0:0:0:0:
255,192,33216,1,8,0:0:0:0:
255,192,33569,1,0,0:0:0:0:
255,192,33745,1,0,0:0:0:0:
255,192,33922,1,8,0:0:0:0:
255,192,34275,1,0,0:0:0:0:
255,192,34451,1,0,0:0:0:0:
255,192,34628,1,8,0:0:0:0:
255,192,34981,1,8,0:0:0:0:
255,192,35157,1,0,0:0:0:0:
255,192,35334,1,8,0:0:0:0:
255,192,35510,1,0,0:0:0:0:
255,192,35687,1,8,0:0:0:0:
255,192,35863,1,0,0:0:0:0:
255,192,36039,1,8,0:0:0:0:
255,192,36392,1,8,0:0:0:0:
255,192,36569,1,0,0:0:0:0:
255,192,36745,1,8,0:0:0:0:
255,192,37098,1,0,0:0:0:0:
255,192,37275,1,8,0:0:0:0:
255,192,37451,1,0,0:0:0:0:
255,192,37628,1,8,0:0:0:0:
255,192,37804,1,8,0:0:0:0:
255,192,37981,1,0,0:0:0:0:
255,192,38157,1,8,0:0:0:0:
255,192,38334,1,0,0:0:0:0:
255,192,38510,1,0,0:0:0:0:
255,192,38687,1,8,0:0:0:0:
255,192,38863,1,8,0:0:0:0:
255,192,39216,1,0,0:0:0:0:
255,192,39392,1,8,0:0:0:0:
255,192,39569,1,8,0:0:0:0:
255,192,39922,1,8,0:0:0:0:
255,192,40098,1,8,0:0:0:0:
255,192,40275,1,0,0:0:0:0:
255,192,40451,1,8,0:0:0:0:
255,192,40628,1,0,0:0:0:0:
255,192,40804,1,0,0:0:0:0:
255,192,40981,1,0,0:0:0:0:
255,192,41157,1,8,0:0:0:0:
255,192,41334,1,8,0:0:0:0:
255,192,41510,1,8,0:0:0:0:
255,192,41687,1,0,0:0:0:0:
255,192,42039,1,0,0:0:0:0:
255,192,42216,1,0,0:0:0:0:
255,192,42392,1,0,0:0:0:0:
255,192,42745,1,8,0:0:0:0:
255,192,42922,1,0,0:0:0:0:
255,192,43098,1,8,0:0:0:0:
255,192,43275,1,0,0:0:0:0:
255,192,43451,1,8,0:0:0:0:
255,192,43804,1,0,0:0:0:0:
255,192,43981,1,8,0:0:0:0:
255,192,44157,1,0,0:0:0:0:
255,192,44334,1,8,0:0:0:0:
255,192,44510,1,0,0:0:0:0:
255,192,44863,1,8,0:0:0:0:
255,192,45039,1,8,0:0:0:0:
255,192,45216,1,8,0:0:0:0:
255,192,45569,1,0,0:0:0:0:
255,192,45745,1,0,0:0:0:0:
255,192,45922,1,8,0:0:0:0:
255,192,46098,1,0,0:0:0:0:
255,192,46275,1,0,0:0:0:0:
255,192,46628,1,8,0:0:0:0:
255,192,46804,1,8,0:0:0:0:
255,192,46981,1,0,0:0:0:0:
255,192,47157,1,8,0:0:0:0:
255,192,47334,1,8,0:0:0:0:
255,192,47687,1,0,0:0:0:0:
255,192,47863,1,0,0:0:0:0:
255,192,48039,1,8,0:0:0:0:
255,192,48392,1,8,0:0:0:0:
255,192,48569,1,8,0:0:0:0:
255,192,48745,1,0,0:0:0:0:
255,192,48922,1,8,0:0:0:0:
255,192,49098,1,0,0:0:0:0:
255,192,49451,1,0,0:0:0:0:
255,192,49628,1,8,0:0:0:0:
255,192,49804,1,0,0:0:0:0:
255,192,49981,1,8,0:0:0:0:
255,192,50157,1,8,0:0:0:0:
255,192,50510,1,8,0:0:0:0:
255,192,50687,1,0,0:0:0:0:
255,192,50863,1,0,0:0:0:0:
255,192,51216,1,0,0:0:0:0:
255,192,51392,1,0,0:0:0:0:
255,192,51569,1,8,0:0:0:0:
255,192,51745,1,0,0:0:0:0:
255,192,51922,1,0,0:0:0:0:
255,192,52275,1,0,0:0:0:0:
255,192,52451,1,0,0:0:0:0:
255,192,52628,1,8,0:0:0:0:
255,192,52804,1,0,0:0:0:0:
255,192,52981,1,0,0:0:0:0:
255,192,53334,1,8,0:0:0:0:
255,192,53510,1,0,0:0:0:0:
255,192,53687,1,8,0:0:0:0:
255,192,54039,1,0,0:0:0:0:
255,192,54216,1,0,0:0:0:0:
255,192,54392,1,0,0:0:0:0:
255,192,54569,1,8,0:0:0:0:
255,192,54745,1,8,0:0:0:0:
255,192,55098,1,0,0:0:0:0:
255,192,55275,1,0,0:0:0:0:
255,192,55451,1,0,0:0:0:0:
255,192,55628,1,8,0:0:0:0:
255,192,55804,1,8,0:0:0:0:
255,192,56157,1,0,0:0:0:0:
255,192,56510,1,0,0:0:0:0:
255,192,56863,1,0,0:0:0:0:
255,192,57039,1,8,0:0:0:0:
255,192,57216,1,0,0:0:0:0:
255,192,57569,1,8,0:0:0:0:
255,192,57745,1,0,0:0:0:0:
255,192,57922,1,8,0:0:0:0:
255,192,58098,1,0,0:0:0:0:
255,192,58275,1,8,0:0:0:0:
255,192,58451,1,0,0:0:0:0:
255,192,58628,1,8,0:0:0:0:
255,192,58981,1,0,0:0:0:0:
255,192,59157,1,8,0:0:0:0:
255,192,59334,1,0,0:0:0:0:
255,192,59687,1,8,0:0:0:0:
255,192,59863,1,0,0:0:0:0:
255,192,60039,1,8,0:0:0:0:
255,192,60392,1,0,0:0:0:0:
255,192,60569,1,0,0:0:0:0:
255,192,60745,1,8,0:0:0:0:
255,192,60922,1,8,0:0:0:0:
255,192,61098,1,0,0:0:0:0:
255,192,61275,1,0,0:0:0:0:
255,192,61451,1,8,0:0:0:0:
255,192,61804,1,0,0:0:0:0:
255,192,62157,1,0,0:0:0:0:
255,192,62510,1,0,0:0:0:0:
255,192,62687,1,8,0:0:0:0:
255,192,62863,1,0,0:0:0:0:
255,192,63039,1,8,0:0:0:0:
255,192,63216,1,0,0:0:0:0:
255,192,63569,1,8,0:0:0:0:
255,192,63745,1,0,0:0:0:0:
255,192,63922,1,8,0:0:0:0:
255,192,64098,1,0,0:0:0:0:
255,192,64275,1,8,0:0:0:0:
255,192,64628,1,0,0:0:0:0:
255,192,64804,1,0,0:0:0:0:
255,192,64981,1,8,0:0:0:0:
255,192,65334,1,0,0:0:0:0:
255,192,65510,1,8,0:0:0:0:
255,192,65687,1,0,0:0:0:0:
255,192,65863,1,8,0:0:0:0:
255,192,66039,1,8,0:0:0:0:
255,192,66392,1,8,0:0:0:0:
255,192,66569,1,0,0:0:0:0:
255,192,66745,1,8,0:0:0:0:
255,192,66922,1,0,0:0:0:0:
255,192,67098,1,0,0:0:0:0:
255,192,67451,1,0,0:0:0:0:
255,192,67804,1,0,0:0:0:0:
255,192,68157,1,8,0:0:0:0:
255,192,68334,1,0,0:0:0:0:
255,192,68687,1,4,0:0:0:0:
255,192,68863,1,4,0:0:0:0:
255,192,69039,1,12,0:0:0:0:
255,192,69216,1,12,0:0:0:0:
255,192,69392,1,4,0:0:0:0:
255,192,69569,1,4,0:0:0:0:
255,192,69745,1,12,0:0:0:0:
255,192,69922,1,12,0:0:0:0:
255,192,70098,1,0,0:0:0:0:
255,192,70275,1,0,0:0:0:0:
255,192,70628,1,0,0:0:0:0:
255,192,70981,1,0,0:0:0:0:
255,192,71157,1,8,0:0:0:0:
255,192,71510,1,0,0:0:0:0:
255,192,71687,1,8,0:0:0:0:
255,192,72039,1,4,0:0:0:0:
255,192,72215,1,4,0:0:0:0:
255,192,72391,1,12,0:0:0:0:
255,192,72568,1,12,0:0:0:0:
255,192,72744,1,4,0:0:0:0:
255,192,72921,1,4,0:0:0:0:
255,192,73097,1,12,0:0:0:0:
255,192,73274,1,12,0:0:0:0:
255,192,73450,1,0,0:0:0:0:
255,192,73804,1,0,0:0:0:0:
255,192,73981,1,8,0:0:0:0:
255,192,74334,1,0,0:0:0:0:
255,192,74510,1,8,0:0:0:0:
255,192,74863,1,4,0:0:0:0:
255,192,75039,1,4,0:0:0:0:
255,192,75215,1,12,0:0:0:0:
255,192,75392,1,12,0:0:0:0:
255,192,75568,1,4,0:0:0:0:
255,192,75745,1,4,0:0:0:0:
255,192,75921,1,12,0:0:0:0:
255,192,76098,1,12,0:0:0:0:
255,192,76274,1,0,0:0:0:0:
255,192,76628,1,0,0:0:0:0:
255,192,76804,1,8,0:0:0:0:
255,192,77157,1,8,0:0:0:0:
255,192,77334,1,0,0:0:0:0:
255,192,77687,1,4,0:0:0:0:
255,192,77863,1,4,0:0:0:0:
255,192,78039,1,12,0:0:0:0:
255,192,78216,1,12,0:0:0:0:
255,192,78392,1,4,0:0:0:0:
255,192,78569,1,4,0:0:0:0:
255,192,78745,1,12,0:0:0:0:
255,192,78922,1,12,0:0:0:0:
255,192,79098,1,0,0:0:0:0:
255,192,79451,1,8,0:0:0:0:
255,192,79628,1,0,0:0:0:0:
255,192,79981,1,8,0:0:0:0:
255,192,80157,1,0,0:0:0:0:
255,192,80510,1,12,0:0:0:0:
255,192,80687,1,12,0:0:0:0:
255,192,80863,1,12,0:0:0:0:
255,192,81039,1,4,0:0:0:0:
255,192,81216,1,12,0:0:0:0:
255,192,81392,1,4,0:0:0:0:
255,192,81569,1,12,0:0:0:0:
255,192,81922,1,0,0:0:0:0:
255,192,82275,1,8,0:0:0:0:
255,192,82451,1,0,0:0:0:0:
255,192,82804,1,0,0:0:0:0:
255,192,82981,1,8,0:0:0:0:
255,192,83334,1,4,0:0:0:0:
255,192,83510,1,4,0:0:0:0:
255,192,83687,1,4,0:0:0:0:
255,192,83863,1,12,0:0:0:0:
255,192,84039,1,12,0:0:0:0:
255,192,84216,1,12,0:0:0:0:
255,192,84392,1,4,0:0:0:0:
255,192,84745,1,0,0:0:0:0:
255,192,85098,1,0,0:0:0:0:
255,192,85275,1,8,0:0:0:0:
255,192,85628,1,8,0:0:0:0:
255,192,85804,1,0,0:0:0:0:
255,192,86157,1,12,0:0:0:0:
255,192,86334,1,4,0:0:0:0:
255,192,86510,1,12,0:0:0:0:
255,192,86687,1,4,0:0:0:0:
255,192,86863,1,12,0:0:0:0:
255,192,87039,1,4,0:0:0:0:
255,192,87216,1,12,0:0:0:0:
255,192,87569,1,0,0:0:0:0:
255,192,87922,1,0,0:0:0:0:
255,192,88098,1,8,0:0:0:0:
255,192,88451,1,8,0:0:0:0:
255,192,88628,1,0,0:0:0:0:
255,192,88981,1,4,0:0:0:0:
255,192,89157,1,12,0:0:0:0:
255,192,89334,1,4,0:0:0:0:
255,192,89510,1,12,0:0:0:0:
255,192,89687,1,4,0:0:0:0:
255,192,89863,1,12,0:0:0:0:
255,192,90039,1,4,0:0:0:0:
255,192,90392,1,0,0:0:0:0:
255,192,90745,1,0,0:0:0:0:
255,192,90922,1,0,0:0:0:0:
255,192,91098,1,8,0:0:0:0:
255,192,91275,1,0,0:0:0:0:
255,192,91451,1,0,0:0:0:0:
255,192,91804,1,0,0:0:0:0:
255,192,92157,1,8,0:0:0:0:
255,192,92334,1,8,0:0:0:0:
255,192,92510,1,0,0:0:0:0:
255,192,92687,1,8,0:0:0:0:
255,192,92863,1,8,0:0:0:0:
255,192,93039,1,0,0:0:0:0:
255,192,93216,1,8,0:0:0:0:
255,192,93569,1,8,0:0:0:0:
255,192,93745,1,0,0:0:0:0:
255,192,94098,1,8,0:0:0:0:
255,192,94275,1,0,0:0:0:0:
255,192,94628,1,8,0:0:0:0:
255,192,94804,1,0,0:0:0:0:
255,192,94981,1,8,0:0:0:0:
255,192,95157,1,0,0:0:0:0:
255,192,95334,1,8,0:0:0:0:
255,192,95510,1,0,0:0:0:0:
255,192,95687,1,8,0:0:0:0:
255,192,95863,1,0,0:0:0:0:
255,192,96039,1,8,0:0:0:0:
255,192,96392,1,0,0:0:0:0:
255,192,96569,1,0,0:0:0:0:
255,192,96922,1,8,0:0:0:0:
255,192,97098,1,8,0:0:0:0:
255,192,97451,1,0,0:0:0:0:
255,192,97628,1,8,0:0:0:0:
255,192,97804,1,0,0:0:0:0:
255,192,97981,1,8,0:0:0:0:
255,192,98157,1,0,0:0:0:0:
255,192,98334,1,8,0:0:0:0:
255,192,98510,1,0,0:0:0:0:
255,192,98687,1,8,0:0:0:0:
255,192,98863,1,0,0:0:0:0:
255,192,99216,1,8,0:0:0:0:
255,192,99392,1,0,0:0:0:0:
255,192,99745,1,0,0:0:0:0:
255,192,99922,1,8,0:0:0:0:
255,192,100275,1,8,0:0:0:0:
255,192,100451,1,8,0:0:0:0:
255,192,100628,1,0,0:0:0:0:
255,192,100804,1,0,0:0:0:0:
255,192,100981,1,8,0:0:0:0:
255,192,101334,1,0,0:0:0:0:
255,192,101687,1,8,0:0:0:0:
255,192,101863,1,0,0:0:0:0:
255,192,102039,1,0,0:0:0:0:
255,192,102216,1,8,0:0:0:0:
255,192,102569,1,8,0:0:0:0:
255,192,102745,1,0,0:0:0:0:
255,192,103098,1,0,0:0:0:0:
255,192,103275,1,8,0:0:0:0:
255,192,103451,1,8,0:0:0:0:
255,192,103628,1,0,0:0:0:0:
255,192,103981,1,0,0:0:0:0:
255,192,104157,1,8,0:0:0:0:
255,192,104510,1,8,0:0:0:0:
255,192,104687,1,0,0:0:0:0:
255,192,104863,1,8,0:0:0:0:
255,192,105039,1,0,0:0:0:0:
255,192,105392,1,8,0:0:0:0:
255,192,105569,1,0,0:0:0:0:
255,192,105922,1,0,0:0:0:0:
255,192,106099,1,8,0:0:0:0:
255,192,106275,1,0,0:0:0:0:
255,192,106452,1,8,0:0:0:0:
255,192,106628,1,0,0:0:0:0:
255,192,106805,1,8,0:0:0:0:
255,192,106981,1,0,0:0:0:0:
255,192,107158,1,8,0:0:0:0:
255,192,107334,1,0,0:0:0:0:
255,192,107687,1,8,0:0:0:0:
255,192,107863,1,0,0:0:0:0:
255,192,108216,1,0,0:0:0:0:
255,192,108392,1,8,0:0:0:0:
255,192,108745,1,8,0:0:0:0:
255,192,108921,1,0,0:0:0:0:
255,192,109098,1,8,0:0:0:0:
255,192,109274,1,0,0:0:0:0:
255,192,109451,1,8,0:0:0:0:
255,192,109627,1,0,0:0:0:0:
255,192,109804,1,8,0:0:0:0:
255,192,109980,1,0,0:0:0:0:
255,192,110156,1,8,0:0:0:0:
255,192,110510,1,0,0:0:0:0:
255,192,110687,1,0,0:0:0:0:
255,192,111039,1,0,0:0:0:0:
255,192,111216,1,0,0:0:0:0:
255,192,111569,1,8,0:0:0:0:
255,192,111746,1,8,0:0:0:0:
255,192,111922,1,0,0:0:0:0:
255,192,112099,1,8,0:0:0:0:
255,192,112275,1,8,0:0:0:0:
255,192,112451,1,0,0:0:0:0:
255,192,112628,1,8,0:0:0:0:
255,192,112981,1,0,0:0:0:0:
255,192,113334,1,8,0:0:0:0:
255,192,113510,1,0,0:0:0:0:
255,192,113863,1,8,0:0:0:0:
255,192,114039,1,0,0:0:0:0:
255,192,114392,1,0,0:0:0:0:
255,192,114745,1,0,0:0:0:0:
255,192,114922,1,8,0:0:0:0:
255,192,115275,1,0,0:0:0:0:
255,192,115451,1,8,0:0:0:0:
255,192,115804,1,0,0:0:0:0:
255,192,116157,1,8,0:0:0:0:
255,192,116333,1,0,0:0:0:0:
255,192,116686,1,8,0:0:0:0:
255,192,116862,1,0,0:0:0:0:
255,192,117215,1,0,0:0:0:0:
255,192,117568,1,0,0:0:0:0:
255,192,117745,1,8,0:0:0:0:
255,192,118098,1,0,0:0:0:0:
255,192,118274,1,8,0:0:0:0:
255,192,118628,1,0,0:0:0:0:
255,192,118981,1,0,0:0:0:0:
255,192,119157,1,8,0:0:0:0:
255,192,119510,1,0,0:0:0:0:
255,192,119687,1,8,0:0:0:0:
255,192,120039,1,0,0:0:0:0:
255,192,120392,1,8,0:0:0:0:
255,192,120569,1,0,0:0:0:0:
255,192,120922,1,8,0:0:0:0:
255,192,121098,1,0,0:0:0:0:
255,192,121451,1,0,0:0:0:0:
255,192,121804,1,8,0:0:0:0:
255,192,121981,1,8,0:0:0:0:
255,192,122334,1,0,0:0:0:0:
255,192,122510,1,0,0:0:0:0:
255,192,122863,1,8,0:0:0:0:
255,192,123039,1,8,0:0:0:0:
255,192,123392,1,8,0:0:0:0:
255,192,123569,1,0,0:0:0:0:
255,192,123745,1,8,0:0:0:0:
255,192,123922,1,0,0:0:0:0:
255,192,124098,1,8,0:0:0:0:
255,192,124275,1,0,0:0:0:0:
255,192,124804,1,8,0:0:0:0:
255,192,125157,1,0,0:0:0:0:
255,192,125334,1,8,0:0:0:0:
255,192,125687,1,0,0:0:0:0:
255,192,125863,1,0,0:0:0:0:
255,192,126039,1,8,0:0:0:0:
255,192,126216,1,8,0:0:0:0:
255,192,126392,1,0,0:0:0:0:
255,192,126569,1,8,0:0:0:0:
255,192,126745,1,8,0:0:0:0:
255,192,127098,1,0,0:0:0:0:
255,192,127451,1,0,0:0:0:0:
255,192,127627,1,8,0:0:0:0:
255,192,127980,1,0,0:0:0:0:
255,192,128157,1,8,0:0:0:0:
255,192,128509,1,0,0:0:0:0:
255,192,128862,1,8,0:0:0:0:
255,192,129039,1,0,0:0:0:0:
255,192,129392,1,8,0:0:0:0:
255,192,129568,1,0,0:0:0:0:
255,192,129922,1,0,0:0:0:0:
255,192,130275,1,8,0:0:0:0:
255,192,130451,1,0,0:0:0:0:
255,192,130892,1,8,0:0:0:0:
255,192,131863,1,0,0:0:0:0:
255,192,132392,1,0,0:0:0:0:
255,192,132745,1,0,0:0:0:0:
255,192,133363,1,0,0:0:0:0:
255,192,133804,1,0,0:0:0:0:
255,192,134157,1,8,0:0:0:0:
255,192,134245,1,8,0:0:0:0:
255,192,134334,1,0,0:0:0:0:
255,192,134687,1,8,0:0:0:0:
255,192,134775,1,8,0:0:0:0:
255,192,134863,1,0,0:0:0:0:
255,192,135569,1,8,0:0:0:0:
255,192,135922,1,0,0:0:0:0:
255,192,136098,1,0,0:0:0:0:
255,192,136451,1,0,0:0:0:0:
255,192,136628,1,8,0:0:0:0:
255,192,136981,1,4,0:0:0:0:
255,192,137157,1,4,0:0:0:0:
255,192,137334,1,4,0:0:0:0:
255,192,137510,1,12,0:0:0:0:
255,192,137687,1,12,0:0:0:0:
255,192,137863,1,4,0:0:0:0:
255,192,138039,1,4,0:0:0:0:
255,192,138392,1,0,0:0:0:0:
255,192,138745,1,0,0:0:0:0:
255,192,138922,1,8,0:0:0:0:
255,192,139275,1,8,0:0:0:0:
255,192,139451,1,0,0:0:0:0:
255,192,139804,1,12,0:0:0:0:
255,192,139981,1,12,0:0:0:0:
255,192,140157,1,12,0:0:0:0:
255,192,140334,1,4,0:0:0:0:
255,192,140510,1,4,0:0:0:0:
255,192,140687,1,4,0:0:0:0:
255,192,140863,1,12,0:0:0:0:
255,192,141216,1,0,0:0:0:0:
255,192,141569,1,8,0:0:0:0:
255,192,141745,1,0,0:0:0:0:
255,192,142098,1,0,0:0:0:0:
255,192,142275,1,8,0:0:0:0:
255,192,142628,1,12,0:0:0:0:
255,192,142804,1,4,0:0:0:0:
255,192,142981,1,12,0:0:0:0:
255,192,143157,1,4,0:0:0:0:
255,192,143334,1,12,0:0:0:0:
255,192,143510,1,4,0:0:0:0:
255,192,143687,1,12,0:0:0:0:
255,192,144039,1,0,0:0:0:0:
255,192,144392,1,8,0:0:0:0:
255,192,144569,1,8,0:0:0:0:
255,192,144922,1,8,0:0:0:0:
255,192,145098,1,8,0:0:0:0:
255,192,145451,1,4,0:0:0:0:
255,192,145628,1,12,0:0:0:0:
255,192,145804,1,4,0:0:0:0:
255,192,145981,1,12,0:0:0:0:
255,192,146157,1,4,0:0:0:0:
255,192,146334,1,12,0:0:0:0:
255,192,146510,1,4,0:0:0:0:
255,192,146863,1,8,0:0:0:0:
255,192,147216,1,0,0:0:0:0:
255,192,147392,1,0,0:0:0:0:
255,192,147745,1,0,0:0:0:0:
255,192,147922,1,0,0:0:0:0:
255,192,148275,1,12,0:0:0:0:
255,192,148451,1,12,0:0:0:0:
255,192,148628,1,4,0:0:0:0:
255,192,148804,1,4,0:0:0:0:
255,192,148981,1,12,0:0:0:0:
255,192,149157,1,12,0:0:0:0:
255,192,149334,1,4,0:0:0:0:
255,192,149687,1,0,0:0:0:0:
255,192,150039,1,8,0:0:0:0:
255,192,150216,1,0,0:0:0:0:
255,192,150569,1,8,0:0:0:0:
255,192,150745,1,0,0:0:0:0:
255,192,151098,1,4,0:0:0:0:
255,192,151275,1,4,0:0:0:0:
255,192,151451,1,12,0:0:0:0:
255,192,151628,1,4,0:0:0:0:
255,192,151804,1,4,0:0:0:0:
255,192,151981,1,12,0:0:0:0:
255,192,152157,1,12,0:0:0:0:
255,192,152510,1,0,0:0:0:0:
255,192,152863,1,0,0:0:0:0:
255,192,153039,1,0,0:0:0:0:
255,192,153392,1,0,0:0:0:0:
255,192,153569,1,0,0:0:0:0:
255,192,153922,1,12,0:0:0:0:
255,192,154098,1,12,0:0:0:0:
255,192,154275,1,4,0:0:0:0:
255,192,154451,1,4,0:0:0:0:
255,192,154628,1,4,0:0:0:0:
255,192,154804,1,12,0:0:0:0:
255,192,154981,1,12,0:0:0:0:
255,192,155334,1,0,0:0:0:0:
255,192,155687,1,0,0:0:0:0:
255,192,155863,1,8,0:0:0:0:
255,192,156216,1,0,0:0:0:0:
255,192,156392,1,8,0:0:0:0:
255,192,156745,1,4,0:0:0:0:
255,192,156922,1,4,0:0:0:0:
255,192,157098,1,12,0:0:0:0:
255,192,157275,1,12,0:0:0:0:
255,192,157451,1,12,0:0:0:0:
255,192,157628,1,4,0:0:0:0:
255,192,157804,1,4,0:0:0:0:
255,192,158157,5,0,0:0:0:0:
255,192,158510,1,0,0:0:0:0:
255,192,158863,1,8,0:0:0:0:
255,192,159216,1,0,0:0:0:0:
255,192,159569,1,0,0:0:0:0:
255,192,160098,1,8,0:0:0:0:
255,192,160275,1,0,0:0:0:0:
255,192,160628,1,0,0:0:0:0:
255,192,160981,1,0,0:0:0:0:
255,192,161510,1,8,0:0:0:0:
255,192,161687,1,0,0:0:0:0:
255,192,162039,1,0,0:0:0:0:
255,192,162392,1,8,0:0:0:0:
255,192,162922,1,0,0:0:0:0:
255,192,163098,1,0,0:0:0:0:
255,192,163451,1,8,0:0:0:0:
255,192,163804,1,8,0:0:0:0:
255,192,164334,1,8,0:0:0:0:
255,192,164510,1,0,0:0:0:0:
255,192,164863,1,8,0:0:0:0:
255,192,165216,1,0,0:0:0:0:
255,192,165745,1,8,0:0:0:0:
255,192,165922,1,8,0:0:0:0:
255,192,166275,1,0,0:0:0:0:
255,192,166628,1,0,0:0:0:0:
255,192,167157,1,0,0:0:0:0:
255,192,167334,1,8,0:0:0:0:
255,192,167687,1,0,0:0:0:0:
255,192,168039,1,0,0:0:0:0:
255,192,168128,1,0,0:0:0:0:
255,192,168216,1,8,0:0:0:0:
255,192,168392,1,0,0:0:0:0:
255,192,168569,1,0,0:0:0:0:
255,192,168657,1,0,0:0:0:0:
255,192,168745,1,0,0:0:0:0:
255,192,168834,1,0,0:0:0:0:
255,192,168922,1,0,0:0:0:0:
255,192,169098,1,0,0:0:0:0:
255,192,169451,1,8,0:0:0:0:
255,192,169981,1,0,0:0:0:0:
255,192,170157,1,8,0:0:0:0:
255,192,170510,1,0,0:0:0:0:
255,192,170863,1,0,0:0:0:0:
255,192,171392,1,0,0:0:0:0:
255,192,171569,1,8,0:0:0:0:
255,192,171922,1,0,0:0:0:0:
255,192,172275,1,0,0:0:0:0:
255,192,172804,1,8,0:0:0:0:
255,192,172981,1,8,0:0:0:0:
255,192,173334,1,0,0:0:0:0:
255,192,173687,1,8,0:0:0:0:
255,192,174216,1,0,0:0:0:0:
255,192,174392,1,8,0:0:0:0:
255,192,174745,1,0,0:0:0:0:
255,192,175098,1,8,0:0:0:0:
255,192,175628,1,0,0:0:0:0:
255,192,175804,1,8,0:0:0:0:
255,192,176157,1,0,0:0:0:0:
255,192,176510,1,8,0:0:0:0:
279,191,177039,1,8,0:0:0:0:
255,192,177216,1,0,0:0:0:0:
255,192,177569,1,8,0:0:0:0:
255,192,177922,1,0,0:0:0:0:
255,192,178451,1,0,0:0:0:0:
255,192,178628,1,0,0:0:0:0:
255,192,178981,1,0,0:0:0:0:
255,192,179334,1,8,0:0:0:0:
255,192,179422,1,8,0:0:0:0:
255,192,179510,1,0,0:0:0:0:
255,192,179775,1,0,0:0:0:0:
255,192,179863,1,0,0:0:0:0:
255,192,179951,1,8,0:0:0:0:
255,192,180392,1,0,0:0:0:0:
255,192,180745,1,0,0:0:0:0:
