osu file format v14

[General]
AudioFilename: OVERDRIVERS.mp3
AudioLeadIn: 0
PreviewTime: 90612
Countdown: 0
SampleSet: Soft
StackLeniency: 0.7
Mode: 3
LetterboxInBreaks: 0
SpecialStyle: 0
WidescreenStoryboard: 0

[Editor]
Bookmarks: 4086,17646,47476,68092
DistanceSpacing: 0.8
BeatDivisor: 4
GridSize: 32
TimelineZoom: 1.6

[Metadata]
Title:OVERDRIVERS
TitleUnicode:OVERDRIVERS
Artist:P*Light feat. mow*2
ArtistUnicode:P*Light feat. mow*2
Creator:Leonita
Version:NOVICE
Source:SOUND VOLTEX II -infinite infection-
Tags:SDVX 2 Happy Hardcore Lily KONAMI BEMANI Colorful Palette ExUsagi Arzenvald [_A_v_a_l_o_n_]
BeatmapID:1288528
BeatmapSetID:563569

[Difficulty]
HPDrainRate:7
CircleSize:4
OverallDifficulty:7
ApproachRate:5
SliderMultiplier:1.4
SliderTickRate:1

[Events]
//Background and Video events
0,0,"142969025095a.jpg",0,0
//Break Periods
//Storyboard Layer 0 (Background)
//Storyboard Layer 1 (Fail)
//Storyboard Layer 2 (Pass)
//Storyboard Layer 3 (Foreground)
//Storyboard Layer 4 (Overlay)
//Storyboard Sound Samples

[TimingPoints]
1389,338.983050847458,4,2,2,50,1,0
36643,-100,4,2,2,50,0,1
57999,-100,4,2,2,50,0,0
90880,-100,4,2,2,50,0,1
100372,-100,4,2,2,50,0,0

[HitObjects]
64,192,1389,5,4,1:0:0:0:
448,192,1389,1,2,0:0:0:0:
64,192,1643,1,2,0:0:0:0:
320,192,1897,1,2,0:0:0:0:
192,192,2066,1,2,0:0:0:0:
192,192,2321,1,2,0:0:0:0:
448,192,2575,1,2,0:0:0:0:
64,192,2744,1,2,0:0:0:0:
320,192,2914,1,0,0:0:0:0:
448,192,2999,1,2,0:0:0:0:
192,192,3168,1,0,0:0:0:0:
64,192,3253,1,2,0:0:0:0:
448,192,3422,128,2,3592:0:0:0:0:
320,192,3592,1,2,0:0:0:0:
64,192,3761,1,8,1:0:0:0:
192,192,3761,1,0,0:0:0:0:
448,192,4100,5,4,1:0:0:0:
64,192,4100,128,2,4270:0:0:0:0:
320,192,4270,1,0,0:0:0:0:
192,192,4439,1,8,0:0:0:0:
448,192,4439,1,0,0:0:0:0:
64,192,4609,1,0,0:0:0:0:
320,192,4778,1,2,0:0:0:0:
448,192,4948,1,0,0:0:0:0:
320,192,5117,1,8,0:0:0:0:
192,192,5117,1,0,0:0:0:0:
64,192,5287,1,0,0:0:0:0:
192,192,5456,128,2,5626:0:0:0:0:
448,192,5626,1,0,0:0:0:0:
64,192,5795,1,8,0:0:0:0:
320,192,5795,1,0,0:0:0:0:
192,192,5965,1,0,0:0:0:0:
448,192,6134,1,2,0:0:0:0:
320,192,6304,1,0,0:0:0:0:
64,192,6473,1,8,0:0:0:0:
192,192,6473,1,0,0:0:0:0:
448,192,6643,1,0,0:0:0:0:
320,192,6812,128,2,6982:0:0:0:0:
64,192,6982,1,0,0:0:0:0:
448,192,7151,1,8,0:0:0:0:
192,192,7151,1,0,0:0:0:0:
320,192,7321,1,0,0:0:0:0:
64,192,7490,1,2,0:0:0:0:
448,192,7660,1,0,0:0:0:0:
64,192,7829,1,8,0:0:0:0:
192,192,7829,1,0,0:0:0:0:
320,192,7999,1,2,0:0:0:0:
448,192,7999,1,0,0:0:0:0:
64,192,8168,1,2,0:0:0:0:
192,192,8168,1,0,0:0:0:0:
192,192,8338,1,2,0:0:0:0:
320,192,8338,1,0,0:0:0:0:
448,192,8677,1,2,0:0:0:0:
64,192,8677,1,0,0:0:0:0:
320,192,9016,1,2,0:0:0:0:
192,192,9016,1,0,0:0:0:0:
448,192,9185,128,2,9524:0:0:0:0:
320,192,9185,1,0,0:0:0:0:
192,192,9524,1,4,1:0:0:0:
64,192,9524,1,2,0:0:0:0:
320,192,9694,1,2,0:0:0:0:
448,192,9863,1,8,0:0:0:0:
192,192,9863,1,0,0:0:0:0:
64,192,10033,1,2,0:0:0:0:
448,192,10202,1,2,0:0:0:0:
320,192,10372,1,2,0:0:0:0:
64,192,10541,1,8,0:0:0:0:
192,192,10541,1,0,0:0:0:0:
448,192,10711,1,2,0:0:0:0:
320,192,10880,1,4,1:0:0:0:
64,192,10880,1,2,0:0:0:0:
192,192,11050,1,2,0:0:0:0:
448,192,11219,1,8,0:0:0:0:
320,192,11219,1,0,0:0:0:0:
64,192,11389,1,2,0:0:0:0:
192,192,11558,1,2,0:0:0:0:
448,192,11727,1,2,0:0:0:0:
64,192,11897,1,8,0:0:0:0:
320,192,11897,1,0,0:0:0:0:
192,192,12066,1,2,0:0:0:0:
320,192,12236,1,4,1:0:0:0:
448,192,12236,128,2,12405:0:0:0:0:
64,192,12405,128,2,12575:0:0:0:0:
320,192,12575,128,2,12744:0:0:0:0:
448,192,12744,128,2,12914:0:0:0:0:
64,192,12914,128,2,13083:0:0:0:0:
192,192,12914,1,0,0:0:0:0:
320,192,13083,128,2,13253:0:0:0:0:
192,192,13253,128,2,13422:0:0:0:0:
448,192,13422,128,2,13592:0:0:0:0:
64,192,13761,1,8,0:0:0:0:
320,192,13761,1,2,0:0:0:0:
64,192,14100,1,8,0:0:0:0:
320,192,14100,1,2,0:0:0:0:
192,192,14439,128,2,14948:0:0:0:0:
448,192,14439,1,8,0:0:0:0:
448,192,14609,128,2,14948:0:0:0:0:
64,192,14948,1,4,1:0:0:0:
320,192,15117,1,0,0:0:0:0:
448,192,15287,1,0,0:0:0:0:
64,192,15456,1,0,0:0:0:0:
320,192,15626,1,0,0:0:0:0:
448,192,15795,1,0,0:0:0:0:
64,192,15965,1,0,0:0:0:0:
448,192,16134,1,0,0:0:0:0:
64,192,16304,1,8,0:0:0:0:
320,192,16304,1,4,0:0:0:0:
192,192,16473,1,0,0:0:0:0:
448,192,16643,1,0,0:0:0:0:
64,192,16812,1,8,0:0:0:0:
320,192,16812,1,4,0:0:0:0:
192,192,16982,1,0,0:0:0:0:
320,192,17151,1,0,0:0:0:0:
192,192,17321,1,8,1:0:0:0:
448,192,17321,1,0,0:0:0:0:
64,192,17660,1,4,1:0:0:0:
448,192,17660,1,2,0:0:0:0:
192,192,17829,1,0,0:0:0:0:
448,192,17999,1,8,0:0:0:0:
320,192,18168,1,0,0:0:0:0:
64,192,18338,1,2,0:0:0:0:
320,192,18507,1,0,0:0:0:0:
192,192,18677,1,8,0:0:0:0:
448,192,18846,1,0,0:0:0:0:
320,192,19016,1,2,0:0:0:0:
64,192,19016,128,4,19185:0:0:0:0:
192,192,19185,1,0,0:0:0:0:
320,192,19355,1,8,0:0:0:0:
448,192,19524,128,4,19694:0:0:0:0:
64,192,19694,1,2,0:0:0:0:
320,192,19863,1,4,0:0:0:0:
192,192,20033,128,8,20202:0:0:0:0:
448,192,20033,1,4,0:0:0:0:
320,192,20202,128,4,20372:0:0:0:0:
64,192,20372,1,2,0:0:0:0:
448,192,20541,1,0,0:0:0:0:
192,192,20711,1,8,0:0:0:0:
64,192,20880,1,0,0:0:0:0:
448,192,21050,1,2,0:0:0:0:
192,192,21219,1,0,0:0:0:0:
320,192,21389,1,8,0:0:0:0:
64,192,21558,1,0,0:0:0:0:
192,192,21727,1,2,0:0:0:0:
448,192,21727,128,4,21897:0:0:0:0:
320,192,21897,1,0,0:0:0:0:
192,192,22066,1,8,0:0:0:0:
64,192,22236,128,4,22405:0:0:0:0:
448,192,22405,1,2,0:0:0:0:
192,192,22575,1,4,0:0:0:0:
320,192,22744,128,8,22914:0:0:0:0:
64,192,22744,1,4,0:0:0:0:
192,192,22914,128,4,23083:0:0:0:0:
448,192,23083,1,2,0:0:0:0:
320,192,23253,1,0,0:0:0:0:
64,192,23422,1,8,0:0:0:0:
192,192,23592,1,0,0:0:0:0:
448,192,23761,1,2,0:0:0:0:
192,192,23931,1,0,0:0:0:0:
320,192,24100,1,8,0:0:0:0:
64,192,24270,1,0,0:0:0:0:
320,192,24439,1,2,0:0:0:0:
448,192,24439,128,4,24609:0:0:0:0:
192,192,24609,1,0,0:0:0:0:
64,192,24778,1,8,0:0:0:0:
448,192,24948,128,4,25117:0:0:0:0:
320,192,25117,1,2,0:0:0:0:
192,192,25287,1,2,0:0:0:0:
192,192,25626,1,2,0:0:0:0:
64,192,25795,1,4,1:0:0:0:
448,192,25795,1,2,0:0:0:0:
320,192,25965,1,0,0:0:0:0:
192,192,26134,1,8,0:0:0:0:
448,192,26304,1,0,0:0:0:0:
64,192,26473,1,2,0:0:0:0:
192,192,26643,1,0,0:0:0:0:
320,192,26812,1,8,0:0:0:0:
64,192,26982,1,0,0:0:0:0:
320,192,27151,128,2,27321:0:0:0:0:
448,192,27151,1,4,0:0:0:0:
192,192,27321,1,0,0:0:0:0:
64,192,27490,1,8,0:0:0:0:
448,192,27660,128,4,27829:0:0:0:0:
192,192,27829,1,2,0:0:0:0:
320,192,27999,1,4,0:0:0:0:
448,192,28168,1,8,0:0:0:0:
192,192,28168,128,4,28338:0:0:0:0:
64,192,28338,128,4,28507:0:0:0:0:
320,192,28507,1,2,0:0:0:0:
448,192,28677,1,0,0:0:0:0:
192,192,28846,1,8,0:0:0:0:
64,192,29016,1,0,0:0:0:0:
320,192,29185,1,2,0:0:0:0:
192,192,29355,1,0,0:0:0:0:
448,192,29524,1,8,0:0:0:0:
320,192,29694,1,0,0:0:0:0:
192,192,29863,1,2,0:0:0:0:
64,192,29863,128,4,30033:0:0:0:0:
448,192,30033,1,0,0:0:0:0:
320,192,30202,1,8,0:0:0:0:
64,192,30372,128,4,30541:0:0:0:0:
192,192,30541,1,2,0:0:0:0:
448,192,30711,1,4,0:0:0:0:
320,192,30880,1,8,0:0:0:0:
320,192,31050,1,8,0:0:0:0:
448,192,31219,1,4,1:0:0:0:
192,192,31219,1,2,0:0:0:0:
448,192,31897,1,4,1:0:0:0:
192,192,31897,1,2,0:0:0:0:
64,192,32575,1,4,1:0:0:0:
320,192,32575,1,2,0:0:0:0:
64,192,33253,1,4,1:0:0:0:
320,192,33253,1,2,0:0:0:0:
448,192,33931,1,4,1:0:0:0:
64,192,33931,1,2,0:0:0:0:
192,192,34270,1,2,0:0:0:0:
320,192,34270,1,0,0:0:0:0:
448,192,34609,1,2,0:0:0:0:
64,192,34609,128,0,35287:0:0:0:0:
320,192,34948,1,2,0:0:0:0:
192,192,34948,128,0,35287:0:0:0:0:
320,192,35287,1,8,0:0:0:0:
448,192,35287,1,0,0:0:0:0:
192,192,35456,1,8,0:0:0:0:
64,192,35456,1,0,0:0:0:0:
320,192,35626,1,8,0:0:0:0:
448,192,35626,1,0,0:0:0:0:
192,192,35965,128,2,36134:0:0:0:0:
320,192,36134,1,2,0:0:0:0:
448,192,36304,1,8,1:0:0:0:
64,192,36304,1,0,0:0:0:0:
448,192,36643,1,6,0:0:0:0:
192,192,36643,1,4,1:0:0:0:
64,192,36812,1,4,0:0:0:0:
320,192,36982,1,8,0:0:0:0:
448,192,36982,1,0,0:0:0:0:
192,192,37151,1,4,0:0:0:0:
448,192,37321,1,2,0:0:0:0:
320,192,37490,1,4,0:0:0:0:
64,192,37660,1,8,0:0:0:0:
192,192,37660,1,0,0:0:0:0:
448,192,37829,1,4,0:0:0:0:
192,192,37999,1,6,0:0:0:0:
448,192,38168,1,4,0:0:0:0:
320,192,38338,1,8,0:0:0:0:
64,192,38338,1,0,0:0:0:0:
192,192,38507,1,4,0:0:0:0:
448,192,38677,1,2,0:0:0:0:
64,192,38846,1,4,0:0:0:0:
320,192,39016,1,8,0:0:0:0:
192,192,39016,1,0,0:0:0:0:
448,192,39185,1,4,0:0:0:0:
192,192,39355,1,2,0:0:0:0:
320,192,39524,1,4,0:0:0:0:
448,192,39694,1,8,0:0:0:0:
64,192,39694,1,0,0:0:0:0:
320,192,39863,1,4,0:0:0:0:
192,192,40033,1,2,0:0:0:0:
448,192,40202,1,4,0:0:0:0:
320,192,40372,1,8,0:0:0:0:
64,192,40372,1,0,0:0:0:0:
192,192,40541,1,4,0:0:0:0:
64,192,40711,1,6,0:0:0:0:
320,192,40880,1,4,0:0:0:0:
192,192,41050,1,8,0:0:0:0:
448,192,41050,1,0,0:0:0:0:
64,192,41219,1,4,0:0:0:0:
320,192,41389,1,2,0:0:0:0:
192,192,41558,1,4,0:0:0:0:
448,192,41727,1,8,0:0:0:0:
320,192,41727,1,0,0:0:0:0:
64,192,41897,1,6,0:0:0:0:
64,192,42066,1,2,0:0:0:0:
448,192,42236,1,4,0:0:0:0:
192,192,42405,1,8,0:0:0:0:
320,192,42405,1,0,0:0:0:0:
64,192,42575,1,4,0:0:0:0:
448,192,42744,1,2,0:0:0:0:
320,192,42914,1,4,0:0:0:0:
192,192,43083,1,8,0:0:0:0:
448,192,43083,1,0,0:0:0:0:
64,192,43253,1,4,0:0:0:0:
320,192,43422,1,6,0:0:0:0:
448,192,43592,1,4,0:0:0:0:
192,192,43761,1,8,0:0:0:0:
64,192,43761,1,0,0:0:0:0:
320,192,43931,1,4,0:0:0:0:
192,192,44100,1,2,0:0:0:0:
448,192,44270,1,4,0:0:0:0:
320,192,44439,1,8,0:0:0:0:
64,192,44439,1,0,0:0:0:0:
448,192,44609,1,4,0:0:0:0:
64,192,44778,1,2,0:0:0:0:
192,192,44948,1,4,0:0:0:0:
448,192,45117,1,8,0:0:0:0:
64,192,45117,1,0,0:0:0:0:
320,192,45287,1,4,0:0:0:0:
64,192,45456,1,2,0:0:0:0:
192,192,45626,1,4,0:0:0:0:
320,192,45795,1,8,0:0:0:0:
448,192,45795,1,0,0:0:0:0:
64,192,45965,1,4,0:0:0:0:
320,192,46134,1,6,0:0:0:0:
64,192,46304,1,4,0:0:0:0:
192,192,46473,1,8,0:0:0:0:
448,192,46473,1,0,0:0:0:0:
320,192,46643,1,4,0:0:0:0:
448,192,46812,1,2,0:0:0:0:
448,192,46982,1,6,0:0:0:0:
320,192,47151,1,8,0:0:0:0:
64,192,47151,1,0,0:0:0:0:
64,192,47321,1,6,0:0:0:0:
192,192,47490,1,4,1:0:0:0:
448,192,47490,1,2,0:0:0:0:
320,192,47660,1,4,0:0:0:0:
64,192,47829,1,8,0:0:0:0:
192,192,47829,1,0,0:0:0:0:
448,192,47999,1,4,0:0:0:0:
320,192,48168,1,2,0:0:0:0:
64,192,48338,1,4,0:0:0:0:
192,192,48507,1,8,0:0:0:0:
448,192,48507,1,0,0:0:0:0:
320,192,48677,1,4,0:0:0:0:
64,192,48846,1,6,0:0:0:0:
448,192,49016,128,4,49185:0:0:0:0:
320,192,49185,128,8,49355:0:0:0:0:
64,192,49185,1,0,0:0:0:0:
192,192,49355,128,4,49524:0:0:0:0:
320,192,49524,1,2,0:0:0:0:
448,192,49694,128,4,50033:0:0:0:0:
64,192,49863,1,8,0:0:0:0:
320,192,50033,1,4,0:0:0:0:
192,192,50202,1,6,0:0:0:0:
448,192,50372,1,4,0:0:0:0:
320,192,50541,1,8,0:0:0:0:
192,192,50541,1,0,0:0:0:0:
64,192,50711,1,4,0:0:0:0:
448,192,50880,1,2,0:0:0:0:
192,192,51050,1,4,0:0:0:0:
320,192,51219,1,8,0:0:0:0:
448,192,51219,1,0,0:0:0:0:
64,192,51389,1,4,0:0:0:0:
320,192,51558,128,6,51727:0:0:0:0:
64,192,51727,128,4,51897:0:0:0:0:
192,192,51897,128,8,52066:0:0:0:0:
448,192,51897,1,0,0:0:0:0:
320,192,52066,128,4,52236:0:0:0:0:
448,192,52236,128,2,52405:0:0:0:0:
192,192,52405,128,4,52575:0:0:0:0:
64,192,52575,1,8,0:0:0:0:
320,192,52575,1,0,0:0:0:0:
64,192,52744,1,8,0:0:0:0:
448,192,52914,1,4,1:0:0:0:
320,192,52914,1,2,0:0:0:0:
192,192,53083,1,2,0:0:0:0:
64,192,53253,1,8,0:0:0:0:
320,192,53253,1,4,0:0:0:0:
192,192,53422,1,2,0:0:0:0:
320,192,53592,1,2,0:0:0:0:
448,192,53761,1,2,0:0:0:0:
320,192,53931,1,8,0:0:0:0:
192,192,53931,1,4,0:0:0:0:
64,192,54100,1,2,0:0:0:0:
192,192,54270,1,4,1:0:0:0:
448,192,54270,1,2,0:0:0:0:
320,192,54439,1,2,0:0:0:0:
192,192,54609,1,8,0:0:0:0:
64,192,54609,1,4,0:0:0:0:
320,192,54778,1,2,0:0:0:0:
448,192,54948,1,2,0:0:0:0:
192,192,55117,1,2,0:0:0:0:
320,192,55287,1,8,0:0:0:0:
448,192,55287,1,4,0:0:0:0:
64,192,55456,1,2,0:0:0:0:
448,192,55626,1,4,1:0:0:0:
192,192,55626,1,2,0:0:0:0:
192,192,55795,1,2,0:0:0:0:
64,192,55965,1,8,0:0:0:0:
320,192,55965,1,0,0:0:0:0:
320,192,56134,1,2,0:0:0:0:
192,192,56304,1,8,0:0:0:0:
192,192,56558,1,8,0:0:0:0:
192,192,56812,1,8,0:0:0:0:
448,192,56982,1,8,0:0:0:0:
64,192,56982,1,4,1:0:0:0:
320,192,57151,1,4,0:0:0:0:
320,192,57490,1,4,0:0:0:0:
320,192,57829,1,4,0:0:0:0:
192,192,57999,1,8,1:0:0:0:
448,192,57999,1,0,0:0:0:0:
64,192,58338,1,4,1:0:0:0:
192,192,58338,1,2,0:0:0:0:
320,192,58507,1,0,0:0:0:0:
448,192,58677,1,0,0:0:0:0:
64,192,58846,1,0,0:0:0:0:
192,192,59016,1,0,0:0:0:0:
448,192,59185,1,0,0:0:0:0:
320,192,59355,1,0,0:0:0:0:
192,192,59524,1,0,0:0:0:0:
64,192,59694,1,0,0:0:0:0:
320,192,59863,1,0,0:0:0:0:
448,192,60033,1,0,0:0:0:0:
192,192,60202,1,0,0:0:0:0:
320,192,60372,1,0,0:0:0:0:
64,192,60541,1,0,0:0:0:0:
448,192,60711,1,8,0:0:0:0:
320,192,60711,1,0,0:0:0:0:
64,192,60880,1,8,0:0:0:0:
192,192,60965,1,2,0:0:0:0:
448,192,61050,1,8,0:0:0:0:
64,192,61304,1,8,0:0:0:0:
320,192,61558,1,8,0:0:0:0:
192,192,61812,1,8,0:0:0:0:
64,192,62066,128,10,62236:0:0:0:0:
448,192,62236,1,2,0:0:0:0:
320,192,62405,1,8,0:0:0:0:
192,192,62575,1,2,0:0:0:0:
64,192,62744,1,2,0:0:0:0:
320,192,62914,1,8,0:0:0:0:
448,192,63253,1,4,1:0:0:0:
192,192,63253,1,2,0:0:0:0:
320,192,63592,128,2,63761:0:0:0:0:
448,192,63761,1,4,1:0:0:0:
64,192,63761,1,2,0:0:0:0:
192,192,63931,1,0,0:0:0:0:
448,192,64100,1,2,0:0:0:0:
320,192,64270,1,0,0:0:0:0:
64,192,64439,1,2,0:0:0:0:
320,192,64609,1,0,0:0:0:0:
192,192,64778,1,2,0:0:0:0:
448,192,64948,1,0,0:0:0:0:
192,192,65117,1,4,1:0:0:0:
320,192,65117,1,2,0:0:0:0:
64,192,65287,1,0,0:0:0:0:
320,192,65456,1,2,0:0:0:0:
448,192,65626,1,0,0:0:0:0:
192,192,65795,1,2,0:0:0:0:
64,192,65965,1,0,0:0:0:0:
448,192,66134,1,2,0:0:0:0:
320,192,66304,1,0,0:0:0:0:
448,192,66473,1,4,1:0:0:0:
192,192,66473,1,2,0:0:0:0:
64,192,66643,1,0,0:0:0:0:
320,192,66812,1,2,0:0:0:0:
192,192,66982,1,0,0:0:0:0:
64,192,67151,1,4,1:0:0:0:
320,192,67151,1,2,0:0:0:0:
448,192,67321,1,0,0:0:0:0:
192,192,67490,1,2,0:0:0:0:
320,192,67660,1,0,0:0:0:0:
64,192,67829,1,4,1:0:0:0:
448,192,67829,1,2,0:0:0:0:
320,192,67999,1,0,0:0:0:0:
192,192,68168,1,0,0:0:0:0:
448,192,68338,1,0,0:0:0:0:
64,192,68507,128,2,68677:0:0:0:0:
192,192,68677,128,2,68846:0:0:0:0:
320,192,68846,1,8,1:0:0:0:
448,192,68846,1,0,0:0:0:0:
64,192,69185,1,4,1:0:0:0:
192,192,69185,128,2,70541:0:0:0:0:
320,192,69355,1,0,0:0:0:0:
448,192,69524,1,12,0:0:0:0:
64,192,69694,1,4,0:0:0:0:
320,192,69863,1,2,0:0:0:0:
448,192,70033,1,4,0:0:0:0:
320,192,70202,1,12,0:0:0:0:
64,192,70372,1,0,0:0:0:0:
448,192,70541,128,4,71050:0:0:0:0:
320,192,70541,1,2,0:0:0:0:
64,192,70711,1,0,0:0:0:0:
192,192,70880,1,12,0:0:0:0:
320,192,71050,128,4,71558:0:0:0:0:
64,192,71219,1,2,0:0:0:0:
448,192,71389,1,4,0:0:0:0:
192,192,71558,1,12,0:0:0:0:
64,192,71727,1,0,0:0:0:0:
192,192,71897,128,2,73253:0:0:0:0:
320,192,71897,1,4,0:0:0:0:
448,192,72066,1,0,0:0:0:0:
64,192,72236,1,12,0:0:0:0:
320,192,72405,1,4,0:0:0:0:
448,192,72575,1,2,0:0:0:0:
320,192,72744,1,4,0:0:0:0:
64,192,72914,1,12,0:0:0:0:
448,192,73083,1,0,0:0:0:0:
64,192,73253,128,4,73761:0:0:0:0:
320,192,73253,1,2,0:0:0:0:
448,192,73422,1,0,0:0:0:0:
192,192,73592,1,12,0:0:0:0:
448,192,73761,128,4,74270:0:0:0:0:
320,192,73931,1,2,0:0:0:0:
192,192,74100,1,4,0:0:0:0:
64,192,74270,1,12,0:0:0:0:
64,192,74439,1,2,0:0:0:0:
448,192,74609,1,4,1:0:0:0:
320,192,74609,128,2,75795:0:0:0:0:
192,192,74778,1,0,0:0:0:0:
64,192,74948,1,8,0:0:0:0:
448,192,75117,1,0,0:0:0:0:
64,192,75287,1,2,0:0:0:0:
192,192,75456,1,0,0:0:0:0:
448,192,75626,1,8,0:0:0:0:
64,192,75795,128,0,76473:0:0:0:0:
192,192,75965,1,2,0:0:0:0:
320,192,76134,1,0,0:0:0:0:
448,192,76304,1,8,0:0:0:0:
192,192,76473,128,0,77151:0:0:0:0:
320,192,76643,1,2,0:0:0:0:
448,192,76812,1,0,0:0:0:0:
64,192,76982,1,8,0:0:0:0:
448,192,77151,128,0,78677:0:0:0:0:
320,192,77321,1,2,0:0:0:0:
64,192,77490,1,0,0:0:0:0:
192,192,77660,1,8,0:0:0:0:
320,192,77829,1,0,0:0:0:0:
64,192,77999,1,2,0:0:0:0:
320,192,78168,1,0,0:0:0:0:
192,192,78338,1,8,0:0:0:0:
64,192,78507,1,0,0:0:0:0:
192,192,78677,1,8,0:0:0:0:
320,192,78677,1,0,0:0:0:0:
64,192,78846,1,8,0:0:0:0:
448,192,78846,1,0,0:0:0:0:
192,192,79016,1,8,0:0:0:0:
320,192,79016,1,0,0:0:0:0:
64,192,79355,128,2,79524:0:0:0:0:
192,192,79524,128,2,79694:0:0:0:0:
320,192,79694,1,8,1:0:0:0:
448,192,79694,1,0,0:0:0:0:
64,192,80033,1,4,1:0:0:0:
192,192,80033,1,2,0:0:0:0:
64,192,81050,1,4,1:0:0:0:
192,192,81050,1,2,0:0:0:0:
320,192,81219,1,4,1:0:0:0:
448,192,81219,1,2,0:0:0:0:
64,192,81389,1,2,0:0:0:0:
64,192,81558,1,2,0:0:0:0:
320,192,81727,1,8,0:0:0:0:
192,192,81897,1,2,0:0:0:0:
192,192,82066,1,2,0:0:0:0:
448,192,82236,1,8,0:0:0:0:
320,192,82744,1,4,1:0:0:0:
448,192,82744,1,2,0:0:0:0:
320,192,83253,1,4,1:0:0:0:
448,192,83253,1,2,0:0:0:0:
320,192,83761,1,4,1:0:0:0:
448,192,83761,1,2,0:0:0:0:
64,192,83931,1,4,1:0:0:0:
192,192,83931,1,2,0:0:0:0:
320,192,84100,1,0,0:0:0:0:
448,192,84185,128,0,84355:0:0:0:0:
192,192,84355,1,0,0:0:0:0:
320,192,84439,128,0,84609:0:0:0:0:
64,192,84609,1,0,0:0:0:0:
448,192,84694,128,0,84948:0:0:0:0:
192,192,84948,128,0,85117:0:0:0:0:
64,192,85117,128,8,85456:0:0:0:0:
320,192,85117,1,0,0:0:0:0:
448,192,85456,1,4,1:0:0:0:
192,192,85456,1,2,0:0:0:0:
64,192,86473,1,4,1:0:0:0:
320,192,86473,1,2,0:0:0:0:
448,192,86643,1,4,1:0:0:0:
192,192,86643,1,2,0:0:0:0:
64,192,86812,1,2,0:0:0:0:
64,192,86982,1,0,0:0:0:0:
448,192,87151,1,8,0:0:0:0:
320,192,87321,1,0,0:0:0:0:
192,192,87405,1,0,0:0:0:0:
448,192,87490,128,2,88168:0:0:0:0:
64,192,87660,1,0,0:0:0:0:
192,192,87829,128,2,88168:0:0:0:0:
320,192,88168,1,4,1:0:0:0:
64,192,88168,1,2,0:0:0:0:
320,192,88677,1,4,1:0:0:0:
64,192,88677,1,2,0:0:0:0:
320,192,89185,1,4,1:0:0:0:
64,192,89185,1,2,0:0:0:0:
192,192,89355,1,4,1:0:0:0:
448,192,89355,1,2,0:0:0:0:
64,192,89524,1,2,0:0:0:0:
320,192,89694,1,2,0:0:0:0:
64,192,89863,1,2,0:0:0:0:
320,192,90033,1,2,0:0:0:0:
64,192,90202,128,2,90541:0:0:0:0:
320,192,90372,128,2,90541:0:0:0:0:
448,192,90541,1,8,1:0:0:0:
192,192,90541,1,0,0:0:0:0:
64,192,90880,1,4,1:0:0:0:
320,192,90880,1,2,0:0:0:0:
192,192,91050,128,4,91219:0:0:0:0:
448,192,91219,1,8,0:0:0:0:
64,192,91389,128,4,91558:0:0:0:0:
320,192,91558,1,2,0:0:0:0:
448,192,91727,128,4,91897:0:0:0:0:
192,192,91897,1,8,0:0:0:0:
320,192,92066,128,4,92236:0:0:0:0:
64,192,92236,1,2,0:0:0:0:
192,192,92405,128,4,92575:0:0:0:0:
320,192,92575,1,8,0:0:0:0:
448,192,92744,128,4,92914:0:0:0:0:
64,192,92914,1,2,0:0:0:0:
320,192,93083,128,4,93253:0:0:0:0:
192,192,93253,1,8,0:0:0:0:
64,192,93422,128,4,93592:0:0:0:0:
448,192,93592,1,2,0:0:0:0:
320,192,93761,128,4,93931:0:0:0:0:
64,192,93931,1,8,0:0:0:0:
448,192,94100,128,4,94270:0:0:0:0:
192,192,94270,1,2,0:0:0:0:
64,192,94439,128,4,94609:0:0:0:0:
320,192,94609,1,8,0:0:0:0:
192,192,94778,128,4,94948:0:0:0:0:
448,192,94948,1,2,0:0:0:0:
320,192,95117,128,4,95287:0:0:0:0:
64,192,95287,1,8,0:0:0:0:
192,192,95456,128,4,95626:0:0:0:0:
448,192,95626,1,2,0:0:0:0:
64,192,95795,128,4,95965:0:0:0:0:
320,192,95965,1,8,0:0:0:0:
320,192,96134,1,8,0:0:0:0:
448,192,96304,1,4,1:0:0:0:
192,192,96304,1,2,0:0:0:0:
64,192,96473,1,2,0:0:0:0:
320,192,96643,1,8,0:0:0:0:
448,192,96812,128,2,97151:0:0:0:0:
192,192,96982,1,2,0:0:0:0:
320,192,97151,128,2,97490:0:0:0:0:
64,192,97321,1,8,0:0:0:0:
192,192,97490,128,2,97829:0:0:0:0:
448,192,97660,1,2,0:0:0:0:
64,192,97829,128,2,98168:0:0:0:0:
320,192,97999,1,8,0:0:0:0:
448,192,98168,128,2,98338:0:0:0:0:
192,192,98338,128,2,98507:0:0:0:0:
320,192,98507,128,2,98677:0:0:0:0:
64,192,98677,128,8,98846:0:0:0:0:
448,192,98846,128,2,99016:0:0:0:0:
64,192,99016,1,2,0:0:0:0:
64,192,99185,1,2,0:0:0:0:
448,192,99355,1,8,0:0:0:0:
448,192,99524,1,2,0:0:0:0:
192,192,99694,1,8,0:0:0:0:
192,192,99948,1,8,0:0:0:0:
192,192,100202,1,8,0:0:0:0:
64,192,100372,1,10,0:0:0:0:
448,192,100372,1,4,1:0:0:0:
320,192,100541,1,4,0:0:0:0:
320,192,100880,1,4,0:0:0:0:
320,192,101219,1,4,0:0:0:0:
192,192,101389,1,8,1:0:0:0:
448,192,101389,1,0,0:0:0:0:
448,192,101727,1,4,1:0:0:0:
64,192,101727,128,2,101897:0:0:0:0:
192,192,101982,1,0,0:0:0:0:
320,192,102066,1,8,0:0:0:0:
448,192,102236,1,0,0:0:0:0:
64,192,102405,1,2,0:0:0:0:
320,192,102490,1,0,0:0:0:0:
448,192,102575,1,0,0:0:0:0:
64,192,102744,1,8,0:0:0:0:
192,192,102914,1,0,0:0:0:0:
448,192,103083,128,2,103253:0:0:0:0:
64,192,103338,1,0,0:0:0:0:
320,192,103422,1,8,0:0:0:0:
192,192,103592,1,0,0:0:0:0:
448,192,103761,1,2,0:0:0:0:
64,192,103846,1,0,0:0:0:0:
320,192,103931,1,0,0:0:0:0:
448,192,104100,1,8,0:0:0:0:
192,192,104270,1,0,0:0:0:0:
64,192,104439,128,2,104609:0:0:0:0:
448,192,104694,1,0,0:0:0:0:
192,192,104778,1,8,0:0:0:0:
64,192,104948,1,0,0:0:0:0:
320,192,105117,1,2,0:0:0:0:
192,192,105202,1,0,0:0:0:0:
448,192,105287,1,0,0:0:0:0:
320,192,105456,1,8,0:0:0:0:
64,192,105626,1,2,0:0:0:0:
192,192,105795,1,2,0:0:0:0:
448,192,105795,1,0,0:0:0:0:
448,192,105965,1,2,0:0:0:0:
192,192,105965,1,0,0:0:0:0:
64,192,106304,1,2,0:0:0:0:
448,192,106304,1,0,0:0:0:0:
64,192,106643,1,2,0:0:0:0:
320,192,106643,1,0,0:0:0:0:
64,192,106812,128,2,107151:0:0:0:0:
320,192,106812,1,0,0:0:0:0:
320,192,107151,1,4,1:0:0:0:
448,192,107151,128,2,107321:0:0:0:0:
192,192,107405,1,0,0:0:0:0:
64,192,107490,1,8,0:0:0:0:
320,192,107660,1,0,0:0:0:0:
448,192,107829,1,2,0:0:0:0:
64,192,107914,1,0,0:0:0:0:
320,192,107999,1,0,0:0:0:0:
448,192,108168,1,8,0:0:0:0:
192,192,108338,1,0,0:0:0:0:
64,192,108507,128,4,108677:1:0:0:0:
320,192,108507,1,2,0:0:0:0:
448,192,108761,1,0,0:0:0:0:
320,192,108846,1,8,0:0:0:0:
64,192,109016,1,0,0:0:0:0:
192,192,109185,1,2,0:0:0:0:
320,192,109270,1,0,0:0:0:0:
448,192,109355,1,0,0:0:0:0:
64,192,109524,1,8,0:0:0:0:
320,192,109694,1,0,0:0:0:0:
448,192,109863,1,4,1:0:0:0:
64,192,109863,1,2,0:0:0:0:
192,192,110033,1,2,0:0:0:0:
320,192,110202,1,8,0:0:0:0:
448,192,110372,1,2,0:0:0:0:
192,192,110541,128,2,110711:0:0:0:0:
448,192,110711,128,2,110880:0:0:0:0:
64,192,110880,128,2,111050:0:0:0:0:
320,192,111050,128,2,111219:0:0:0:0:
64,192,111389,1,8,0:0:0:0:
448,192,111389,1,0,0:0:0:0:
64,192,111727,1,8,0:0:0:0:
448,192,111727,1,0,0:0:0:0:
192,192,112066,1,2,0:0:0:0:
320,192,112066,128,8,112575:0:0:0:0:
192,192,112236,128,2,112575:0:0:0:0:
448,192,112575,1,4,1:0:0:0:
64,192,112575,1,2,0:0:0:0:
