osu file format v14

[General]
AudioFilename: OVERDRIVERS.mp3
AudioLeadIn: 0
PreviewTime: 90612
Countdown: 0
SampleSet: Soft
StackLeniency: 0.7
Mode: 3
LetterboxInBreaks: 0
SpecialStyle: 0
WidescreenStoryboard: 0

[Editor]
Bookmarks: 68092
DistanceSpacing: 0.8
BeatDivisor: 4
GridSize: 32
TimelineZoom: 1.1

[Metadata]
Title:OVERDRIVERS
TitleUnicode:OVERDRIVERS
Artist:P*Light feat. mow*2
ArtistUnicode:P*Light feat. mow*2
Creator:Leonita
Version:BASIC
Source:SOUND VOLTEX II -infinite infection-
Tags:SDVX 2 Happy Hardcore Lily KONAMI BEMANI Colorful Palette ExUsagi Arzenvald [_A_v_a_l_o_n_]
BeatmapID:1230907
BeatmapSetID:563569

[Difficulty]
HPDrainRate:7
CircleSize:4
OverallDifficulty:6.5
ApproachRate:5
SliderMultiplier:1.4
SliderTickRate:1

[Events]
//Background and Video events
0,0,"142969025095a.jpg",0,0
//Break Periods
//Storyboard Layer 0 (Background)
//Storyboard Layer 1 (Fail)
//Storyboard Layer 2 (Pass)
//Storyboard Layer 3 (Foreground)
//Storyboard Layer 4 (Overlay)
//Storyboard Sound Samples

[TimingPoints]
1389,338.983050847458,4,2,2,50,1,0
36643,-100,4,2,2,50,0,1
57999,-100,4,2,2,50,0,0
90880,-100,4,2,2,50,0,1
100372,-100,4,2,2,50,0,0

[HitObjects]
64,192,1389,5,4,1:0:0:0:
448,192,1389,1,2,0:0:0:0:
320,192,1643,1,2,0:0:0:0:
64,192,1897,1,2,0:0:0:0:
448,192,2066,1,2,0:0:0:0:
320,192,2321,1,2,0:0:0:0:
64,192,2575,1,2,0:0:0:0:
448,192,2744,1,2,0:0:0:0:
192,192,2999,1,2,0:0:0:0:
320,192,3253,1,2,0:0:0:0:
64,192,3422,128,2,3761:0:0:0:0:
448,192,3761,1,8,1:0:0:0:
192,192,3761,1,0,0:0:0:0:
448,192,4100,1,4,1:0:0:0:
64,192,4100,1,2,0:0:0:0:
320,192,4439,1,8,0:0:0:0:
192,192,4778,1,2,0:0:0:0:
448,192,5117,1,8,0:0:0:0:
64,192,5456,1,2,0:0:0:0:
192,192,5795,1,8,0:0:0:0:
320,192,6134,1,2,0:0:0:0:
64,192,6473,1,8,0:0:0:0:
320,192,6812,1,2,0:0:0:0:
448,192,7151,1,8,0:0:0:0:
192,192,7490,1,2,0:0:0:0:
64,192,7829,1,8,0:0:0:0:
192,192,7999,1,2,0:0:0:0:
448,192,8168,1,2,0:0:0:0:
448,192,8338,1,2,0:0:0:0:
320,192,8677,1,2,0:0:0:0:
64,192,9016,1,2,0:0:0:0:
64,192,9185,128,2,9524:0:0:0:0:
192,192,9524,1,4,1:0:0:0:
448,192,9524,1,2,0:0:0:0:
320,192,9863,1,8,0:0:0:0:
448,192,10202,1,2,0:0:0:0:
192,192,10541,1,8,0:0:0:0:
64,192,10880,1,4,1:0:0:0:
448,192,10880,1,2,0:0:0:0:
320,192,11219,1,8,0:0:0:0:
64,192,11558,1,2,0:0:0:0:
192,192,11897,1,8,0:0:0:0:
64,192,12236,128,4,12575:1:0:0:0:
448,192,12236,1,2,0:0:0:0:
448,192,12575,128,2,12914:0:0:0:0:
192,192,12914,128,2,13592:0:0:0:0:
320,192,13761,1,8,0:0:0:0:
320,192,14100,1,8,0:0:0:0:
64,192,14439,128,2,14948:0:0:0:0:
448,192,14948,1,4,1:0:0:0:
320,192,14948,1,2,0:0:0:0:
192,192,16304,1,2,0:0:0:0:
192,192,16812,1,2,0:0:0:0:
320,192,17321,1,8,1:0:0:0:
448,192,17660,1,4,1:0:0:0:
64,192,17660,1,2,0:0:0:0:
192,192,17999,1,8,0:0:0:0:
448,192,18338,1,2,0:0:0:0:
320,192,18677,1,8,0:0:0:0:
64,192,19016,1,2,0:0:0:0:
320,192,19355,1,8,0:0:0:0:
192,192,19694,1,2,0:0:0:0:
448,192,20033,1,8,0:0:0:0:
320,192,20372,1,2,0:0:0:0:
64,192,20711,1,8,0:0:0:0:
192,192,21050,1,2,0:0:0:0:
448,192,21389,1,8,0:0:0:0:
64,192,21727,1,2,0:0:0:0:
320,192,22066,1,8,0:0:0:0:
192,192,22405,1,2,0:0:0:0:
448,192,22744,1,8,0:0:0:0:
64,192,23083,1,2,0:0:0:0:
320,192,23422,1,8,0:0:0:0:
192,192,23761,1,2,0:0:0:0:
448,192,24100,1,8,0:0:0:0:
320,192,24439,1,2,0:0:0:0:
64,192,24778,1,8,0:0:0:0:
448,192,25117,1,2,0:0:0:0:
192,192,25287,1,2,0:0:0:0:
320,192,25626,1,2,0:0:0:0:
64,192,25795,1,4,1:0:0:0:
448,192,25795,1,2,0:0:0:0:
192,192,26134,1,8,0:0:0:0:
448,192,26473,1,2,0:0:0:0:
64,192,26812,1,8,0:0:0:0:
320,192,27151,1,2,0:0:0:0:
192,192,27490,1,8,0:0:0:0:
448,192,27829,1,2,0:0:0:0:
64,192,28168,1,8,0:0:0:0:
192,192,28507,1,2,0:0:0:0:
448,192,28846,1,8,0:0:0:0:
320,192,29185,1,2,0:0:0:0:
64,192,29524,1,8,0:0:0:0:
320,192,29863,1,2,0:0:0:0:
192,192,30202,1,8,0:0:0:0:
448,192,30541,1,2,0:0:0:0:
64,192,30880,1,8,0:0:0:0:
192,192,31050,1,8,0:0:0:0:
320,192,31219,1,4,1:0:0:0:
448,192,31219,1,2,0:0:0:0:
320,192,31897,1,4,1:0:0:0:
448,192,31897,1,2,0:0:0:0:
192,192,32575,1,4,1:0:0:0:
64,192,32575,1,2,0:0:0:0:
192,192,33253,1,4,1:0:0:0:
64,192,33253,1,2,0:0:0:0:
320,192,33931,1,0,0:0:0:0:
448,192,33931,1,2,0:0:0:0:
192,192,34270,1,2,0:0:0:0:
64,192,34609,128,2,34948:0:0:0:0:
448,192,34948,128,2,35287:0:0:0:0:
64,192,35287,1,8,0:0:0:0:
192,192,35456,1,8,0:0:0:0:
320,192,35626,1,8,0:0:0:0:
448,192,35965,128,2,36304:0:0:0:0:
64,192,36304,1,8,1:0:0:0:
192,192,36304,1,0,0:0:0:0:
192,192,36643,1,2,0:0:0:0:
320,192,36643,1,4,1:0:0:0:
448,192,36982,1,8,0:0:0:0:
320,192,37321,1,2,0:0:0:0:
192,192,37660,1,8,0:0:0:0:
448,192,37660,1,0,0:0:0:0:
64,192,37999,1,2,0:0:0:0:
192,192,38338,1,8,0:0:0:0:
448,192,38677,1,2,0:0:0:0:
64,192,39016,1,8,0:0:0:0:
320,192,39016,1,0,0:0:0:0:
192,192,39355,1,2,0:0:0:0:
448,192,39694,1,8,0:0:0:0:
64,192,40033,1,2,0:0:0:0:
320,192,40372,1,8,0:0:0:0:
192,192,40372,1,0,0:0:0:0:
448,192,40711,1,2,0:0:0:0:
64,192,41050,1,8,0:0:0:0:
192,192,41389,1,2,0:0:0:0:
448,192,41727,1,8,0:0:0:0:
64,192,41727,1,0,0:0:0:0:
320,192,41897,1,2,0:0:0:0:
192,192,42066,1,2,0:0:0:0:
64,192,42405,1,8,0:0:0:0:
448,192,42744,1,2,0:0:0:0:
320,192,43083,1,8,0:0:0:0:
192,192,43083,1,0,0:0:0:0:
64,192,43422,1,2,0:0:0:0:
320,192,43761,1,8,0:0:0:0:
192,192,44100,1,2,0:0:0:0:
320,192,44439,1,8,0:0:0:0:
64,192,44439,1,0,0:0:0:0:
448,192,44778,1,2,0:0:0:0:
192,192,45117,1,8,0:0:0:0:
64,192,45456,1,2,0:0:0:0:
448,192,45795,1,8,0:0:0:0:
192,192,45795,1,0,0:0:0:0:
320,192,46134,1,2,0:0:0:0:
192,192,46473,1,8,0:0:0:0:
64,192,46812,1,2,0:0:0:0:
192,192,46982,1,2,0:0:0:0:
448,192,47151,1,8,0:0:0:0:
64,192,47321,1,2,0:0:0:0:
448,192,47490,1,4,1:0:0:0:
320,192,47490,1,2,0:0:0:0:
192,192,47829,1,8,0:0:0:0:
320,192,48168,1,2,0:0:0:0:
448,192,48507,1,8,0:0:0:0:
64,192,48507,1,0,0:0:0:0:
320,192,48846,1,2,0:0:0:0:
64,192,49185,1,8,0:0:0:0:
448,192,49524,1,2,0:0:0:0:
192,192,49863,1,8,0:0:0:0:
320,192,49863,1,0,0:0:0:0:
64,192,50202,1,2,0:0:0:0:
320,192,50541,1,8,0:0:0:0:
448,192,50880,1,2,0:0:0:0:
192,192,51219,1,8,0:0:0:0:
64,192,51219,1,0,0:0:0:0:
448,192,51558,1,2,0:0:0:0:
320,192,51897,1,8,0:0:0:0:
192,192,52236,1,2,0:0:0:0:
64,192,52575,1,8,0:0:0:0:
448,192,52575,1,0,0:0:0:0:
192,192,52744,1,8,0:0:0:0:
448,192,52914,1,4,1:0:0:0:
320,192,52914,1,2,0:0:0:0:
192,192,53253,1,8,0:0:0:0:
448,192,53592,1,2,0:0:0:0:
64,192,53931,1,8,0:0:0:0:
448,192,54270,1,4,1:0:0:0:
192,192,54270,1,2,0:0:0:0:
320,192,54609,1,8,0:0:0:0:
64,192,54948,1,2,0:0:0:0:
320,192,55287,1,8,0:0:0:0:
448,192,55626,1,4,1:0:0:0:
64,192,55626,128,2,56304:0:0:0:0:
448,192,56304,1,8,0:0:0:0:
320,192,56558,1,8,0:0:0:0:
192,192,56812,1,8,0:0:0:0:
448,192,56982,128,2,57999:0:0:0:0:
64,192,56982,1,4,1:0:0:0:
192,192,57999,1,8,1:0:0:0:
320,192,57999,1,8,0:0:0:0:
64,192,58338,128,4,59694:1:0:0:0:
448,192,59694,128,0,60711:0:0:0:0:
64,192,60711,1,8,0:0:0:0:
192,192,60880,1,8,0:0:0:0:
320,192,61050,1,8,0:0:0:0:
64,192,61304,1,8,0:0:0:0:
448,192,61558,1,8,0:0:0:0:
192,192,61812,1,8,0:0:0:0:
448,192,62066,1,8,0:0:0:0:
320,192,62236,1,8,0:0:0:0:
64,192,62405,128,2,62744:0:0:0:0:
192,192,62744,1,2,0:0:0:0:
320,192,62914,1,4,1:0:0:0:
448,192,63253,1,4,1:0:0:0:
64,192,63592,1,2,0:0:0:0:
192,192,63761,1,4,1:0:0:0:
320,192,63761,1,2,0:0:0:0:
448,192,64100,1,2,0:0:0:0:
192,192,64439,1,2,0:0:0:0:
64,192,64778,1,2,0:0:0:0:
320,192,65117,1,4,1:0:0:0:
448,192,65117,1,2,0:0:0:0:
192,192,65456,1,2,0:0:0:0:
64,192,65795,1,2,0:0:0:0:
448,192,66134,1,2,0:0:0:0:
64,192,66473,1,4,1:0:0:0:
320,192,66473,1,2,0:0:0:0:
64,192,66812,1,2,0:0:0:0:
192,192,67151,1,4,1:0:0:0:
448,192,67151,1,2,0:0:0:0:
448,192,67490,1,2,0:0:0:0:
320,192,67829,1,4,1:0:0:0:
192,192,67829,1,2,0:0:0:0:
320,192,68507,128,2,68846:0:0:0:0:
64,192,68846,1,8,1:0:0:0:
192,192,69185,1,4,1:0:0:0:
448,192,69185,1,2,0:0:0:0:
320,192,69524,1,8,0:0:0:0:
192,192,69863,1,2,0:0:0:0:
64,192,70202,1,8,0:0:0:0:
448,192,70541,1,2,0:0:0:0:
192,192,70880,1,8,0:0:0:0:
320,192,71219,1,2,0:0:0:0:
64,192,71558,1,8,0:0:0:0:
448,192,71897,1,2,0:0:0:0:
320,192,72236,1,8,0:0:0:0:
64,192,72575,1,2,0:0:0:0:
192,192,72914,1,8,0:0:0:0:
320,192,73253,1,2,0:0:0:0:
64,192,73592,1,8,0:0:0:0:
448,192,73931,1,2,0:0:0:0:
192,192,74270,1,8,0:0:0:0:
320,192,74439,1,2,0:0:0:0:
64,192,74609,1,2,0:0:0:0:
448,192,74609,1,4,1:0:0:0:
192,192,74948,1,8,0:0:0:0:
320,192,75287,1,2,0:0:0:0:
448,192,75626,1,8,0:0:0:0:
64,192,75965,1,2,0:0:0:0:
192,192,76304,1,8,0:0:0:0:
448,192,76643,1,2,0:0:0:0:
320,192,76982,1,8,0:0:0:0:
64,192,77321,1,2,0:0:0:0:
320,192,77660,1,8,0:0:0:0:
192,192,77999,1,2,0:0:0:0:
448,192,78338,1,8,0:0:0:0:
320,192,78677,1,8,0:0:0:0:
192,192,78846,1,8,0:0:0:0:
64,192,79016,1,8,0:0:0:0:
448,192,79355,5,2,0:0:0:0:
320,192,79694,1,8,1:0:0:0:
448,192,80033,128,2,81050:0:0:0:0:
64,192,80033,1,4,1:0:0:0:
64,192,81050,1,4,1:0:0:0:
64,192,81219,1,4,1:0:0:0:
320,192,81389,128,2,81727:0:0:0:0:
192,192,81727,1,8,0:0:0:0:
320,192,81897,128,2,82236:0:0:0:0:
192,192,82236,1,8,0:0:0:0:
448,192,82405,128,2,82744:0:0:0:0:
64,192,82744,1,4,1:0:0:0:
64,192,83253,1,4,1:0:0:0:
64,192,83761,1,4,1:0:0:0:
448,192,83931,1,4,1:0:0:0:
320,192,84100,128,0,84439:0:0:0:0:
192,192,84439,128,0,84778:0:0:0:0:
64,192,84778,1,0,0:0:0:0:
320,192,85117,1,8,0:0:0:0:
64,192,85456,128,2,86473:0:0:0:0:
448,192,85456,1,4,1:0:0:0:
448,192,86473,1,4,1:0:0:0:
448,192,86643,1,4,0:0:0:0:
192,192,86812,128,2,87151:0:0:0:0:
448,192,87151,128,2,87490:0:0:0:0:
320,192,87490,128,2,87829:0:0:0:0:
192,192,87829,128,2,88168:0:0:0:0:
64,192,88168,1,4,1:0:0:0:
64,192,88677,1,4,1:0:0:0:
64,192,89185,1,4,1:0:0:0:
448,192,89355,128,4,90541:1:0:0:0:
64,192,90202,128,2,90541:0:0:0:0:
320,192,90541,1,8,1:0:0:0:
64,192,90880,1,4,1:0:0:0:
448,192,90880,1,2,0:0:0:0:
192,192,91219,1,8,0:0:0:0:
320,192,91219,1,0,0:0:0:0:
448,192,91558,1,2,0:0:0:0:
192,192,91897,1,8,0:0:0:0:
64,192,91897,1,0,0:0:0:0:
320,192,92236,1,2,0:0:0:0:
448,192,92575,1,8,0:0:0:0:
192,192,92575,1,0,0:0:0:0:
64,192,92914,1,2,0:0:0:0:
320,192,93253,1,8,0:0:0:0:
192,192,93253,1,0,0:0:0:0:
448,192,93592,1,2,0:0:0:0:
320,192,93931,1,8,0:0:0:0:
64,192,93931,1,0,0:0:0:0:
192,192,94270,1,2,0:0:0:0:
448,192,94609,1,8,0:0:0:0:
320,192,94609,1,0,0:0:0:0:
64,192,94948,1,2,0:0:0:0:
320,192,95287,1,8,0:0:0:0:
192,192,95287,1,0,0:0:0:0:
448,192,95626,1,2,0:0:0:0:
64,192,95965,1,8,0:0:0:0:
320,192,95965,1,0,0:0:0:0:
192,192,96134,1,8,0:0:0:0:
320,192,96304,1,4,1:0:0:0:
448,192,96304,1,2,0:0:0:0:
192,192,96643,1,8,0:0:0:0:
64,192,96643,1,0,0:0:0:0:
320,192,96982,1,2,0:0:0:0:
192,192,97321,1,8,0:0:0:0:
448,192,97321,1,0,0:0:0:0:
64,192,97660,1,2,0:0:0:0:
448,192,97999,1,8,0:0:0:0:
320,192,97999,1,0,0:0:0:0:
192,192,98338,1,2,0:0:0:0:
64,192,98677,1,8,0:0:0:0:
320,192,98677,1,0,0:0:0:0:
448,192,99016,1,2,0:0:0:0:
320,192,99185,1,2,0:0:0:0:
192,192,99355,1,8,0:0:0:0:
64,192,99524,1,2,0:0:0:0:
448,192,99694,1,8,0:0:0:0:
192,192,99948,1,8,0:0:0:0:
320,192,100202,1,8,0:0:0:0:
448,192,100372,128,2,101389:0:0:0:0:
64,192,100372,1,4,1:0:0:0:
192,192,101389,1,8,1:0:0:0:
320,192,101389,1,8,0:0:0:0:
448,192,101727,1,4,1:0:0:0:
64,192,101727,1,2,0:0:0:0:
320,192,102066,1,8,0:0:0:0:
192,192,102405,1,2,0:0:0:0:
448,192,102744,1,8,0:0:0:0:
64,192,103083,1,2,0:0:0:0:
192,192,103422,1,8,0:0:0:0:
320,192,103761,1,2,0:0:0:0:
64,192,104100,1,8,0:0:0:0:
448,192,104439,1,2,0:0:0:0:
192,192,104778,1,8,0:0:0:0:
320,192,105117,1,2,0:0:0:0:
64,192,105456,1,8,0:0:0:0:
192,192,105626,1,2,0:0:0:0:
448,192,105795,1,2,0:0:0:0:
448,192,105965,1,2,0:0:0:0:
320,192,106304,1,2,0:0:0:0:
64,192,106643,1,2,0:0:0:0:
64,192,106812,128,2,107151:0:0:0:0:
448,192,107151,1,4,1:0:0:0:
192,192,107151,1,2,0:0:0:0:
320,192,107490,1,8,0:0:0:0:
192,192,107829,1,2,0:0:0:0:
64,192,108168,1,8,0:0:0:0:
192,192,108507,1,4,1:0:0:0:
448,192,108507,1,2,0:0:0:0:
320,192,108846,1,8,0:0:0:0:
448,192,109185,1,2,0:0:0:0:
64,192,109524,1,8,0:0:0:0:
320,192,109863,1,2,0:0:0:0:
448,192,110033,1,2,0:0:0:0:
64,192,110202,1,8,0:0:0:0:
192,192,110372,1,2,0:0:0:0:
448,192,110541,128,2,111219:0:0:0:0:
192,192,111389,1,8,0:0:0:0:
192,192,111727,1,8,0:0:0:0:
64,192,112066,128,2,112575:0:0:0:0:
320,192,112575,1,4,1:0:0:0:
448,192,112575,1,2,0:0:0:0:
