osu file format v14

[General]
AudioFilename: OVERDRIVERS.mp3
AudioLeadIn: 0
PreviewTime: 90612
Countdown: 0
SampleSet: None
StackLeniency: 0.7
Mode: 2
LetterboxInBreaks: 0
WidescreenStoryboard: 1

[Editor]
Bookmarks: 68092
DistanceSpacing: 0.8
BeatDivisor: 6
GridSize: 16
TimelineZoom: 1.9

[Metadata]
Title:OVERDRIVERS
TitleUnicode:OVERDRIVERS
Artist:P*Light feat. mow*2
ArtistUnicode:P*Light feat. mow*2
Creator:LeWind
Version:Show Time
Source:SOUND VOLTEX II -infinite infection-
Tags:SDVX 2 Happy Hardcore Lily KONAMI BEMANI Colorful Palette ExUsagi Arzenvald [_A_v_a_l_o_n_]
BeatmapID:1676939
BeatmapSetID:798583

[Difficulty]
HPDrainRate:3
CircleSize:4
OverallDifficulty:8.2
ApproachRate:9.7
SliderMultiplier:1.6
SliderTickRate:1

[Events]
//Background and Video events
0,0,"overdrivers.jpg",0,0
//Break Periods
//Storyboard Layer 0 (Background)
//Storyboard Layer 1 (Fail)
//Storyboard Layer 2 (Pass)
//Storyboard Layer 3 (Foreground)
//Storyboard Sound Samples

[TimingPoints]
1375,338.983050847458,4,2,2,50,1,0
3747,-45.4545454545455,4,2,2,50,0,0
3832,-166.666666666667,4,2,2,50,0,0
4086,-100,4,2,2,50,0,0
17307,-45.4545454545455,4,2,2,50,0,0
17391,-166.666666666667,4,2,2,50,0,0
17646,-100,4,2,2,50,0,0
36290,-76.9230769230769,4,2,2,50,0,0
36459,-166.666666666667,4,2,2,50,0,0
36544,-125,4,2,2,50,0,0
36629,-100,4,2,2,50,0,1
56629,-100,4,2,2,50,0,1
57985,-45.4545454545455,4,2,2,50,0,0
58069,-166.666666666667,4,2,2,50,0,0
58324,-100,4,2,2,50,0,0
79680,-45.4545454545455,4,2,2,50,0,0
79764,-166.666666666667,4,2,2,50,0,0
80019,-100,4,2,2,50,0,0
89510,-66.6666666666667,4,2,2,50,0,0
89552,-120.481927710843,4,2,2,50,0,0
89680,-66.6666666666667,4,2,2,50,0,0
89722,-120.481927710843,4,2,2,50,0,0
89849,-66.6666666666667,4,2,2,50,0,0
89891,-120.481927710843,4,2,2,50,0,0
90019,-66.6666666666667,4,2,2,50,0,0
90061,-120.481927710843,4,2,2,50,0,0
90188,-76.9230769230769,4,2,2,50,0,0
90230,-142.857142857143,4,2,2,50,0,0
90273,-76.9230769230769,4,2,2,50,0,0
90315,-142.857142857143,4,2,2,50,0,0
90358,-76.9230769230769,4,2,2,50,0,0
90400,-142.857142857143,4,2,2,50,0,0
90442,-76.9230769230769,4,2,2,50,0,0
90485,-142.857142857143,4,2,2,50,0,0
90527,-62.5,4,2,2,50,0,0
90612,-83.3333333333333,4,2,2,50,0,0
90697,-125,4,2,2,50,0,0
90781,-250,4,2,2,50,0,0
90866,-100,4,2,2,50,0,1
100358,-100,4,2,2,50,0,0
101375,-45.4545454545455,4,2,2,50,0,0
101459,-166.666666666667,4,2,2,50,0,0
101713,-100,4,2,2,50,0,0
110527,-100,4,2,2,50,0,0
112391,-25,4,2,2,50,0,0
112561,-100,4,2,2,50,0,0

[HitObjects]
224,288,1375,6,0,L|160:224,1,80
480,192,1713,1,0,0:0:0:0:
128,128,1883,1,0,0:0:0:0:
448,224,2052,2,0,L|384:128,1,80
96,192,2391,1,0,0:0:0:0:
416,224,2561,2,0,L|352:128,1,80
64,224,2900,2,0,L|160:160,1,80
448,192,3239,6,0,L|480:160,1,40
320,192,3408,2,0,L|288:160,1,40
448,192,3578,2,0,L|480:160,1,40
96,160,3747,2,0,B|0:128|128:128|192:96,1,176.000005371094
384,288,4086,6,0,L|320:192,1,80
64,224,4425,1,0,0:0:0:0:
352,256,4595,2,0,L|384:160,1,80
96,224,4934,2,0,L|32:160,1,80
320,224,5273,2,0,L|256:160,1,80
512,160,5612,6,0,L|480:64,1,80
160,224,5951,2,0,L|64:224,3,80
384,160,6629,6,0,L|288:128,1,80
32,192,6968,1,0,0:0:0:0:
352,224,7137,1,0,0:0:0:0:
32,224,7307,2,0,L|128:160,1,80
448,160,7646,1,0,0:0:0:0:
64,192,7815,1,0,0:0:0:0:
512,224,7985,6,0,L|416:224,2,80
320,192,8493,2,0,L|416:128,1,80
160,192,8832,2,0,L|224:96,1,80
0,192,9171,2,0,L|0:96,1,80
416,192,9510,6,0,L|320:192,2,80
96,224,10019,2,0,L|32:128,1,80
416,192,10358,1,0,0:0:0:0:
64,256,10527,2,0,L|64:160,1,80
416,256,10866,6,0,L|416:160,1,80
96,256,11205,2,0,L|96:160,1,80
416,192,11544,2,0,L|320:192,2,80
128,160,12052,1,0,0:0:0:0:
384,192,12222,6,0,L|416:192,1,20
128,192,12307,6,0,L|96:192,1,20
384,192,12391,6,0,L|416:192,1,20
128,192,12476,6,0,L|96:192,1,20
384,192,12561,6,0,L|416:192,1,20
128,192,12646,6,0,L|96:192,1,20
384,192,12730,6,0,L|416:192,1,20
128,192,12815,6,0,L|96:192,1,20
384,192,12900,6,0,L|416:192,1,20
128,192,12985,6,0,L|96:192,1,20
384,192,13069,6,0,L|416:192,1,20
128,192,13154,6,0,L|96:192,1,20
384,192,13239,6,0,L|416:192,1,20
128,192,13324,6,0,L|96:192,1,20
384,192,13408,6,0,L|416:192,1,20
128,192,13493,6,0,L|96:192,1,20
448,224,13578,6,0,L|352:224,2,80
224,224,14086,2,0,L|320:96,1,160
0,192,14595,2,0,B|96:192|64:160|-32:160|-32:160|0:160,1,160
448,224,15103,2,0,L|320:224,2,120
96,224,15781,6,0,L|0:160,1,80
416,224,16120,1,0,0:0:0:0:
192,224,16290,1,0,0:0:0:0:
480,224,16459,1,0,0:0:0:0:
32,224,16629,1,0,0:0:0:0:
384,224,16798,2,0,B|352:160|320:192|224:192|544:192,1,280
32,192,17646,6,0,L|96:128,1,80
512,192,17985,1,0,0:0:0:0:
256,192,18154,1,0,0:0:0:0:
512,192,18324,1,0,0:0:0:0:
256,192,18493,1,0,0:0:0:0:
0,192,18663,1,0,0:0:0:0:
256,192,18832,1,0,0:0:0:0:
512,192,19002,5,0,0:0:0:0:
256,192,19171,1,0,0:0:0:0:
0,192,19341,1,0,0:0:0:0:
256,192,19510,1,0,0:0:0:0:
0,192,19680,1,0,0:0:0:0:
416,256,19849,2,0,L|480:192,1,80
192,224,20188,6,0,L|256:128,1,80
480,192,20527,2,0,L|384:128,1,80
32,192,20866,1,0,0:0:0:0:
256,192,21036,1,0,0:0:0:0:
512,192,21205,1,0,0:0:0:0:
256,192,21375,1,0,0:0:0:0:
512,192,21544,6,0,L|416:192,3,80
160,192,22222,2,0,L|64:192,1,80
448,192,22561,2,0,L|480:96,1,80
128,192,22900,6,0,L|224:192,1,80
448,192,23239,2,0,L|544:192,1,80
192,192,23578,2,0,L|288:192,1,80
32,192,23917,2,0,L|128:192,1,80
320,192,24256,5,0,0:0:0:0:
96,192,24425,1,0,0:0:0:0:
256,192,24595,1,0,0:0:0:0:
32,192,24764,2,0,B|32:128|128:224|192:288|192:288|288:192,1,320
0,192,25781,6,0,L|96:192,2,80
256,192,26290,1,0,0:0:0:0:
512,192,26459,1,0,0:0:0:0:
288,192,26629,1,0,0:0:0:0:
512,192,26798,1,0,0:0:0:0:
256,192,26968,1,0,0:0:0:0:
0,192,27137,1,0,0:0:0:0:
224,192,27307,1,0,0:0:0:0:
0,192,27476,5,0,0:0:0:0:
256,192,27646,1,0,0:0:0:0:
512,192,27815,1,0,0:0:0:0:
0,192,27985,1,0,0:0:0:0:
480,224,28154,2,0,L|416:160,1,80
64,224,28493,6,0,L|96:128,1,80
416,224,28832,2,0,L|448:128,1,80
224,224,29171,2,0,L|256:128,1,80
32,224,29510,2,0,L|64:128,1,80
384,224,29849,2,0,L|288:224,2,80
64,224,30358,6,0,L|0:128,1,80
320,224,30697,2,0,L|416:224,1,80
32,224,31036,2,0,L|128:224,1,80
480,192,31375,6,0,L|416:192,1,40
224,192,31544,6,0,L|160:192,1,40
384,192,31713,6,0,L|448:192,1,40
256,192,31883,6,0,L|192:192,1,40
32,224,32052,6,0,L|-32:192,1,40
352,160,32222,6,0,L|384:128,1,40
128,128,32391,6,0,L|192:128,1,40
352,128,32561,6,0,L|384:96,1,40
480,160,32730,6,0,L|512:192,1,40
64,256,32900,6,0,L|32:288,1,40
352,256,33069,6,0,L|320:224,1,40
96,192,33239,6,0,L|32:192,1,40
448,160,33408,6,0,L|416:128,1,40
64,96,33578,6,0,L|128:64,1,40
448,224,33747,6,0,L|416:192,1,40
32,192,33917,6,0,L|0:192,1,20
256,192,34002,6,0,L|288:192,1,20
32,192,34086,6,0,L|0:192,1,20
256,192,34171,6,0,L|288:192,1,20
32,192,34256,6,0,L|0:192,1,20
256,192,34341,6,0,L|288:192,1,20
32,192,34425,6,0,L|0:192,1,20
256,192,34510,6,0,L|288:192,1,20
32,192,34595,6,0,L|0:192,1,20
256,192,34680,6,0,L|288:192,1,20
32,192,34764,6,0,L|0:192,1,20
256,192,34849,6,0,L|288:192,1,20
32,192,34934,6,0,L|0:192,1,20
256,192,35019,6,0,L|288:192,1,20
32,192,35103,6,0,L|0:192,1,20
256,192,35188,6,0,L|288:192,1,20
64,224,35273,6,0,L|32:160,1,40
256,192,35442,2,0,L|192:160,1,40
480,192,35612,2,0,L|448:160,1,40
32,192,35951,1,0,0:0:0:0:
384,160,36120,1,0,0:0:0:0:
96,192,36290,1,0,0:0:0:0:
256,192,36629,5,0,0:0:0:0:
512,192,36798,1,0,0:0:0:0:
256,192,36968,1,0,0:0:0:0:
0,192,37137,1,0,0:0:0:0:
256,192,37307,1,0,0:0:0:0:
256,192,37476,1,0,0:0:0:0:
0,192,37646,1,0,0:0:0:0:
256,192,37815,1,0,0:0:0:0:
512,192,37985,5,0,0:0:0:0:
256,192,38154,1,0,0:0:0:0:
0,192,38324,1,0,0:0:0:0:
512,192,38493,1,0,0:0:0:0:
256,192,38663,1,0,0:0:0:0:
0,192,38832,1,0,0:0:0:0:
256,192,39002,1,0,0:0:0:0:
0,192,39171,1,0,0:0:0:0:
256,192,39341,5,0,0:0:0:0:
512,192,39510,1,0,0:0:0:0:
256,192,39680,1,0,0:0:0:0:
512,192,39849,1,0,0:0:0:0:
256,192,40019,1,0,0:0:0:0:
0,192,40188,1,0,0:0:0:0:
256,192,40358,5,0,0:0:0:0:
512,192,40527,1,0,0:0:0:0:
256,192,40697,1,0,0:0:0:0:
0,192,40866,1,0,0:0:0:0:
256,192,41036,1,0,0:0:0:0:
368,192,41375,5,0,0:0:0:0:
144,192,41544,1,0,0:0:0:0:
448,256,41713,2,0,B|432:160|416:160|32:208|288:112|400:32|96:64,1,480
256,304,43069,2,0,B|304:256|304:256|176:256|176:256|448:160,1,480
144,192,44256,5,0,0:0:0:0:
384,208,44425,1,0,0:0:0:0:
0,192,44595,1,0,0:0:0:0:
256,192,44764,1,0,0:0:0:0:
512,192,44934,1,0,0:0:0:0:
256,192,45103,1,0,0:0:0:0:
512,192,45273,1,0,0:0:0:0:
256,192,45442,1,0,0:0:0:0:
0,192,45612,5,0,0:0:0:0:
256,192,45781,1,0,0:0:0:0:
0,192,45951,1,0,0:0:0:0:
256,192,46120,1,0,0:0:0:0:
512,192,46290,1,0,0:0:0:0:
256,192,46459,1,0,0:0:0:0:
128,272,46798,2,0,P|80:224|128:128,1,160
256,192,47476,5,0,0:0:0:0:
512,192,47646,1,0,0:0:0:0:
256,192,47815,1,0,0:0:0:0:
512,192,47985,1,0,0:0:0:0:
0,192,48154,1,0,0:0:0:0:
256,192,48324,1,0,0:0:0:0:
0,192,48493,1,0,0:0:0:0:
512,192,48663,1,0,0:0:0:0:
256,192,48832,5,0,0:0:0:0:
0,192,49002,1,0,0:0:0:0:
512,192,49171,1,0,0:0:0:0:
0,192,49341,1,0,0:0:0:0:
256,192,49510,1,0,0:0:0:0:
0,192,49680,1,0,0:0:0:0:
512,192,49849,1,0,0:0:0:0:
144,192,50358,5,0,0:0:0:0:
352,192,50527,1,0,0:0:0:0:
144,192,50697,1,0,0:0:0:0:
336,192,50866,1,0,0:0:0:0:
128,192,51036,1,0,0:0:0:0:
448,192,51205,1,0,0:0:0:0:
32,192,51375,1,0,0:0:0:0:
512,192,51544,1,0,0:0:0:0:
0,192,51713,5,0,0:0:0:0:
256,192,51883,1,0,0:0:0:0:
512,192,52052,1,0,0:0:0:0:
256,192,52222,1,0,0:0:0:0:
0,192,52391,1,0,0:0:0:0:
256,192,52561,1,0,0:0:0:0:
0,176,52730,1,0,0:0:0:0:
256,176,52900,1,0,0:0:0:0:
0,192,53069,6,0,L|64:160,1,40
192,192,53239,6,0,L|256:160,1,40
448,208,53408,6,0,L|512:192,1,40
208,208,53578,6,0,L|256:192,1,40
400,192,53747,6,0,L|464:160,1,40
176,192,53917,6,0,L|240:176,1,40
400,128,54086,6,0,L|448:112,1,40
160,128,54256,6,0,L|224:96,1,40
464,192,54425,6,0,L|416:160,1,40
160,256,54595,6,0,L|144:224,1,20
304,256,54680,6,0,L|320:224,1,20
112,208,54764,6,0,L|96:176,1,20
352,224,54849,6,0,L|368:192,1,20
80,176,54934,6,0,L|64:144,1,20
400,192,55019,6,0,L|416:160,1,20
48,128,55103,6,0,L|32:96,1,20
432,160,55188,6,0,L|448:128,1,20
16,80,55273,6,0,L|0:48,1,20
464,128,55358,6,0,L|480:96,1,20
16,208,55442,6,0,L|0:176,1,20
480,192,55527,6,0,L|496:160,1,20
16,224,55612,6,0,L|0:224,1,10
480,224,55654,6,0,L|496:224,1,10
16,224,55697,6,0,L|0:224,1,10
480,224,55739,6,0,L|496:224,1,10
16,224,55781,6,0,L|0:224,1,10
480,224,55823,6,0,L|496:224,1,10
16,224,55866,6,0,L|0:224,1,10
480,224,55908,6,0,L|496:224,1,10
16,224,55951,6,0,L|0:224,1,10
480,224,55993,6,0,L|496:224,1,10
16,224,56036,6,0,L|0:224,1,10
480,224,56078,6,0,L|496:224,1,10
16,224,56120,6,0,L|0:224,1,10
480,224,56162,6,0,L|496:224,1,10
16,224,56205,6,0,L|0:224,1,10
480,224,56247,6,0,L|496:224,1,10
16,224,56290,6,0,L|0:224,1,10
480,224,56332,6,0,L|496:224,1,10
16,224,56375,6,0,L|0:224,1,10
480,224,56417,6,0,L|496:224,1,10
16,224,56459,6,0,L|0:224,1,10
480,224,56501,6,0,L|496:224,1,10
16,224,56544,6,0,L|0:224,1,10
480,224,56586,6,0,L|496:224,1,10
112,208,56629,6,0,L|80:176,1,40
352,224,56798,2,0,L|384:160,1,40
64,128,56968,1,0,0:0:0:0:
96,256,58324,6,0,B|64:192|160:160|256:192|256:128|0:160|-32:128|-32:128|64:64,1,480
480,224,59680,2,0,B|416:224|384:192|352:160|352:128|512:32,1,320
96,256,60697,6,0,L|128:192,1,40
416,224,60866,2,0,L|384:160,1,40
32,192,61036,1,0,0:0:0:0:
224,208,61205,6,0,L|288:176,1,40
464,176,61375,2,0,L|432:112,1,40
48,224,61544,2,0,L|16:160,1,40
352,224,61713,2,0,L|288:192,1,40
0,192,61883,2,0,L|0:128,1,40
96,192,62052,6,0,L|80:192,1,10
352,192,62095,6,0,L|368:192,1,10
96,192,62137,6,0,L|80:192,1,10
352,192,62180,6,0,L|368:192,1,10
96,192,62222,6,0,L|80:192,1,10
352,192,62265,6,0,L|368:192,1,10
96,192,62307,6,0,L|80:192,1,10
352,192,62350,6,0,L|368:192,1,10
448,160,62391,6,0,L|416:112,1,40
144,160,62561,2,0,L|112:128,1,40
448,224,62730,2,0,L|448:176,1,40
96,224,62900,2,0,L|112:160,1,40
480,192,63069,1,0,0:0:0:0:
48,208,63239,1,0,0:0:0:0:
96,192,63365,6,0,L|80:192,1,10
432,192,63408,6,0,L|448:192,1,10
96,192,63450,6,0,L|80:192,1,10
432,192,63493,6,0,L|448:192,1,10
96,192,63535,6,0,L|80:192,1,10
432,192,63578,6,0,L|448:192,1,10
96,192,63620,6,0,L|80:192,1,10
432,192,63663,6,0,L|448:192,1,10
32,208,63747,6,0,P|32:144|48:128,1,80
304,224,64086,2,0,P|240:224|240:192,1,80
480,208,64425,2,0,P|480:144|448:128,1,80
160,208,64764,2,0,L|224:144,1,80
480,192,65103,6,0,P|432:160|448:128,1,80
64,176,65442,2,0,P|128:176|96:176,1,80
416,224,65781,2,0,L|368:160,1,80
128,240,66120,2,0,P|128:192|176:160,1,80
432,224,66459,2,0,L|400:144,1,80
80,240,66798,6,0,L|96:160,1,80
224,256,67137,2,0,L|288:192,1,80
448,176,67476,2,0,L|384:112,1,80
128,192,67815,2,0,L|464:176,1,320
32,192,68663,2,0,L|96:192,2,40
400,208,69171,6,0,L|352:128,1,80
112,208,69510,2,0,L|192:208,2,80
448,176,70019,2,0,L|368:96,1,80
160,224,70358,2,0,B|128:176|128:176|160:128,1,80
480,240,70697,6,0,P|496:176|464:144,1,80
176,224,71036,2,0,L|256:224,1,80
496,208,71375,2,0,L|432:144,1,80
224,224,71713,2,0,P|192:176|176:144,1,80
16,208,72052,2,0,L|0:128,1,80
128,224,72391,6,0,L|224:176,1,80
416,192,72730,2,0,L|368:128,1,80
160,208,73069,2,0,L|96:144,1,80
352,192,73408,2,0,L|432:192,1,80
96,192,73747,2,0,L|112:112,1,80
432,176,74086,6,0,L|336:160,1,80
80,208,74425,2,0,P|128:192|128:160,1,80
352,208,74764,2,0,P|352:160|384:128,1,80
112,208,75103,2,0,L|64:144,1,80
352,176,75442,2,0,L|304:96,1,80
64,192,75781,6,0,L|128:128,1,80
288,208,76120,2,0,L|320:128,1,80
512,176,76459,2,0,L|496:80,1,80
272,208,76798,2,0,P|224:160|224:128,1,80
480,160,77137,1,0,0:0:0:0:
224,208,77307,6,0,L|224:144,1,40
0,208,77477,6,0,L|0:160,1,40
144,208,77646,6,0,L|128:160,1,40
320,224,77816,6,0,L|288:176,1,40
496,208,77985,6,0,L|448:176,1,40
272,208,78155,6,0,L|272:160,1,40
64,208,78324,6,0,L|80:160,1,40
256,208,78494,6,0,L|224:160,1,40
432,192,78663,6,0,L|400:144,1,40
16,208,78832,6,0,L|0:160,1,40
240,176,79002,5,0,0:0:0:0:
448,192,79341,1,0,0:0:0:0:
224,192,79510,1,0,0:0:0:0:
464,256,79680,2,0,L|400:176,1,88.000002685547
144,288,80019,6,0,B|128:224|224:240|288:192|96:144|144:64|240:0,1,320
480,224,80866,2,0,L|448:176,1,40
176,256,81036,2,0,B|192:192|272:192|368:160|416:96|80:0,1,480
416,208,82222,1,0,0:0:0:0:
224,192,82391,1,0,0:0:0:0:
448,208,82561,6,0,L|416:160,1,40
80,144,82730,1,0,0:0:0:0:
96,224,83069,6,0,L|96:160,1,40
320,176,83239,1,0,0:0:0:0:
32,208,83747,5,0,0:0:0:0:
384,192,83832,1,0,0:0:0:0:
48,208,83917,1,0,0:0:0:0:
144,240,84764,6,0,L|160:144,1,80
352,160,85103,1,0,0:0:0:0:
112,256,85273,2,0,L|128:192,1,40
384,176,85442,1,0,0:0:0:0:
96,224,86459,2,0,L|48:176,1,40
464,176,86629,1,0,0:0:0:0:
112,192,86798,6,0,L|80:144,1,40
256,176,86968,6,0,L|288:128,1,40
112,192,87137,6,0,L|80:144,1,40
256,176,87307,6,0,L|288:128,1,40
112,192,87476,6,0,L|80:144,1,40
256,176,87646,6,0,L|288:128,1,40
112,192,87815,6,0,L|80:144,1,40
240,176,87985,5,0,0:0:0:0:
416,176,88069,5,0,0:0:0:0:
0,144,88154,5,0,0:0:0:0:
416,240,88324,6,0,L|336:160,1,80
144,208,88663,2,0,L|176:144,1,40
16,240,88832,1,0,0:0:0:0:
208,160,89171,5,0,0:0:0:0:
432,192,89341,1,0,0:0:0:0:
64,208,89510,6,0,L|48:128,1,60.0000022888184
288,208,89680,2,0,L|336:160,1,60.0000022888184
64,208,89849,2,0,L|48:128,1,60.0000022888184
288,208,90019,2,0,L|336:160,1,60.0000022888184
48,176,90188,6,0,L|32:128,1,25.9999988098145
224,176,90273,6,0,L|240:144,1,25.9999988098145
48,176,90358,6,0,L|32:128,1,25.9999988098145
224,176,90443,6,0,L|240:144,1,25.9999988098145
48,176,90527,6,0,L|32:128,1,25.9999988098145
512,192,90697,5,0,0:0:0:0:
256,192,90866,5,0,0:0:0:0:
0,192,91036,1,0,0:0:0:0:
256,192,91205,1,0,0:0:0:0:
0,192,91375,1,0,0:0:0:0:
256,192,91544,1,0,0:0:0:0:
512,192,91713,1,0,0:0:0:0:
256,192,91883,1,0,0:0:0:0:
512,192,92052,1,0,0:0:0:0:
288,192,92222,5,0,0:0:0:0:
512,192,92391,1,0,0:0:0:0:
256,192,92561,1,0,0:0:0:0:
0,192,92730,1,0,0:0:0:0:
256,192,92900,1,0,0:0:0:0:
512,192,93069,1,0,0:0:0:0:
256,192,93239,1,0,0:0:0:0:
160,192,93578,5,0,0:0:0:0:
384,192,93747,1,0,0:0:0:0:
160,192,93917,1,0,0:0:0:0:
384,192,94086,1,0,0:0:0:0:
160,192,94256,1,0,0:0:0:0:
384,192,94425,1,0,0:0:0:0:
96,192,94595,1,0,0:0:0:0:
416,192,94764,1,0,0:0:0:0:
96,192,94934,5,0,0:0:0:0:
416,192,95103,1,0,0:0:0:0:
32,192,95273,1,0,0:0:0:0:
480,192,95442,1,0,0:0:0:0:
0,192,95612,1,0,0:0:0:0:
512,192,95781,1,0,0:0:0:0:
0,192,95951,1,0,0:0:0:0:
256,192,96120,1,0,0:0:0:0:
512,192,96290,5,0,0:0:0:0:
32,224,96459,6,0,L|64:192,1,40
288,224,96629,6,0,L|336:192,1,40
80,224,96798,6,0,L|32:192,1,40
288,208,96968,6,0,L|256:176,1,40
496,208,97137,6,0,L|464:160,1,40
224,224,97307,6,0,L|240:176,1,40
512,208,97476,6,0,L|480:176,1,40
224,224,97646,6,0,L|256:176,1,40
32,208,97815,6,0,L|48:160,1,40
368,208,97985,6,0,L|336:160,1,40
96,208,98154,6,0,L|128:160,1,40
352,208,98324,6,0,L|320:176,1,40
512,192,98493,6,0,L|512:144,1,40
16,192,98663,6,0,L|16:144,1,40
496,208,98832,6,0,L|480:160,1,40
176,240,99002,6,0,L|160:224,1,20
352,256,99086,6,0,L|368:224,1,20
176,240,99171,6,0,L|160:224,1,20
352,256,99255,6,0,L|368:224,1,20
176,240,99341,6,0,L|160:224,1,20
352,256,99425,6,0,L|368:224,1,20
176,240,99510,6,0,L|160:224,1,20
352,256,99594,6,0,L|368:224,1,20
176,240,99680,6,0,L|160:224,1,20
352,256,99764,6,0,L|368:224,1,20
176,240,99849,6,0,L|160:224,1,20
352,256,99933,6,0,L|368:224,1,20
176,240,100019,6,0,L|160:224,1,20
352,256,100103,6,0,L|368:224,1,20
176,240,100189,6,0,L|160:224,1,20
352,256,100273,6,0,L|368:224,1,20
32,272,100358,6,0,B|16:240|208:224|400:240|368:160,1,360
80,256,101713,6,0,L|112:192,1,53.3333333333333
240,224,101925,2,0,L|256:160,1,60
16,128,102222,1,0,0:0:0:0:
160,128,102391,1,0,0:0:0:0:
16,128,102561,1,0,0:0:0:0:
432,192,102730,2,0,L|400:112,1,80
144,288,103069,6,0,L|176:224,1,53.3333333333333
416,240,103295,2,0,L|432:176,1,53.3333333333333
80,160,103578,1,0,0:0:0:0:
352,160,103747,1,0,0:0:0:0:
64,160,103917,1,0,0:0:0:0:
464,176,104086,1,0,0:0:0:0:
96,160,104256,1,0,0:0:0:0:
480,240,104425,6,0,L|448:176,1,60
112,240,104651,2,0,L|144:176,1,53.3333333333333
416,240,104934,2,0,L|400:176,1,53.3333333333333
32,224,105146,6,0,L|80:176,1,60
416,272,105442,6,0,L|416:192,1,80
240,224,105654,2,0,L|240:160,1,60
16,176,105951,1,0,0:0:0:0:
416,208,106120,1,0,0:0:0:0:
112,208,106290,2,0,L|208:208,3,80
448,224,107137,6,0,L|448:160,1,60
272,208,107363,2,0,L|288:144,1,53.3333333333333
432,160,107646,1,0,0:0:0:0:
176,176,107815,1,0,0:0:0:0:
448,160,107985,1,0,0:0:0:0:
80,256,108154,6,0,L|80:176,1,80
320,224,108437,2,0,L|320:112,1,106.666666666667
64,192,108832,2,0,L|0:128,1,80
448,192,109171,6,0,L|368:192,2,80
80,176,109680,1,0,0:0:0:0:
416,208,109849,6,0,L|448:176,1,40
64,208,110019,6,0,L|32:176,1,40
416,208,110188,6,0,L|448:176,1,40
64,208,110358,6,0,L|32:176,1,40
416,208,110527,6,0,L|432:192,1,20
64,208,110612,6,0,L|48:192,1,20
416,208,110697,6,0,L|432:192,1,20
64,208,110782,6,0,L|48:192,1,20
416,208,110866,6,0,L|432:192,1,20
64,208,110951,6,0,L|48:192,1,20
416,208,111036,6,0,L|432:192,1,20
64,208,111121,6,0,L|48:192,1,20
368,240,111205,6,0,L|336:160,1,80
48,208,111544,2,0,L|112:144,1,80
416,176,111883,1,0,0:0:0:0:
464,176,112052,1,0,0:0:0:0:
304,208,112222,6,0,L|352:208,1,40
32,192,112391,2,0,L|192:192,2,160
