osu file format v14

[General]
AudioFilename: audio.mp3
AudioLeadIn: 0
PreviewTime: 35866
Countdown: 0
SampleSet: Normal
StackLeniency: 0.7
Mode: 1
LetterboxInBreaks: 0
WidescreenStoryboard: 0

[Editor]
Bookmarks: 1375,3408,3578,3747,4086,8154,8324,8663,9002,9171,9510,12222,13747,14086,14425,14595,14934,16290,16798,17307,17646,25103,25273,25612,25781,31205,33917,35273,35442,35612,35951,36120,36290,36629,47476,52900,56968,57985,58324,60697,60866,61036,63747,66459,69171,74595,76634,78663,80019,81036,81205,82730,83239,83747,83917,85442,86459,86629,88154,88663,89171,89341,90866,100358,101713,105781,105951,106290,106629,106798,107137,109849,112561
DistanceSpacing: 0.8
BeatDivisor: 2
GridSize: 32
TimelineZoom: 1

[Metadata]
Title:OVERDRIVERS
TitleUnicode:OVERDRIVERS
Artist:P*Light feat. mow*2
ArtistUnicode:P*Light feat. mow*2
Creator:404 AccNotFound
Version:Kantan
Source:SOUND VOLTEX II -infinite infection-
Tags:SDVX 2 Happy Hardcore Lily KONAMI BEMANI Colorful Palette iloveyou4ever charlotte
BeatmapID:1443352
BeatmapSetID:682477

[Difficulty]
HPDrainRate:8
CircleSize:5
OverallDifficulty:3
ApproachRate:5
SliderMultiplier:1.4
SliderTickRate:1

[Events]
//Background and Video events
0,0,"overdrivers.jpg",0,100
//Break Periods
//Storyboard Layer 0 (Background)
//Storyboard Layer 1 (Fail)
//Storyboard Layer 2 (Pass)
//Storyboard Layer 3 (Foreground)
//Storyboard Sound Samples

[TimingPoints]
1380,338.983050847458,4,1,0,100,1,0
36634,-100,4,1,0,100,0,1
56973,-100,4,1,0,100,0,0
90871,-100,4,1,0,100,0,1
100363,-100,4,1,0,100,0,0

[HitObjects]
224,160,1380,5,12,0:0:0:0:
224,160,2057,1,12,0:0:0:0:
224,160,2735,1,12,0:0:0:0:
192,128,4091,1,4,0:0:0:0:
224,224,4769,1,0,0:0:0:0:
192,128,5108,1,0,0:0:0:0:
96,128,5447,1,8,0:0:0:0:
64,128,6125,1,0,0:0:0:0:
224,224,6464,1,8,0:0:0:0:
224,128,6803,1,0,0:0:0:0:
288,128,7481,1,0,0:0:0:0:
224,128,8159,1,12,0:0:0:0:
7,149,8668,1,12,0:0:0:0:
224,128,9515,1,4,0:0:0:0:
256,224,10193,1,0,0:0:0:0:
139,158,10532,1,0,0:0:0:0:
160,128,10871,1,8,0:0:0:0:
256,224,11549,1,0,0:0:0:0:
194,89,11888,1,8,0:0:0:0:
160,128,12227,1,0,0:0:0:0:
160,128,12905,1,0,0:0:0:0:
160,128,13752,1,12,0:0:0:0:
160,128,14091,1,12,0:0:0:0:
160,128,14430,1,12,0:0:0:0:
160,128,14939,1,4,0:0:0:0:
192,128,16295,1,8,0:0:0:0:
192,128,16803,1,8,0:0:0:0:
192,128,17651,1,4,0:0:0:0:
224,192,18329,1,8,0:0:0:0:
224,192,19007,1,0,0:0:0:0:
224,160,19346,1,8,0:0:0:0:
192,160,19685,1,0,0:0:0:0:
224,128,20363,1,8,0:0:0:0:
224,128,21041,1,8,0:0:0:0:
224,128,21718,1,0,0:0:0:0:
160,160,22057,1,0,0:0:0:0:
160,160,22396,1,8,0:0:0:0:
224,128,23074,1,0,0:0:0:0:
160,96,23752,1,8,0:0:0:0:
160,128,24430,1,0,0:0:0:0:
160,128,25786,1,4,0:0:0:0:
192,128,26464,1,8,0:0:0:0:
192,128,27142,1,0,0:0:0:0:
192,192,27481,1,0,0:0:0:0:
192,128,27820,1,8,0:0:0:0:
192,128,28498,1,8,0:0:0:0:
192,128,29176,1,0,0:0:0:0:
320,160,29854,1,8,0:0:0:0:
192,128,31210,1,12,0:0:0:0:
192,128,31888,1,12,0:0:0:0:
192,128,32566,1,12,0:0:0:0:
192,128,33244,1,12,0:0:0:0:
192,128,33922,1,0,0:0:0:0:
192,128,34261,1,0,0:0:0:0:
192,128,34600,1,0,0:0:0:0:
192,192,34939,1,0,0:0:0:0:
192,128,35278,1,8,0:0:0:0:
128,96,36634,1,4,0:0:0:0:
101,122,37312,1,8,0:0:0:0:
256,96,37990,1,8,0:0:0:0:
201,48,38329,1,0,0:0:0:0:
224,160,38668,1,8,0:0:0:0:
128,128,39346,1,0,0:0:0:0:
128,128,40024,1,0,0:0:0:0:
128,128,40702,1,8,0:0:0:0:
128,160,41041,1,8,0:0:0:0:
160,160,41380,1,8,0:0:0:0:
224,96,42057,1,0,0:0:0:0:
201,97,42735,1,8,0:0:0:0:
192,96,43413,1,8,0:0:0:0:
192,96,43752,1,0,0:0:0:0:
192,96,44091,1,8,0:0:0:0:
192,96,44769,1,0,0:0:0:0:
192,96,45447,1,8,0:0:0:0:
192,96,46125,1,0,0:0:0:0:
190,86,46464,1,0,0:0:0:0:
160,128,46803,1,8,0:0:0:0:
192,96,47481,1,0,0:0:0:0:
192,96,48159,1,8,0:0:0:0:
256,160,48837,1,0,0:0:0:0:
256,96,49176,1,8,0:0:0:0:
192,96,49515,1,0,0:0:0:0:
192,96,50193,1,8,0:0:0:0:
192,96,50871,1,0,0:0:0:0:
192,96,51549,1,8,0:0:0:0:
192,96,52905,1,0,0:0:0:0:
192,96,53583,1,0,0:0:0:0:
192,96,54261,1,8,0:0:0:0:
192,96,54939,1,8,0:0:0:0:
192,96,55617,1,0,0:0:0:0:
192,96,55956,1,0,0:0:0:0:
192,96,56295,1,8,0:0:0:0:
224,128,56634,1,8,0:0:0:0:
192,96,56973,1,0,0:0:0:0:
192,96,58329,1,4,0:0:0:0:
192,128,61041,1,4,0:0:0:0:
192,128,61549,1,4,0:0:0:0:
192,128,62396,1,12,0:0:0:0:
192,128,62905,1,12,0:0:0:0:
192,128,63752,1,0,0:0:0:0:
224,128,64430,1,0,0:0:0:0:
224,128,65108,1,0,0:0:0:0:
224,128,65786,1,0,0:0:0:0:
224,128,66464,1,8,0:0:0:0:
224,128,66803,1,8,0:0:0:0:
224,128,67142,1,8,0:0:0:0:
256,192,67820,12,0,68837,0:0:0:0:
224,128,69176,5,4,0:0:0:0:
256,192,69854,1,0,0:0:0:0:
224,128,70532,1,8,0:0:0:0:
224,128,70871,1,0,0:0:0:0:
160,192,71210,1,8,0:0:0:0:
224,128,71888,1,0,0:0:0:0:
192,96,72566,1,8,0:0:0:0:
256,160,73244,1,0,0:0:0:0:
256,160,73583,1,0,0:0:0:0:
256,160,73922,1,8,0:0:0:0:
256,160,74600,1,0,0:0:0:0:
256,160,75956,1,0,0:0:0:0:
256,160,76634,1,0,0:0:0:0:
256,192,77312,1,8,0:0:0:0:
256,192,77651,1,8,0:0:0:0:
256,192,77990,1,8,0:0:0:0:
224,256,78329,1,8,0:0:0:0:
256,192,78668,1,8,0:0:0:0:
256,192,80024,1,4,0:0:0:0:
160,96,81210,1,12,0:0:0:0:
160,128,82735,1,12,0:0:0:0:
160,128,83244,1,12,0:0:0:0:
160,128,83922,1,4,0:0:0:0:
160,128,85447,1,4,0:0:0:0:
160,128,86634,1,12,0:0:0:0:
160,128,88159,1,12,0:0:0:0:
160,128,88668,1,12,0:0:0:0:
160,128,89346,1,4,0:0:0:0:
160,128,90871,1,4,0:0:0:0:
224,160,91549,1,8,0:0:0:0:
288,160,91888,1,8,0:0:0:0:
160,128,92227,1,0,0:0:0:0:
160,128,92905,1,8,0:0:0:0:
160,128,93583,1,0,0:0:0:0:
160,128,94261,1,8,0:0:0:0:
128,96,94600,1,0,0:0:0:0:
160,128,94939,1,8,0:0:0:0:
160,128,96295,1,0,0:0:0:0:
256,128,96973,1,0,0:0:0:0:
192,128,97651,1,8,0:0:0:0:
192,128,98329,1,8,0:0:0:0:
192,128,99007,1,0,0:0:0:0:
192,128,99346,1,0,0:0:0:0:
192,128,99685,1,8,0:0:0:0:
128,128,100024,1,8,0:0:0:0:
192,128,100363,1,0,0:0:0:0:
192,128,101718,1,4,0:0:0:0:
224,224,102396,1,0,0:0:0:0:
224,224,102735,1,0,0:0:0:0:
96,128,103074,1,8,0:0:0:0:
64,128,103752,1,0,0:0:0:0:
160,224,104091,1,8,0:0:0:0:
224,128,104430,1,0,0:0:0:0:
288,128,105108,1,0,0:0:0:0:
224,128,105786,1,12,0:0:0:0:
224,160,106295,1,12,0:0:0:0:
224,128,107142,1,4,0:0:0:0:
256,224,107820,1,0,0:0:0:0:
256,224,108159,1,0,0:0:0:0:
160,128,108498,1,8,0:0:0:0:
256,224,109176,1,0,0:0:0:0:
256,224,109515,1,8,0:0:0:0:
160,128,109854,1,0,0:0:0:0:
160,128,110532,1,0,0:0:0:0:
160,128,111379,5,12,0:0:0:0:
160,128,111718,1,12,0:0:0:0:
160,128,112057,1,12,0:0:0:0:
192,64,112566,1,4,0:0:0:0:
